VERSION	0.00.00	1.05.00
FES_MODE	0
BPM_DEF	188.000	188.000	188.000	188.000
MET_DEF	4	4
RESOLUTION	384
CLK_DEF	384
COMPATIBLE_CODE	MA2

BPM	0	0	188.000
MET	0	0	4	4

EXTAP	1	336	5
EXTAP	1	360	5
BXTAP	2	0	4
NMTTP	2	144	6	A	0	M1
NMTTP	2	288	5	B	0	M1
NMTTP	3	48	4	E	0	M1
NMTTP	3	192	6	E	0	M1
NMTTP	3	288	5	E	0	M1
BRTAP	4	0	2
BRTAP	4	0	3
NMTTP	4	144	1	A	0	M1
NMTTP	4	288	2	B	0	M1
NMTTP	5	48	4	E	0	M1
NMTTP	5	192	2	E	0	M1
NMTTP	5	288	3	E	0	M1
BRTAP	6	0	4
BRHLD	6	0	6	528
NMTAP	6	144	3
NMTAP	6	288	5
NMTAP	7	48	1
NMTAP	7	144	7
NMSTR	7	192	7
NMSCR	7	192	7	96	48	2
NMSTR	7	288	4
NMSCR	7	288	4	96	48	7
BRTAP	8	0	3
NMTAP	8	96	1
NMTAP	8	120	0
NMTAP	8	144	1
NMTAP	8	168	0
NMTAP	8	192	1
NMTAP	8	216	0
NMTAP	8	240	1
NMTAP	8	264	0
EXTAP	8	288	2
EXTAP	8	288	7
NMTTP	9	48	6	A	0	M1
NMTTP	9	72	6	E	0	M1
NMTTP	9	96	5	E	0	M1
EXTAP	9	144	1
BXSTR	9	192	0
NMSI_	9	192	0	96	48	3
BXSTR	9	192	4
NMSI_	9	192	4	96	48	7
BRTAP	9	288	0
BRTAP	9	288	4
NMHLD	10	0	6	96
NMTAP	10	96	7
NMTAP	10	144	0
NMTAP	10	144	6
NMTAP	10	240	2
NMTAP	10	288	1
NMTAP	10	288	3
NMTAP	11	0	7
NMTAP	11	48	7
NMSTR	11	96	1
NMSI_	11	96	1	96	48	4
NMSTR	11	192	5
NMSCR	11	192	5	96	48	0
NMTAP	11	288	3
NMHLD	12	0	1	96
NMTAP	12	96	0
NMTAP	12	144	1
NMTAP	12	144	7
NMTAP	12	240	5
NMTAP	12	288	4
NMTAP	12	288	6
NMTAP	13	0	0
NMTAP	13	48	0
NMSTR	13	96	6
NMSI_	13	96	6	96	48	3
NMSTR	13	192	2
NMSCL	13	192	2	96	48	7
NMTAP	13	288	4
NMHLD	14	0	6	96
NMTAP	14	96	7
NMTAP	14	144	0
NMTAP	14	144	6
NMTAP	14	240	2
NMTAP	14	288	1
NMTAP	14	288	3
NMTAP	15	0	0
NMTAP	15	48	1
NMSTR	15	96	2
NMSI_	15	96	2	96	48	7
NMSTR	15	192	5
NMSI_	15	192	5	96	48	0
NMTAP	15	288	1
NMTAP	16	0	1
NMTAP	16	48	2
NMTAP	16	96	3
NMTAP	16	144	5
NMTAP	16	168	4
NMTAP	16	192	5
NMSTR	16	240	1
NMSI_	16	240	1	96	48	4
NMTAP	16	336	0
NMTAP	16	336	1
NMTAP	17	48	7
NMTAP	17	96	7
NMTAP	17	144	0
NMSTR	17	144	6
NMSI_	17	144	6	96	48	4
NMTAP	17	240	3
NMTAP	17	288	3
CNSI_	17	288	4	0	48	0
NMTAP	18	0	1
NMTAP	18	96	1
NMHLD	18	192	0	96
NMTAP	18	192	2
NMTAP	18	288	2
NMTAP	19	0	3
NMHLD	19	0	7	96
NMTAP	19	96	3
NMTAP	19	192	4
NMHLD	19	192	6	96
NMTAP	19	288	4
NMTAP	20	0	3
NMHLD	20	0	5	288
NMTAP	20	96	3
NMTAP	20	192	3
NMTAP	20	288	3
NMTAP	21	0	2
NMHLD	21	0	4	96
NMTAP	21	96	2
NMTAP	21	192	2
NMTAP	21	240	3
NMTAP	21	288	2
NMTAP	22	0	6
NMTAP	22	96	6
NMHLD	22	192	3	96
NMTAP	22	192	5
NMTAP	22	288	5
NMHLD	23	0	2	96
NMTAP	23	0	4
NMTAP	23	96	4
NMHLD	23	192	1	96
NMTAP	23	192	3
NMTAP	23	288	3
NMHLD	24	0	2	96
NMTAP	24	0	4
NMTAP	24	96	4
NMTAP	24	192	5
NMTAP	24	240	4
NMTAP	24	288	5
NMTAP	25	0	2
NMTAP	25	0	6
NMSTR	25	48	1
NMSI_	25	48	1	96	48	4
NMSTR	25	48	7
NMSI_	25	48	7	96	48	3
EXTAP	25	144	1
EXTAP	25	144	7
NMTAP	25	240	5
NMTAP	25	288	4
NMTAP	25	288	5
NMHLD	26	0	1	96
NMTAP	26	0	3
NMTAP	26	96	0
NMTAP	26	144	0
NMTAP	26	192	1
NMTAP	26	192	7
NMTAP	26	288	5
NMTAP	26	336	5
NMTAP	27	0	4
NMTAP	27	0	6
NMTAP	27	96	2
NMHLD	27	144	2	96
NMTAP	27	240	3
NMTAP	27	336	0
NMTAP	27	336	1
NMTAP	28	0	2
NMTAP	28	0	7
NMTAP	28	96	6
NMTAP	28	96	7
NMTAP	28	144	0
NMSTR	28	144	5
NMSCL	28	144	5	96	96	2
NMSTR	28	240	2
NMSCL	28	240	2	96	96	7
NMSTR	28	336	7
NMSCL	28	336	7	96	192	1
NMSTR	29	192	0
NMSF_	29	192	0	96	48	4
EXTAP	30	0	2
EXHLD	30	0	6	72
NMHLD	30	72	4	72
NMTAP	30	144	3
NMTAP	30	240	0
NMSTR	30	240	1
NMSI_	30	240	1	96	48	4
NMSTR	30	336	7
NMSI_	30	336	7	96	48	3
NMTAP	31	48	0
NMTAP	31	144	2
NMTAP	31	192	2
NMTAP	31	240	3
NMTAP	31	288	4
NMTAP	31	336	1
NMHLD	31	336	5	384
NMTAP	32	48	2
NMTAP	32	96	3
NMTAP	32	144	4
NMTAP	32	192	6
NMTAP	32	240	7
NMTAP	32	288	0
NMHLD	32	336	1	96
NMTAP	33	48	3
NMTAP	33	96	4
NMTAP	33	144	5
BRTAP	33	192	2
BRTAP	33	192	6
BRTAP	33	240	2
BRTAP	33	240	6
NMSTR	34	0	0
NMSCL	34	0	0	96	576	2
NMTAP	34	0	1
NMSTR	36	0	7
NMSCR	36	0	7	96	576	5
EXTAP	37	288	7
NMTAP	38	0	6
NMHLD	38	48	6	96
NMTAP	38	144	4
NMHLD	38	192	4	96
NMTAP	38	288	5
NMTAP	39	0	1
NMHLD	39	48	1	96
NMTAP	39	144	3
NMHLD	39	192	3	96
NMTAP	39	288	2
NMTAP	40	0	5
NMTAP	40	48	5
NMTAP	40	96	0
NMTAP	40	144	4
NMTAP	40	192	2
NMTAP	40	240	2
NMTAP	40	288	3
NMTAP	40	336	1
NMTAP	41	0	5
NMTAP	41	48	5
NMTAP	41	96	4
NMTAP	41	144	6
NMTAP	41	192	2
NMTAP	41	240	2
NMTAP	41	288	7
NMTAP	41	336	0
NMHLD	41	336	6	96
NMTAP	42	48	3
NMTAP	42	96	2
NMTAP	42	144	1
NMTAP	42	192	4
NMTAP	42	240	5
NMTAP	42	288	3
NMTAP	42	336	2
NMTAP	43	0	5
NMTAP	43	48	6
NMTAP	43	96	2
NMTAP	43	144	1
NMTAP	43	192	6
NMTAP	43	240	7
NMTAP	43	288	1
NMSTR	43	336	0
NMSV_	43	336	0	96	48	5
NMTAP	43	336	6
NMTAP	44	48	7
NMTAP	44	96	7
NMTAP	44	144	7
NMTAP	44	192	3
NMTAP	44	240	2
NMTAP	44	288	1
NMTAP	44	336	0
NMSTR	44	336	6
NMSI_	44	336	6	96	48	2
NMTAP	45	48	1
NMTAP	45	96	1
NMTAP	45	144	1
NMTAP	45	192	4
NMTAP	45	240	5
NMTAP	45	288	6
NMSTR	45	336	1
NMSCR	45	336	1	96	48	4
NMTAP	45	336	7
NMTAP	46	48	5
NMTAP	46	96	5
NMTAP	46	144	5
NMTAP	46	192	3
NMTAP	46	240	2
NMTAP	46	288	1
EXSTR	46	336	0
NMSI_	46	336	0	96	48	4
EXSTR	46	336	7
NMSI_	46	336	7	96	48	3
NMTTP	47	48	0	C	1	M1
BRTAP	47	144	1
BRTAP	47	144	6
NMSTR	47	288	0
NMSCR	47	288	0	96	48	3
NMTAP	47	288	7
EXSTR	48	0	6
NMSI_	48	0	6	96	48	2
NMSTR	48	96	4
NMSI_	48	96	4	96	48	0
NMTAP	48	192	5
NMTAP	48	288	7
NMTAP	48	336	7
NMSTR	49	0	0
NMSV_	49	0	0	96	48	3
NMSTR	49	0	6
NMSV_	49	0	6	96	48	3
NMTAP	49	192	4
NMTAP	49	240	5
NMTAP	49	288	0
NMTAP	49	336	1
NMSTR	50	0	2
NMSV_	50	0	2	96	48	7
NMTAP	50	0	6
NMTAP	50	96	3
NMTAP	50	192	1
NMSTR	50	192	5
NMSCR	50	192	5	96	48	0
NMTAP	50	288	4
NMTAP	51	0	2
NMHLD	51	0	7	72
NMHLD	51	72	5	72
NMTAP	51	144	4
BRTAP	51	192	2
BRTAP	51	192	6
NMTAP	51	288	1
NMTAP	51	288	7
EXHLD	51	336	1	96
EXTAP	51	336	7
NMTAP	52	48	3
NMTAP	52	96	4
NMTAP	52	144	5
NMTAP	52	192	2
NMTAP	52	192	6
NMTAP	52	240	2
NMSTR	52	240	6
NMSI_	52	240	6	96	48	3
NMSTR	52	336	1
NMSUR	52	336	1	96	48	5
NMTAP	52	336	6
NMTAP	53	48	1
NMSTR	53	48	7
NMSCR	53	48	7	96	48	2
NMTAP	53	144	3
NMTAP	53	144	7
EXTAP	53	240	0
EXTAP	53	288	0
EXTAP	53	336	0
NMTAP	54	0	6
NMTAP	54	0	7
BXTAP	54	48	1
BRTAP	54	48	5
NMTAP	54	144	6
NMTAP	54	144	7
BRTAP	54	192	0
BXTAP	54	192	4
NMTAP	54	288	6
NMTAP	54	288	7
BXTAP	54	336	1
BRTAP	54	336	5
NMHLD	55	48	2	96
NMTAP	55	48	3
EXSTR	55	144	0
NMSI_	55	144	0	96	48	4
EXSTR	55	192	6
NMSI_	55	192	6	96	48	2
BRTAP	55	240	0
BRTAP	55	288	6
NMSTR	56	0	1
NMSCR	56	0	1	96	48	4
NMSTR	56	96	7
NMSI_	56	96	7	96	48	3
NMTAP	56	192	2
NMTAP	56	288	0
NMTAP	56	336	0
NMSTR	57	0	1
NMSV_	57	0	1	96	48	4
NMSTR	57	0	7
NMSV_	57	0	7	96	48	4
NMTAP	57	192	3
NMTAP	57	240	2
NMTAP	57	288	7
NMTAP	57	336	6
NMTAP	58	0	1
NMSTR	58	0	5
NMSV_	58	0	5	96	48	0
NMTAP	58	96	4
NMSTR	58	192	2
NMSCL	58	192	2	96	48	7
NMTAP	58	192	6
NMTAP	58	288	3
NMHLD	59	0	0	72
NMTAP	59	0	5
NMHLD	59	72	2	72
NMTAP	59	144	3
NMSTR	59	192	1
NMSI_	59	192	1	96	48	5
NMTAP	59	192	5
NMTAP	59	288	7
BRTAP	59	336	7
NMTAP	60	48	4
NMTAP	60	96	3
NMTAP	60	144	2
NMTAP	60	192	1
NMTAP	60	192	5
NMTAP	60	240	6
NMTAP	60	288	7
NMSTR	60	336	0
NMSCL	60	336	0	96	48	5
NMTAP	60	336	1
NMSTR	61	48	2
BRSXR	61	48	2	96	168	4
NMTTP	61	144	5	B	0	M1
NMTTP	61	144	6	B	0	M1
NMTTP	61	144	6	E	1	M1
NMTAP	62	0	5
NMTAP	62	48	4
NMTAP	62	96	3
NMTAP	62	144	6
NMTAP	62	192	5
NMTAP	62	240	4
NMHLD	62	288	7	96
NMTAP	63	0	4
NMTAP	63	48	4
NMTAP	63	144	5
NMTAP	63	192	4
NMTAP	63	192	5
NMTAP	63	288	0
NMTAP	63	288	7
NMTAP	64	0	2
NMTAP	64	48	3
NMTAP	64	96	4
NMTAP	64	144	1
NMTAP	64	192	2
NMTAP	64	240	3
NMHLD	64	288	0	96
NMTAP	65	0	3
NMTAP	65	48	3
NMTAP	65	144	2
NMTAP	65	144	4
NMTAP	65	192	2
NMTAP	65	192	4
NMTAP	65	216	1
NMTAP	65	240	0
NMTAP	65	264	7
NMTAP	65	288	6
NMTAP	65	312	5
NMTAP	65	336	4
NMTAP	65	360	3
EXTAP	66	0	2
EXTAP	66	0	6
NMSTR	66	96	1
NMSI_	66	96	1	96	48	4
NMTAP	66	144	1
NMSTR	66	192	6
NMSI_	66	192	6	96	48	3
NMTAP	66	240	6
NMSTR	66	288	0
NMSI_	66	288	0	96	48	3
NMTAP	66	336	0
NMSTR	67	0	7
NMSI_	67	0	7	96	48	4
NMTAP	67	48	7
NMSTR	67	96	1
NMSI_	67	96	1	96	48	5
NMTAP	67	144	1
NMSTR	67	192	6
NMSI_	67	192	6	96	48	2
NMTAP	67	240	6
NMTAP	67	288	0
NMTAP	67	336	0
EXTAP	68	0	1
EXTAP	68	0	7
NMTAP	68	48	6
NMTAP	68	96	5
EXTAP	68	144	3
EXTAP	68	144	4
NMTAP	68	192	2
NMTAP	68	240	1
EXTAP	68	288	0
EXTAP	68	288	6
EXTAP	68	336	0
EXTAP	68	336	6
NMTAP	69	48	2
NMTAP	69	72	3
NMTAP	69	96	1
NMTAP	69	144	5
NMTAP	69	168	4
NMTAP	69	192	6
NMTAP	69	240	0
NMTAP	69	264	7
NMTAP	69	288	0
NMTAP	69	312	7
NMTAP	69	336	0
NMHLD	70	0	1	288
NMHLD	70	0	6	288
NMTAP	70	336	3
NMTAP	70	336	4
NMTAP	71	48	0
NMTAP	71	48	1
NMTAP	71	96	2
NMTAP	71	96	3
NMTAP	71	144	4
NMTAP	71	144	5
NMSTR	71	192	6
NMSI_	71	192	6	96	48	2
NMSTR	71	192	7
NMSI_	71	192	7	96	48	3
BRSTR	71	288	6
NMSCL	71	288	6	96	672	7
BRSTR	71	288	7
NMSCR	71	288	7	96	672	6
NMTTP	71	289	0	C	1	M1
NMTAP	74	0	6
NMTAP	74	0	7
NMTAP	74	96	1
NMTAP	74	144	0
NMTAP	74	144	1
NMTAP	74	240	6
NMTAP	74	288	6
NMTAP	74	288	7
NMTAP	75	0	2
NMTAP	75	48	0
NMTAP	75	48	2
NMTAP	75	144	5
NMSTR	75	192	5
NMSI_	75	192	5	96	48	0
NMTAP	75	192	7
NMTAP	75	288	4
NMTAP	76	0	1
NMTAP	76	0	3
NMTAP	76	96	6
NMTAP	76	144	6
NMTAP	76	144	7
NMTAP	76	240	1
NMTAP	76	288	0
NMTAP	76	288	1
NMTAP	77	0	5
NMTAP	77	48	5
NMTAP	77	48	7
NMTAP	77	144	2
NMSTR	77	192	0
NMSCL	77	192	0	96	48	5
NMTAP	77	192	2
NMTAP	77	288	4
NMTAP	78	0	2
NMTAP	78	0	3
NMTAP	78	96	5
NMTAP	78	144	4
NMTAP	78	144	6
NMTAP	78	240	2
NMTAP	78	288	1
NMTAP	78	288	3
NMTAP	79	0	0
NMTAP	79	0	7
NMTAP	79	48	0
NMTAP	79	48	7
NMTAP	79	144	3
NMTAP	79	144	4
NMTAP	79	192	2
NMTAP	79	192	5
NMTAP	79	240	1
NMTAP	79	240	6
BRTAP	79	288	0
BRTAP	79	288	7
EXSTR	80	0	1
NMSI_	80	0	1	96	48	4
NMTAP	80	0	6
EXTAP	80	96	1
NMTAP	80	96	6
EXSTR	80	192	3
NMSI_	80	192	3	96	48	0
NMTAP	80	192	5
EXTAP	80	288	3
NMTAP	80	288	5
EXSTR	81	0	1
NMSI_	81	0	1	96	48	4
NMTAP	81	0	7
EXTAP	81	96	1
NMTAP	81	96	7
EXSTR	81	192	3
NMSI_	81	192	3	96	48	0
NMTAP	81	192	6
EXTAP	81	288	3
NMTAP	81	288	6
NMTAP	82	0	1
EXSTR	82	0	4
NMSI_	82	0	4	96	48	7
NMTAP	82	96	1
EXTAP	82	96	4
NMTAP	82	192	0
EXSTR	82	192	6
NMSI_	82	192	6	96	48	3
NMTAP	82	288	0
EXTAP	82	288	6
NMTAP	83	0	2
EXSTR	83	0	4
NMSI_	83	0	4	96	48	7
NMTAP	83	96	2
EXTAP	83	96	4
NMTAP	83	192	1
EXSTR	83	192	6
NMSI_	83	192	6	96	48	3
NMTAP	83	288	1
EXTAP	83	288	6
BRTAP	84	0	0
BRTAP	84	0	7
NMSTR	84	96	1
NMSCR	84	96	1	96	48	4
NMTAP	84	144	1
NMSTR	84	192	7
NMSI_	84	192	7	96	48	3
NMTAP	84	240	7
NMSTR	84	288	0
NMSI_	84	288	0	96	48	4
NMTAP	84	336	0
NMSTR	85	0	6
NMSCL	85	0	6	96	48	3
NMTAP	85	48	6
NMSTR	85	96	1
NMSI_	85	96	1	96	48	5
NMTAP	85	144	1
NMSTR	85	192	7
NMSI_	85	192	7	96	48	3
NMTAP	85	240	7
NMTAP	85	288	0
NMTAP	86	0	2
NMTAP	86	0	4
NMTAP	86	48	1
NMTAP	86	96	0
NMHLD	86	144	6	96
NMHLD	86	144	7	96
NMTAP	86	288	1
NMTAP	86	288	5
NMTAP	86	336	6
NMTAP	87	0	7
NMHLD	87	48	0	96
NMHLD	87	48	1	96
NMTAP	87	192	2
NMTAP	87	192	6
EXSTR	87	312	3
NMSCL	87	312	3	96	2376	4
EXTAP	87	312	5
BXHLD	88	48	4	792

T_REC_TAP	378
T_REC_BRK	24
T_REC_XTP	32
T_REC_BXX	4
T_REC_HLD	35
T_REC_XHO	2
T_REC_BHO	1
T_REC_BXH	1
T_REC_STR	57
T_REC_BST	2
T_REC_XST	14
T_REC_XBS	2
T_REC_TTP	18
T_REC_THO	0
T_REC_SLD	74
T_REC_BSL	1
T_REC_ALL	645
T_NUM_TAP	499
T_NUM_BRK	35
T_NUM_HLD	37
T_NUM_SLD	74
T_NUM_ALL	645
T_JUDGE_TAP	531
T_JUDGE_HLD	120
T_JUDGE_SLD	75
T_JUDGE_ALL	726
TTM_EACHPAIRS	130
TTM_SCR_TAP	249500
TTM_SCR_BRK	91000
TTM_SCR_HLD	37000
TTM_SCR_SLD	111000
TTM_SCR_ALL	488500
TTM_SCR_S	470450
TTM_SCR_SS	485000
TTM_RAT_ACV	10072

