VERSION	0.00.00	1.05.00
FES_MODE	0
BPM_DEF	188.000	188.000	188.000	188.000
MET_DEF	4	4
RESOLUTION	384
CLK_DEF	384
COMPATIBLE_CODE	MA2

BPM	0	0	188.000
MET	0	0	4	4

NMHLD	2	0	2	576
NMHLD	2	0	4	288
EXTAP	3	48	3
NMTAP	3	192	4
NMTAP	3	288	4
NMHLD	4	0	3	288
NMHLD	4	0	5	576
EXTAP	5	48	4
NMTAP	5	192	3
NMTAP	5	288	2
NMHLD	6	0	1	576
NMHLD	6	0	3	288
EXTAP	7	48	2
NMTAP	7	192	3
NMTAP	7	288	3
NMTAP	7	288	4
NMHLD	8	0	4	192
NMHLD	8	0	6	192
NMHLD	8	288	2	96
NMHLD	8	288	4	96
NMTAP	9	96	2
NMTAP	9	96	4
BRTAP	9	192	1
BRTAP	9	192	5
NMHLD	10	0	6	96
NMTAP	10	96	7
NMHLD	10	192	1	96
NMTAP	10	288	0
NMTAP	11	0	6
NMTAP	11	48	6
NMTAP	11	96	7
NMTAP	11	192	0
NMTAP	11	192	5
NMTAP	11	288	0
NMTAP	11	288	5
NMHLD	12	0	1	96
NMTAP	12	96	0
NMHLD	12	192	6	96
NMTAP	12	288	7
NMTAP	13	0	1
NMTAP	13	48	1
NMTAP	13	96	0
NMTAP	13	192	2
NMTAP	13	192	7
NMTAP	13	288	2
NMTAP	13	288	7
NMHLD	14	0	6	96
NMTAP	14	96	4
NMHLD	14	192	1	96
NMTAP	14	288	3
NMTAP	15	0	5
NMTAP	15	48	5
NMTAP	15	96	4
NMTAP	15	192	3
NMTAP	15	192	6
NMTAP	15	288	3
NMTAP	15	288	6
NMTAP	16	0	4
NMTAP	16	0	5
NMTAP	16	96	4
NMTAP	16	96	5
NMTAP	16	192	3
NMTAP	16	192	4
NMTAP	16	288	3
NMTAP	16	288	4
NMTAP	17	0	2
NMTAP	17	0	3
NMTAP	17	96	2
NMTAP	17	96	3
BRTAP	17	192	0
BRTAP	17	192	5
NMTAP	18	0	2
NMTAP	18	96	2
NMTAP	18	192	2
NMTAP	18	192	3
NMTAP	18	288	2
NMTAP	18	288	3
NMTAP	19	0	1
NMTAP	19	0	3
NMTAP	19	96	1
NMTAP	19	96	3
NMTAP	19	192	0
NMTAP	19	192	3
NMTAP	19	288	0
NMTAP	19	288	3
NMHLD	20	0	3	96
NMHLD	20	0	7	96
NMHLD	20	192	1	96
NMHLD	20	192	5	96
NMTAP	21	0	2
NMTAP	21	0	4
NMTAP	21	96	5
NMTAP	21	192	3
NMTAP	21	192	6
NMTAP	22	0	5
NMTAP	22	96	5
NMTAP	22	192	4
NMTAP	22	192	5
NMTAP	22	288	4
NMTAP	22	288	5
NMTAP	23	0	4
NMTAP	23	0	6
NMTAP	23	96	4
NMTAP	23	96	6
NMTAP	23	192	4
NMTAP	23	192	7
NMTAP	23	288	4
NMTAP	23	288	7
NMHLD	24	0	0	96
NMHLD	24	0	4	96
NMTAP	24	192	2
NMTAP	24	192	6
NMTAP	24	288	5
NMTAP	25	0	2
NMTAP	25	0	4
NMTAP	25	48	2
NMTAP	25	48	4
BRTAP	25	144	1
BRTAP	25	144	5
NMTAP	25	240	0
NMTAP	25	288	0
NMTAP	26	0	6
NMTAP	26	0	7
NMTAP	26	144	0
NMTAP	26	144	1
NMTAP	26	192	0
NMTAP	26	192	1
NMTAP	26	336	2
NMTAP	27	0	2
NMTAP	27	96	3
NMTAP	27	96	4
NMTAP	27	144	3
NMTAP	27	144	4
NMTAP	27	240	5
NMTAP	27	336	6
NMHLD	28	0	6	96
NMTAP	28	96	4
NMHLD	28	144	4	96
NMSTR	28	240	5
NMSCR	28	240	5	96	240	2
EXTAP	29	288	3
EXTAP	29	288	4
EXTAP	30	0	3
EXTAP	30	0	4
EXTAP	30	72	2
EXTAP	30	72	5
EXTAP	30	144	2
EXTAP	30	144	5
NMTAP	30	240	1
NMTAP	30	336	0
NMTAP	31	48	7
NMTAP	31	144	6
NMTAP	31	192	6
NMSTR	31	288	4
NMSI_	31	288	4	96	96	1
NMSTR	31	288	5
NMSI_	31	288	5	96	96	0
NMTAP	32	192	1
NMTAP	32	240	1
NMTAP	32	288	0
NMTAP	33	0	6
NMTAP	33	48	6
NMTAP	33	96	7
BXTAP	33	192	0
BXTAP	33	192	5
BXTAP	33	240	0
BXTAP	33	240	5
NMHLD	34	0	6	192
NMHLD	34	192	4	192
NMTTP	35	0	7	E	0	M1
NMTTP	35	96	6	E	0	M1
NMTTP	35	192	5	E	0	M1
NMHLD	36	0	2	192
NMHLD	36	192	3	192
NMTTP	37	0	2	E	0	M1
NMTTP	37	96	3	E	0	M1
NMTTP	37	192	4	E	0	M1
NMHLD	38	0	4	96
NMHLD	38	0	5	96
NMTAP	38	192	3
NMTAP	38	192	6
NMHLD	39	0	2	96
NMHLD	39	0	3	96
NMTAP	39	192	1
NMTAP	39	192	4
NMTAP	40	0	0
NMHLD	40	96	0	480
NMTTP	40	192	0	E	0	M1
NMTTP	40	288	1	E	0	M1
NMTTP	41	0	2	E	0	M1
NMTTP	41	96	3	E	0	M1
NMTTP	41	192	4	E	0	M1
NMTAP	42	0	4
NMHLD	42	96	4	480
NMTTP	42	192	0	E	0	M1
NMTTP	42	288	7	E	0	M1
NMTTP	43	0	6	E	0	M1
NMTTP	43	96	5	E	0	M1
NMTTP	43	192	4	E	0	M1
NMSTR	44	0	5
NMSI_	44	0	5	96	96	2
NMTAP	44	288	0
NMSTR	45	0	1
NMSCR	45	0	1	96	96	4
NMTAP	45	288	6
NMHLD	46	0	5	96
NMTAP	46	96	4
NMTAP	46	192	1
NMTAP	46	192	3
NMTAP	46	240	1
NMTAP	46	240	3
NMTAP	46	336	0
NMTAP	46	336	1
NMTAP	47	48	0
NMTAP	47	48	7
BRTAP	47	144	6
BRTAP	47	144	7
NMSTR	47	288	4
BRSUR	47	288	4	96	192	3
NMSTR	47	288	5
BRSCR	47	288	5	96	192	2
NMTAP	48	288	1
NMTAP	48	288	4
NMTAP	49	0	1
NMTAP	49	0	4
NMTAP	49	192	6
NMTAP	49	240	6
NMTAP	49	288	7
NMSTR	50	0	0
NMSCR	50	0	0	96	96	3
NMTAP	50	0	5
NMSTR	50	192	7
NMSCL	50	192	7	96	96	4
EXHLD	51	0	2	72
EXTAP	51	72	3
NMTAP	51	144	1
NMTAP	51	144	4
BRTAP	51	192	1
BRTAP	51	192	4
NMTAP	51	336	3
NMTAP	51	336	5
NMTAP	52	48	6
NMTAP	52	48	7
NMTAP	52	96	6
NMTAP	52	96	7
NMTAP	52	192	0
NMTAP	52	192	5
NMTAP	52	240	0
NMHLD	52	240	5	96
NMHLD	52	336	7	96
NMHLD	53	48	0	96
NMTAP	53	144	2
NMTAP	53	240	3
NMTAP	53	240	7
NMTAP	53	288	3
NMTAP	53	288	7
NMTAP	54	0	0
NMTAP	54	0	1
NMTAP	54	48	0
NMTAP	54	48	1
NMTAP	54	144	4
NMTAP	54	144	5
NMTAP	54	192	4
NMTAP	54	192	5
NMTAP	54	288	6
NMTAP	54	288	7
NMTAP	54	336	6
NMTAP	54	336	7
NMTAP	55	48	2
NMTAP	55	48	4
NMTAP	55	144	1
NMTAP	55	144	5
NMTAP	55	192	1
NMTAP	55	192	5
NMSTR	55	288	6
NMSUR	55	288	6	96	192	5
NMSTR	55	288	7
NMSCR	55	288	7	96	192	4
NMTAP	56	288	3
NMTAP	56	288	6
NMTAP	57	0	3
NMTAP	57	0	6
NMTAP	57	192	2
NMTAP	57	240	2
NMTAP	57	288	3
NMSTR	58	0	1
NMSCR	58	0	1	96	96	4
NMTAP	58	0	4
NMSTR	58	192	5
NMSCR	58	192	5	96	96	0
EXHLD	59	0	1	72
EXTAP	59	72	0
NMTAP	59	144	2
NMTAP	59	144	7
NMTAP	59	192	2
NMTAP	59	192	7
BRTAP	59	288	3
BRTAP	59	288	5
NMTAP	59	336	3
NMTAP	59	336	5
NMTAP	60	48	4
NMTAP	60	48	6
NMTAP	60	96	4
NMTAP	60	96	6
NMTAP	60	192	0
NMTAP	60	192	7
NMTAP	60	240	0
NMTAP	60	240	7
NMTAP	60	336	1
NMTAP	60	336	3
NMTAP	61	48	4
NMTAP	61	48	6
BRTAP	61	144	3
BRTAP	61	144	7
NMTAP	62	0	4
NMSTR	62	0	5
NMSCR	62	0	5	96	96	0
NMTAP	62	192	1
NMSTR	63	0	3
NMSF_	63	0	3	96	96	7
NMSTR	64	0	6
NMSCL	64	0	6	96	96	3
NMTAP	64	0	7
NMTAP	64	192	2
NMSTR	65	0	0
NMSCL	65	0	0	96	96	5
NMSTR	65	0	1
NMSCR	65	0	1	96	96	4
NMTAP	66	0	6
NMTAP	66	48	6
NMTAP	66	96	4
NMTAP	66	192	1
NMTAP	66	240	1
NMTAP	66	288	3
NMTAP	67	0	0
NMTAP	67	0	1
NMTAP	67	96	2
NMTAP	67	96	3
NMTAP	67	192	4
NMTAP	67	192	5
NMTAP	67	288	6
NMTAP	67	288	7
NMSTR	68	0	0
NMSI_	68	0	0	96	96	4
NMSTR	68	192	7
NMSI_	68	192	7	96	96	3
NMSTR	69	0	1
NMSI_	69	0	1	96	96	5
NMTAP	69	192	6
NMTAP	69	288	6
NMTAP	70	0	5
NMTAP	70	0	7
NMTAP	70	48	5
NMTAP	70	48	7
NMTAP	70	144	0
NMTAP	70	144	2
NMTAP	70	192	0
NMTAP	70	192	2
NMTAP	70	288	1
NMTAP	70	288	6
NMTAP	70	336	1
NMTAP	70	336	6
NMTAP	71	48	0
NMTAP	71	48	7
NMTAP	71	96	0
NMTAP	71	96	7
NMTAP	71	144	0
NMTAP	71	144	7
EXSTR	71	192	0
NMSCR	71	192	0	96	480	7
EXTAP	71	192	7
NMTTP	71	288	0	C	1	M1
NMTAP	73	192	0
NMTAP	73	192	7
NMHLD	74	0	6	144
NMHLD	74	144	4	144
NMHLD	74	288	3	144
NMHLD	75	48	1	144
NMTAP	75	192	0
NMTAP	75	288	2
NMTAP	75	288	7
NMHLD	76	0	2	144
NMHLD	76	144	0	144
NMHLD	76	288	7	144
NMHLD	77	48	5	144
NMTAP	77	192	4
NMTAP	77	288	3
NMTAP	77	288	6
NMHLD	78	0	5	144
NMHLD	78	144	7	144
NMHLD	78	288	0	144
NMTAP	79	48	2
NMTAP	79	192	3
NMTAP	79	192	7
NMHLD	80	0	6	96
NMTAP	80	96	7
NMTAP	80	192	1
NMTAP	80	240	1
NMTAP	80	288	0
NMTAP	81	0	2
NMTAP	81	0	3
NMTAP	81	96	0
NMTAP	81	96	7
NMTAP	81	192	4
NMTAP	81	192	5
NMTAP	81	288	0
NMTAP	81	288	7
NMHLD	82	0	2	96
NMTAP	82	96	3
NMTAP	82	192	5
NMTAP	82	240	5
NMTAP	82	288	4
NMTAP	83	0	6
NMTAP	83	0	7
NMTAP	83	96	3
NMTAP	83	96	4
NMTAP	83	192	0
NMTAP	83	192	1
NMTAP	83	288	2
NMTAP	83	288	7
NMHLD	84	0	1	96
NMTAP	84	96	0
NMTAP	84	192	6
NMTAP	84	240	6
NMTAP	84	288	7
NMTAP	85	0	4
NMTAP	85	0	5
NMTAP	85	96	0
NMTAP	85	96	7
NMTAP	85	192	2
NMTAP	85	192	3
NMTAP	85	288	0
NMTAP	85	288	7
NMHLD	86	0	1	144
NMTAP	86	96	3
NMTAP	86	144	3
NMHLD	86	288	6	144
NMTAP	87	0	4
NMTAP	87	48	4
NMTAP	87	192	3
NMTAP	87	192	4
EXTAP	87	304	2
EXTAP	87	304	5
BXSTR	88	32	0
NMSUL	88	32	0	96	448	7
BXHLD	88	32	7	2368
CNSCL	89	192	7	0	1824	0

T_REC_TAP	292
T_REC_BRK	14
T_REC_XTP	16
T_REC_BXX	4
T_REC_HLD	54
T_REC_XHO	2
T_REC_BHO	0
T_REC_BXH	1
T_REC_STR	21
T_REC_BST	0
T_REC_XST	1
T_REC_XBS	1
T_REC_TTP	17
T_REC_THO	0
T_REC_SLD	21
T_REC_BSL	2
T_REC_ALL	446
T_NUM_TAP	347
T_NUM_BRK	22
T_NUM_HLD	56
T_NUM_SLD	21
T_NUM_ALL	446
T_JUDGE_TAP	366
T_JUDGE_HLD	245
T_JUDGE_SLD	23
T_JUDGE_ALL	634
TTM_EACHPAIRS	136
TTM_SCR_TAP	173500
TTM_SCR_BRK	57200
TTM_SCR_HLD	56000
TTM_SCR_SLD	31500
TTM_SCR_ALL	318200
TTM_SCR_S	306550
TTM_SCR_SS	316000
TTM_RAT_ACV	10069

