VERSION	0.00.00	1.05.00
FES_MODE	0
BPM_DEF	188.000	188.000	188.000	188.000
MET_DEF	4	4
RESOLUTION	384
CLK_DEF	384
COMPATIBLE_CODE	MA2

BPM	0	0	188.000
MET	0	0	4	4

NMTAP	2	0	4
NMTAP	2	192	4
NMTAP	3	0	5
NMTAP	3	192	5
NMTAP	4	0	6
NMTAP	4	192	6
NMTAP	5	0	0
NMTAP	5	0	7
NMTAP	5	192	0
NMTAP	5	192	7
NMTAP	6	0	0
NMTAP	6	192	0
NMTAP	7	0	1
NMTAP	7	192	1
NMTAP	8	0	2
NMTAP	8	192	2
NMTAP	9	0	3
NMTAP	9	0	4
NMTAP	10	0	2
NMTAP	10	96	2
NMTAP	10	192	2
NMTAP	10	192	3
NMTAP	11	0	1
NMTAP	11	96	1
NMTAP	11	192	0
NMTAP	11	192	1
NMTAP	12	0	7
NMTAP	12	96	7
NMTAP	12	192	6
NMTAP	12	192	7
NMTAP	13	0	4
NMTAP	13	0	5
NMTAP	13	96	4
NMTAP	13	96	5
NMTAP	13	192	4
NMTAP	13	192	5
NMTAP	14	0	5
NMTAP	14	96	5
NMTAP	14	192	4
NMTAP	14	192	5
NMTAP	15	0	6
NMTAP	15	96	6
NMTAP	15	192	6
NMTAP	15	192	7
NMTAP	16	0	0
NMTAP	16	96	0
NMTAP	16	192	0
NMTAP	16	192	1
NMTAP	17	0	2
NMTAP	17	0	3
NMTAP	17	96	2
NMTAP	17	96	3
NMTAP	17	192	2
NMTAP	17	192	3
NMTAP	18	0	1
NMTAP	18	96	1
NMTAP	18	192	1
NMTAP	19	0	2
NMTAP	19	96	2
NMTAP	19	192	2
NMTAP	20	0	3
NMTAP	20	96	3
NMTAP	20	192	3
NMTAP	21	0	4
NMTAP	21	0	5
NMTAP	21	192	4
NMTAP	21	192	5
NMTAP	22	0	6
NMTAP	22	96	6
NMTAP	22	192	6
NMTAP	23	0	5
NMTAP	23	96	5
NMTAP	23	192	5
NMTAP	24	0	4
NMTAP	24	96	4
NMTAP	24	192	4
NMTAP	25	0	2
NMTAP	25	0	3
NMTAP	25	192	2
NMTAP	25	192	3
NMTAP	26	0	2
NMTAP	26	96	2
NMTAP	26	192	2
NMTAP	27	0	1
NMTAP	27	96	1
NMTAP	27	192	1
NMTAP	28	0	0
NMTAP	28	96	0
NMTAP	28	192	0
NMTAP	29	0	6
NMTAP	29	0	7
NMTAP	29	192	6
NMTAP	29	192	7
NMTAP	30	0	5
NMTAP	30	96	5
NMTAP	30	192	5
NMTAP	31	0	6
NMTAP	31	96	6
NMTAP	31	192	6
NMTAP	32	0	7
NMTAP	32	96	7
NMTAP	32	192	7
NMTAP	33	0	0
NMTAP	33	0	1
NMTAP	33	192	0
NMTAP	33	192	1
NMSTR	34	0	1
NMSI_	34	0	1	96	192	4
NMSTR	35	0	6
NMSI_	35	0	6	96	192	3
NMSTR	36	0	1
NMSI_	36	0	1	96	192	5
NMTAP	37	0	6
NMTAP	37	192	6
NMTAP	37	192	7
NMSTR	38	0	5
NMSI_	38	0	5	96	192	0
NMSTR	39	0	1
NMSI_	39	0	1	96	192	4
NMSTR	40	0	6
NMSI_	40	0	6	96	192	3
NMSTR	41	0	1
NMSXR	41	0	1	96	672	4
NMTTP	44	0	4	B	0	L1
NMTTP	44	0	5	B	0	L1
NMTTP	44	192	6	B	0	L1
NMTTP	44	192	7	B	0	L1
NMTTP	45	0	0	B	0	L1
NMTTP	45	0	1	B	0	L1
NMTTP	45	192	2	B	0	L1
NMTTP	45	192	3	B	0	L1
NMTTP	46	0	6	B	0	L1
NMTTP	46	96	5	B	0	L1
NMTTP	46	192	4	B	0	L1
NMTTP	46	288	3	B	0	L1
NMTTP	47	0	0	C	1	L1
NMTAP	48	0	6
NMTAP	48	96	6
NMTAP	48	192	7
NMTAP	48	288	7
NMTAP	49	0	0
NMTAP	49	96	0
NMTAP	49	192	0
NMTAP	49	192	1
NMTAP	50	0	1
NMTAP	50	96	1
NMTAP	50	192	0
NMTAP	50	288	0
NMTAP	51	0	7
NMTAP	51	96	7
BXTAP	51	192	6
BXTAP	51	192	7
NMTAP	52	0	6
NMTAP	52	96	6
NMTAP	52	192	5
NMTAP	52	288	5
NMTAP	53	0	4
NMTAP	53	96	4
NMTAP	53	192	2
NMTAP	53	192	3
NMTAP	54	0	1
NMTAP	54	96	1
NMTAP	54	192	2
NMTAP	54	288	2
NMTAP	55	0	3
NMTAP	55	96	3
NMTAP	55	192	4
NMTAP	55	192	5
NMTAP	56	0	5
NMTAP	56	96	5
NMTAP	56	192	6
NMTAP	56	288	6
NMTAP	57	0	7
NMTAP	57	96	7
NMTAP	57	192	0
NMTAP	57	192	1
NMTAP	58	0	2
NMTAP	58	96	2
NMTAP	58	192	1
NMTAP	58	288	1
NMTAP	59	0	0
NMTAP	59	96	0
BXTAP	59	192	6
BXTAP	59	192	7
NMTAP	60	0	6
NMTAP	60	96	5
NMTAP	60	192	4
NMTAP	60	288	3
NMTAP	61	0	2
NMTAP	61	96	1
NMTAP	61	192	0
NMTAP	61	192	7
NMTAP	62	0	1
NMTAP	62	96	1
NMTAP	62	192	0
NMTAP	62	192	1
NMTAP	62	288	0
NMTAP	62	288	1
NMTAP	63	0	2
NMTAP	63	96	2
NMTAP	63	192	2
NMTAP	63	192	3
NMTAP	64	0	4
NMTAP	64	96	4
NMTAP	64	192	4
NMTAP	64	192	5
NMTAP	64	288	4
NMTAP	64	288	5
NMTAP	65	0	6
NMTAP	65	96	6
NMTAP	65	192	6
NMTAP	65	192	7
NMTAP	66	0	6
NMTAP	66	96	6
NMTAP	66	192	6
NMTAP	66	192	7
NMTAP	66	288	6
NMTAP	66	288	7
NMTAP	67	0	5
NMTAP	67	96	5
NMTAP	67	192	4
NMTAP	67	192	5
NMTAP	68	0	3
NMTAP	68	96	3
NMTAP	68	192	2
NMTAP	68	192	3
NMTAP	68	288	2
NMTAP	68	288	3
NMTAP	69	0	1
NMTAP	69	96	1
NMTAP	69	192	0
NMTAP	69	192	1
NMTAP	70	0	0
NMTAP	70	0	7
NMTAP	70	96	0
NMTAP	70	96	7
NMTAP	70	192	1
NMTAP	70	192	6
NMTAP	70	288	1
NMTAP	70	288	6
NMTAP	71	0	2
NMTAP	71	0	5
NMTAP	71	96	2
NMTAP	71	96	5
BRTAP	71	192	3
BRTAP	71	192	4
NMHLD	72	0	2	192
NMHLD	72	192	3	192
NMHLD	73	0	4	192
NMTAP	73	192	5
NMHLD	74	0	5	192
NMHLD	74	192	4	192
NMHLD	75	0	3	192
NMTAP	75	192	2
NMHLD	76	0	1	192
NMHLD	76	192	2	192
NMHLD	77	0	3	192
NMTAP	77	192	4
NMHLD	78	0	6	192
NMHLD	78	192	5	192
NMHLD	79	0	4	192
NMTAP	79	192	3
NMTAP	80	0	5
NMTAP	80	96	5
NMTAP	80	192	5
NMTAP	80	288	4
NMTAP	80	288	5
NMTAP	81	0	6
NMTAP	81	96	6
NMTAP	81	192	6
NMTAP	81	288	6
NMTAP	81	288	7
NMTAP	82	0	0
NMTAP	82	96	0
NMTAP	82	192	0
NMTAP	82	288	0
NMTAP	82	288	1
NMTAP	83	0	2
NMTAP	83	96	2
NMTAP	83	192	2
NMTAP	83	192	3
NMTAP	84	0	2
NMTAP	84	96	2
NMTAP	84	192	2
NMTAP	84	288	2
NMTAP	84	288	3
NMTAP	85	0	1
NMTAP	85	96	1
NMTAP	85	192	1
NMTAP	85	288	0
NMTAP	85	288	1
NMTAP	86	0	7
NMTAP	86	96	7
NMTAP	86	192	7
NMTAP	86	288	6
NMTAP	86	288	7
NMTAP	87	0	5
NMTAP	87	96	5
NMTAP	87	192	4
NMTAP	87	192	5
EXHLD	88	48	3	2352
EXHLD	88	48	4	2352

T_REC_TAP	255
T_REC_BRK	2
T_REC_XTP	0
T_REC_BXX	4
T_REC_HLD	12
T_REC_XHO	2
T_REC_BHO	0
T_REC_BXH	0
T_REC_STR	7
T_REC_BST	0
T_REC_XST	0
T_REC_XBS	0
T_REC_TTP	13
T_REC_THO	0
T_REC_SLD	7
T_REC_BSL	0
T_REC_ALL	302
T_NUM_TAP	275
T_NUM_BRK	6
T_NUM_HLD	14
T_NUM_SLD	7
T_NUM_ALL	302
T_JUDGE_TAP	281
T_JUDGE_HLD	146
T_JUDGE_SLD	7
T_JUDGE_ALL	434
TTM_EACHPAIRS	59
TTM_SCR_TAP	137500
TTM_SCR_BRK	15600
TTM_SCR_HLD	14000
TTM_SCR_SLD	10500
TTM_SCR_ALL	177600
TTM_SCR_S	171700
TTM_SCR_SS	177000
TTM_RAT_ACV	10033

