VERSION	0.00.00	1.05.00
FES_MODE	0
BPM_DEF	188.000	188.000	188.000	188.000
MET_DEF	4	4
RESOLUTION	384
CLK_DEF	384
COMPATIBLE_CODE	MA2

BPM	0	0	188.000
MET	0	0	4	4

NMTAP	2	0	7
NMTAP	3	0	7
NMTAP	4	0	7
NMTAP	5	0	0
NMTAP	5	0	7
NMTAP	6	0	0
NMTAP	7	0	0
EXHLD	8	0	0	288
EXHLD	8	0	7	288
NMTAP	10	0	0
NMTAP	10	192	0
NMTAP	11	0	1
NMTAP	12	0	2
NMTAP	12	192	2
NMTAP	13	0	3
NMTAP	14	0	4
NMTAP	14	192	4
NMTAP	15	0	5
EXTAP	16	0	6
EXTAP	16	192	6
EXTAP	17	0	0
EXTAP	17	0	7
NMTAP	18	0	7
NMTAP	18	192	7
NMTAP	19	0	6
NMTAP	19	192	6
NMTAP	20	0	5
NMTAP	20	192	5
NMTAP	21	0	4
NMTAP	21	0	5
NMTAP	22	0	3
NMTAP	22	192	3
NMTAP	23	0	2
NMTAP	23	192	2
NMTAP	24	0	1
NMTAP	24	192	1
NMTAP	25	0	0
NMTAP	25	0	1
NMTAP	26	0	0
NMTAP	26	192	0
NMTAP	27	0	1
NMTAP	27	192	1
NMTAP	28	0	2
NMTAP	28	192	2
EXTAP	29	0	3
EXTAP	29	0	4
NMTAP	30	0	4
NMTAP	30	192	4
NMTAP	31	0	5
NMTAP	31	192	5
NMTAP	32	0	6
NMTAP	32	192	6
EXTAP	33	0	0
EXTAP	33	0	7
NMHLD	34	0	6	384
NMHLD	34	0	7	384
NMHLD	36	0	4	384
NMHLD	36	0	5	384
NMHLD	38	0	2	384
NMHLD	38	0	3	384
NMHLD	40	0	0	384
NMHLD	40	0	1	384
NMTTP	42	0	0	B	0	L1
NMTTP	43	0	7	B	0	L1
NMTTP	44	0	1	B	0	L1
NMTTP	45	0	6	B	0	L1
NMTHO	46	0	0	336	C	1	L1
BXTAP	48	0	0
NMTAP	48	96	0
NMTAP	48	192	0
NMTAP	49	0	1
NMTAP	49	192	1
NMTAP	50	0	2
NMTAP	50	192	2
NMTAP	51	0	2
NMTAP	51	0	3
NMTAP	52	0	4
NMTAP	52	96	4
NMTAP	52	192	4
NMTAP	53	0	5
NMTAP	53	192	5
EXTAP	54	0	6
EXTAP	54	192	6
EXTAP	55	0	6
EXTAP	55	0	7
BRTAP	56	0	7
NMTAP	56	96	7
NMTAP	56	192	7
NMTAP	57	0	6
NMTAP	57	192	6
NMTAP	58	0	5
NMTAP	58	96	5
NMTAP	58	192	5
NMTAP	59	0	3
NMTAP	59	0	4
NMTAP	59	192	3
NMTAP	59	192	4
NMTAP	60	0	2
NMTAP	60	96	2
NMTAP	60	192	2
BXTAP	61	0	0
BXTAP	61	0	1
NMTAP	62	0	0
NMTAP	62	96	0
NMTAP	62	192	0
NMTAP	63	0	1
NMTAP	63	192	1
NMTAP	64	0	2
NMTAP	64	96	2
NMTAP	64	192	2
NMTAP	65	0	3
NMTAP	65	0	4
NMTAP	65	192	3
NMTAP	65	192	4
NMTAP	66	0	4
NMTAP	66	96	4
NMTAP	66	192	4
NMTAP	67	0	5
NMTAP	67	192	5
NMTAP	68	0	6
NMTAP	68	96	6
NMTAP	68	192	6
NMTAP	69	0	7
NMTAP	69	192	7
NMTAP	70	0	0
NMTAP	70	96	0
NMTAP	70	192	0
EXTAP	71	0	0
EXTAP	71	0	7
NMSTR	72	0	7
NMSI_	72	0	7	96	288	3
NMSTR	74	0	0
NMSI_	74	0	0	96	288	4
NMSTR	76	0	6
NMSI_	76	0	6	96	288	2
NMSTR	78	0	1
NMSI_	78	0	1	96	288	5
EXTAP	80	0	7
NMTAP	80	96	7
NMTAP	80	192	7
NMTAP	81	0	6
NMTAP	81	0	7
NMTAP	81	192	6
NMTAP	81	192	7
NMTAP	82	0	0
NMTAP	82	96	0
NMTAP	82	192	0
NMTAP	83	0	0
NMTAP	83	0	1
NMTAP	83	192	0
NMTAP	83	192	1
NMTAP	84	0	7
NMTAP	84	96	7
NMTAP	84	192	7
NMTAP	85	0	0
NMTAP	85	0	7
NMTAP	85	192	0
NMTAP	85	192	7
NMHLD	86	0	0	384
NMHLD	86	0	7	384
NMTTP	88	24	0	C	1	L1
NMTTP	88	24	1	B	0	L1
NMTTP	88	24	6	B	0	L1

T_REC_TAP	116
T_REC_BRK	1
T_REC_XTP	15
T_REC_BXX	3
T_REC_HLD	10
T_REC_XHO	2
T_REC_BHO	0
T_REC_BXH	0
T_REC_STR	4
T_REC_BST	0
T_REC_XST	0
T_REC_XBS	0
T_REC_TTP	7
T_REC_THO	1
T_REC_SLD	4
T_REC_BSL	0
T_REC_ALL	163
T_NUM_TAP	142
T_NUM_BRK	4
T_NUM_HLD	13
T_NUM_SLD	4
T_NUM_ALL	163
T_JUDGE_TAP	146
T_JUDGE_HLD	99
T_JUDGE_SLD	4
T_JUDGE_ALL	249
TTM_EACHPAIRS	26
TTM_SCR_TAP	71000
TTM_SCR_BRK	10400
TTM_SCR_HLD	13000
TTM_SCR_SLD	6000
TTM_SCR_ALL	100400
TTM_SCR_S	97000
TTM_SCR_SS	100000
TTM_RAT_ACV	10040

