VERSION	0.00.00	1.05.00
FES_MODE	0
BPM_DEF	126.000	126.000	126.000	126.000
MET_DEF	4	4
RESOLUTION	384
CLK_DEF	384
COMPATIBLE_CODE	MA2

BPM	0	0	126.000
MET	0	0	4	4
MET	82	0	16	9
MET	82	216	4	4

NMHLD	1	0	4	192
NMTTP	1	96	4	E	0	M1
NMTTP	1	288	3	B	0	M1
NMTAP	1	288	4
NMHLD	1	336	4	720
NMTTP	2	96	4	B	0	M1
NMTAP	2	192	5
EXTAP	2	264	5
NMTTP	2	270	5	B	0	M1
NMTTP	2	276	0	C	0	M1
NMTTP	2	282	1	B	0	M1
NMTTP	2	288	1	A	1	M1
NMTAP	3	96	1
NMTAP	3	288	1
BRTAP	3	336	2
BRTAP	3	336	3
NMTTP	4	48	0	B	0	M1
NMTTP	4	48	0	E	0	M1
NMTTP	4	48	0	A	0	M1
NMTTP	4	48	0	D	0	M1
NMTTP	4	48	1	E	0	M1
NMTTP	4	48	1	D	0	M1
NMTTP	4	96	6	B	0	M1
NMTTP	4	96	6	E	0	M1
NMTTP	4	96	6	A	0	M1
NMTTP	4	96	6	D	0	M1
NMTTP	4	96	7	E	0	M1
NMTTP	4	96	7	D	0	M1
NMTTP	4	144	3	B	0	M1
NMTTP	4	144	3	E	0	M1
NMTTP	4	144	3	A	0	M1
NMTTP	4	144	3	D	0	M1
NMTTP	4	144	4	E	0	M1
NMTTP	4	144	4	D	0	M1
EXSTR	4	192	1
NMSCL	4	192	1	96	36	6
NMSV_	4	192	1	96	36	3
NMSTR	5	0	5
NMSCR	5	0	5	96	36	7
NMSTR	5	96	4
NMSXR	5	96	4	96	48	2
NMSTR	5	192	5
NMSCR	5	192	5	96	36	7
NMSTR	5	288	4
NMSXR	5	288	4	96	48	2
NMSTR	6	0	5
NMSCR	6	0	5	96	36	7
NMTAP	6	96	4
NMTAP	6	144	4
NMTAP	6	192	5
NMTAP	6	240	6
BRTAP	6	288	7
NMTAP	6	336	2
NMSTR	7	0	2
NMSCL	7	0	2	96	36	0
NMSTR	7	96	3
NMSXL	7	96	3	96	48	5
NMTAP	7	192	2
NMTAP	7	240	1
BRHLD	7	288	0	288
NMTAP	8	0	1
NMTAP	8	48	7
NMTAP	8	96	2
NMTAP	8	144	6
NMTAP	8	192	4
EXTAP	8	288	2
NMTTP	8	288	6	E	0	M1
NMTTP	8	294	5	B	1	M1
NMTAP	9	0	1
NMTAP	9	0	7
NMTAP	9	48	6
NMTAP	9	72	6
NMTAP	9	96	7
NMTAP	9	120	6
NMTAP	9	144	0
NMTAP	9	168	7
NMTAP	9	192	0
NMHLD	9	216	0	72
NMSTR	9	288	5
BRSXL	9	288	5	96	96	4
NMTAP	10	0	5
NMSTR	10	96	3
BRSXR	10	96	3	96	96	4
NMTAP	10	192	3
BRTAP	10	288	7
NMTAP	11	0	1
NMTAP	11	0	4
NMTAP	11	48	2
NMTAP	11	72	2
NMTAP	11	96	3
NMTAP	11	120	1
NMTAP	11	144	3
NMTAP	11	168	1
NMTAP	11	192	2
NMHLD	11	216	2	72
NMTAP	11	264	0
NMTAP	11	288	0
NMTAP	11	336	1
NMTAP	11	336	3
NMTAP	12	0	2
NMTAP	12	0	4
NMTAP	12	48	3
NMTAP	12	48	5
NMTAP	12	96	4
NMTAP	12	96	6
NMTAP	12	144	5
NMTAP	12	144	7
NMTAP	12	192	0
NMSTR	12	192	6
NMSI_	12	192	6	96	36	2
BRTAP	12	288	2
BRTAP	12	288	6
NMHLD	13	0	3	96
NMTAP	13	0	5
NMHLD	13	96	4	96
NMHLD	13	192	1	48
NMHLD	13	240	2	48
NMHLD	13	288	1	48
NMTAP	13	336	3
NMHLD	14	0	4	96
NMHLD	14	96	3	96
NMHLD	14	192	6	48
NMHLD	14	240	5	48
NMHLD	14	288	6	48
NMTAP	14	336	4
NMTAP	15	0	5
NMHLD	15	48	5	48
NMTAP	15	96	4
NMHLD	15	144	4	48
NMTAP	15	192	3
NMHLD	15	240	3	48
BRSTR	15	288	2
NMSUR	15	288	2	96	96	3
BRTAP	15	336	4
BRTAP	15	336	5
CNSCR	16	96	3	0	96	1
NMTHO	16	192	0	96	C	0	M1
BRTAP	16	288	0
EXTAP	17	0	7
NMTTP	17	6	7	D	0	M1
NMTTP	17	12	6	A	0	M1
NMTTP	17	18	6	D	0	M1
EXTAP	17	48	7
NMTTP	17	54	7	E	0	M1
NMTTP	17	60	6	B	0	M1
NMTTP	17	66	5	B	0	M1
EXTAP	17	96	7
NMTTP	17	102	7	B	0	M1
NMTTP	17	108	0	C	0	M1
NMTTP	17	114	3	B	0	M1
NMTAP	17	144	1
NMHLD	17	168	1	48
NMTAP	17	216	0
NMHLD	17	240	0	48
NMSTR	17	288	2
NMSI_	17	288	2	96	24	4
NMSTR	17	336	2
NMSI_	17	336	2	96	24	6
NMSTR	18	0	2
NMSI_	18	0	2	96	24	0
NMTAP	18	144	5
NMHLD	18	168	5	48
NMTAP	18	216	6
NMHLD	18	240	6	48
NMTAP	18	288	7
NMTAP	18	336	7
EXTAP	19	0	6
NMTAP	19	6	5
NMTAP	19	12	4
EXTAP	19	48	7
NMTAP	19	54	6
NMTAP	19	60	5
EXTAP	19	96	0
NMTAP	19	102	7
NMTAP	19	108	6
NMTAP	19	144	1
NMSTR	19	192	2
NMSCR	19	192	2	96	24	5
NMSTR	19	192	5
NMSCL	19	192	5	96	24	2
NMTAP	19	240	0
NMTAP	19	240	7
NMTTP	19	288	2	A	0	M1
NMTTP	19	288	5	A	0	M1
EXTAP	20	0	5
NMTAP	20	24	3
NMTAP	20	48	5
NMTAP	20	72	3
NMSTR	20	96	4
NMSUL	20	96	4	96	120	0
NMTAP	20	120	2
NMTAP	20	144	4
NMTAP	20	168	2
NMHLD	20	192	4	120
EXTAP	21	0	0
EXTAP	21	0	7
NMTTP	21	6	7	D	0	M1
NMTTP	21	12	6	A	0	M1
NMTTP	21	18	6	D	0	M1
EXTAP	21	48	7
NMTTP	21	54	7	E	0	M1
NMTTP	21	60	6	B	0	M1
NMTTP	21	66	5	B	0	M1
EXTAP	21	96	7
NMTTP	21	102	7	B	0	M1
NMTTP	21	108	0	C	0	M1
NMTTP	21	114	3	B	0	M1
NMTAP	21	144	1
NMHLD	21	168	1	48
NMTAP	21	216	0
NMHLD	21	240	0	48
NMSTR	21	288	2
NMSI_	21	288	2	96	24	4
NMSTR	21	336	2
NMSI_	21	336	2	96	24	6
NMSTR	22	0	2
NMSI_	22	0	2	96	24	0
NMTAP	22	144	5
NMHLD	22	168	5	48
NMTAP	22	216	6
NMHLD	22	240	6	48
NMTAP	22	288	7
NMTAP	22	336	7
EXTAP	23	0	6
NMTAP	23	6	5
NMTAP	23	12	4
EXTAP	23	48	7
NMTAP	23	54	6
NMTAP	23	60	5
EXTAP	23	96	0
NMTAP	23	102	7
NMTAP	23	108	6
NMTAP	23	144	2
NMSTR	23	192	4
BRSCL	23	192	4	96	36	0
NMHLD	23	192	5	96
BRTAP	23	288	4
NMTAP	24	0	2
NMTAP	24	0	3
NMTAP	24	48	4
NMTAP	24	48	5
NMSTR	24	96	3
NMSCL	24	96	3	96	36	1
NMSTR	24	96	4
NMSCR	24	96	4	96	36	6
NMTAP	24	120	3
NMTAP	24	120	4
NMTAP	24	144	3
NMTAP	24	144	4
NMTTP	24	192	5	D	0	M1
NMTTP	24	198	3	D	0	M1
NMTTP	24	288	0	C	1	M1
NMSTR	25	0	7
NMSUL	25	0	7	96	96	1
NMTAP	25	48	0
NMSTR	25	96	1
NMSUR	25	96	1	96	96	7
NMTAP	25	144	0
NMSTR	25	192	7
NMSUL	25	192	7	96	96	1
NMTAP	25	240	0
BRTAP	25	288	1
NMSTR	26	0	3
NMSUL	26	0	3	96	96	5
NMTAP	26	48	4
NMSTR	26	96	5
NMSUR	26	96	5	96	96	3
NMTAP	26	144	4
NMSTR	26	192	3
NMSUL	26	192	3	96	96	5
NMTAP	26	240	4
BRTAP	26	288	5
NMSTR	27	0	7
NMSUL	27	0	7	96	96	1
NMTAP	27	48	0
NMSTR	27	96	1
NMSUR	27	96	1	96	96	7
NMTAP	27	144	0
NMTAP	27	192	7
NMTAP	27	240	0
BRTAP	27	288	1
NMHLD	27	336	2	48
NMHLD	28	0	0	48
NMHLD	28	48	7	48
NMHLD	28	96	5	48
NMTAP	28	144	2
NMTTP	28	192	3	E	0	M1
NMTTP	28	192	5	E	0	M1
NMTTP	28	240	2	A	0	M1
NMTTP	28	240	5	A	0	M1
NMTTP	28	288	2	D	0	M1
NMTTP	28	288	6	D	0	M1
NMSTR	29	0	0
NMSUR	29	0	0	96	96	6
NMTAP	29	48	7
NMSTR	29	96	6
NMSUL	29	96	6	96	96	0
NMTAP	29	144	7
NMSTR	29	192	0
NMSUR	29	192	0	96	96	6
NMTAP	29	240	7
BRTAP	29	288	6
NMSTR	30	0	4
NMSUR	30	0	4	96	96	2
NMTAP	30	48	3
NMSTR	30	96	2
NMSUL	30	96	2	96	96	4
NMTAP	30	144	3
NMSTR	30	192	4
NMSUR	30	192	4	96	96	2
NMTAP	30	240	3
BRTAP	30	288	2
NMSTR	31	0	0
NMSUR	31	0	0	96	96	6
NMTAP	31	48	7
NMSTR	31	96	6
NMSUL	31	96	6	96	96	0
NMTAP	31	144	7
NMSTR	31	192	0
BRSF_	31	192	0	96	36	4
NMTTP	32	0	6	B	0	M1
NMTTP	32	0	6	E	0	M1
NMTTP	32	0	6	A	0	M1
NMTTP	32	0	7	E	0	M1
NMTTP	32	0	7	D	0	M1
NMTTP	32	48	2	B	0	M1
NMTTP	32	48	2	A	0	M1
NMTTP	32	48	3	E	0	M1
NMTTP	32	48	3	A	0	M1
NMTTP	32	48	3	D	0	M1
EXSTR	32	96	3
NMSI_	32	96	3	96	48	7
EXHLD	32	144	5	48
BXTAP	32	192	3
CNSLL	32	240	7	0	48	1
NMTTP	32	288	1	A	1	M1
NMHLD	33	0	4	96
NMHLD	33	96	5	96
NMHLD	33	192	3	96
NMHLD	33	288	2	96
NMTAP	34	0	4
NMTAP	34	48	5
NMHLD	34	96	6	48
NMTAP	34	144	4
NMTAP	34	192	3
NMTAP	34	240	2
NMHLD	34	288	1	48
NMTAP	34	336	3
NMHLD	35	0	3	48
NMHLD	35	0	4	48
NMTAP	35	96	2
NMTAP	35	96	5
NMTAP	35	144	1
NMTAP	35	144	6
NMSTR	35	192	0
BRSI_	35	192	0	96	24	3
NMSTR	35	192	7
BRSI_	35	192	7	96	24	4
BXTAP	35	288	0
BXTAP	35	288	7
NMTTP	35	300	3	E	0	M1
NMTTP	35	300	3	A	0	M1
NMTTP	35	300	3	D	0	M1
NMTTP	35	300	4	E	0	M1
NMTTP	35	300	4	A	0	M1
NMTTP	35	300	4	D	1	M1
NMTTP	35	300	5	E	0	M1
NMTTP	35	300	5	D	0	M1
NMTTP	36	288	4	D	0	M1
NMTTP	37	0	4	E	0	M1
EXHLD	37	0	5	24
EXHLD	37	48	5	24
NMTTP	37	96	3	A	0	M1
EXHLD	37	96	5	24
NMTTP	37	144	3	D	0	M1
EXHLD	37	144	5	24
NMTTP	37	192	3	A	0	M1
EXHLD	37	192	5	24
NMTTP	37	240	3	D	0	M1
EXHLD	37	240	5	24
NMTTP	37	288	3	A	0	M1
EXHLD	37	288	5	24
NMTTP	37	336	3	D	0	M1
EXHLD	37	336	5	24
EXHLD	38	0	2	24
NMTTP	38	0	4	E	0	M1
EXHLD	38	48	2	24
EXHLD	38	96	2	24
NMTTP	38	96	4	A	0	M1
EXHLD	38	144	2	24
NMTTP	38	144	5	D	0	M1
EXHLD	38	192	2	24
NMTTP	38	192	4	A	0	M1
EXHLD	38	240	2	24
NMTTP	38	240	5	D	0	M1
EXHLD	38	288	2	24
NMTTP	38	288	4	A	0	M1
EXHLD	38	336	2	24
NMTTP	38	336	5	D	0	M1
EXHLD	39	0	4	24
EXHLD	39	24	3	24
EXHLD	39	48	5	24
EXHLD	39	72	2	24
EXHLD	39	96	4	24
EXHLD	39	120	3	24
EXHLD	39	144	5	24
EXHLD	39	168	2	24
EXHLD	39	192	4	24
EXHLD	39	216	3	24
EXHLD	39	240	5	24
EXHLD	39	264	2	24
EXHLD	39	288	4	24
EXHLD	39	312	3	24
EXSTR	39	336	5
NMSUL	39	336	5	96	72	1
EXTAP	39	360	2
CNSCR	40	120	1	0	72	4
BRTAP	40	288	1
BRTAP	40	288	6
NMHLD	40	336	5	48
NMHLD	41	0	4	48
NMHLD	41	48	5	48
NMHLD	41	96	4	48
NMHLD	41	144	6	48
NMHLD	41	192	4	48
NMHLD	41	240	6	48
BXTAP	41	288	5
NMHLD	41	336	6	48
NMHLD	42	0	4	48
NMHLD	42	48	5	48
NMHLD	42	96	4	48
NMHLD	42	144	5	48
NMHLD	42	192	4	48
NMHLD	42	240	6	48
BXTAP	42	288	5
NMHLD	42	336	3	48
NMHLD	43	0	4	48
NMHLD	43	48	2	48
NMHLD	43	96	3	48
NMHLD	43	144	1	48
NMHLD	43	192	3	48
NMHLD	43	240	1	48
BXTAP	43	288	2
NMHLD	44	0	1	144
NMHLD	44	0	3	144
BXTAP	44	192	2
BXTAP	44	204	2
BXTAP	44	216	2
BXTAP	44	228	2
BXTAP	44	240	2
BXTAP	44	252	2
BXTAP	44	264	2
BXTAP	44	276	2
BXTAP	44	288	2
BXTAP	44	300	2
BXTAP	44	312	2
BXTAP	44	324	2
BXTAP	44	336	2
BXTAP	44	348	2
BXTAP	44	360	2
BXTAP	44	372	2
EXTAP	45	0	2
NMTAP	45	48	3
NMTAP	45	96	4
BRTAP	45	96	5
NMTAP	45	144	3
NMTAP	45	192	2
NMTAP	45	240	3
NMTAP	45	288	4
BRTAP	45	288	5
NMTAP	45	336	3
NMTAP	46	0	2
NMTAP	46	48	4
NMTAP	46	96	3
BRTAP	46	96	5
NMTAP	46	144	4
NMTAP	46	192	2
NMTAP	46	240	4
NMTAP	46	288	3
BRTAP	46	288	5
NMTAP	46	336	4
BRTAP	47	0	5
NMTAP	47	0	6
NMTAP	47	48	4
NMTAP	47	96	3
BRTAP	47	96	5
NMTAP	47	144	4
BRTAP	47	192	5
NMTAP	47	192	6
NMTAP	47	240	4
BRTAP	47	240	5
BRTAP	47	288	5
BRTAP	47	312	5
BRTAP	47	336	5
BRTAP	47	360	5
NMSTR	48	192	4
BRSXR	48	192	4	96	24	2
NMSTR	48	192	5
BRSV_	48	192	5	96	24	2
BRTAP	48	288	4
BRTAP	48	288	5
NMTTP	48	300	0	C	1	M1
EXTAP	49	0	7
NMTTP	49	6	7	D	0	M1
NMTTP	49	12	6	D	0	M1
NMTTP	49	18	5	D	0	M1
EXTAP	49	48	7
NMTTP	49	54	7	E	0	M1
NMTTP	49	60	5	B	0	M1
NMTTP	49	66	4	E	0	M1
EXTAP	49	96	7
NMTTP	49	100	7	B	0	M1
NMTTP	49	104	0	C	0	M1
NMTTP	49	108	3	B	0	M1
NMTTP	49	112	3	A	0	M1
NMTAP	49	144	1
NMHLD	49	168	1	48
NMTAP	49	216	0
NMTAP	49	240	2
NMTAP	49	264	0
NMSTR	49	288	2
NMSI_	49	288	2	96	24	4
NMSTR	49	336	2
NMSI_	49	336	2	96	24	6
EXSTR	50	0	2
NMSI_	50	0	2	96	24	0
NMTTP	50	6	4	A	1	M1
EXTAP	50	48	2
NMTTP	50	54	6	A	1	M1
EXTAP	50	96	2
NMTTP	50	102	0	A	1	M1
NMTAP	50	144	5
NMHLD	50	168	5	48
NMTAP	50	216	7
NMTAP	50	240	6
NMTAP	50	264	0
NMTAP	50	288	7
NMTAP	50	336	0
NMTAP	50	336	7
BXTAP	51	0	6
BRTAP	51	6	5
BRHLD	51	12	4	36
BXTAP	51	48	7
BRTAP	51	54	6
BRHLD	51	60	5	36
BXTAP	51	96	0
BRTAP	51	102	7
BRHLD	51	108	6	36
NMTAP	51	144	1
NMSTR	51	192	2
BRSCR	51	192	2	96	24	5
NMSTR	51	192	5
BRSCL	51	192	5	96	24	2
BRTAP	51	240	0
BRTAP	51	240	7
NMTTP	51	288	2	A	0	M1
NMTTP	51	288	5	A	0	M1
EXTAP	52	0	5
NMTAP	52	24	4
NMTAP	52	48	6
NMTAP	52	72	3
NMSTR	52	96	4
NMSUL	52	96	4	96	120	0
NMTAP	52	120	1
NMTAP	52	144	3
NMTAP	52	168	2
NMHLD	52	192	4	120
EXTAP	53	0	0
EXTAP	53	0	7
NMTTP	53	6	7	D	0	M1
NMTTP	53	12	6	D	0	M1
NMTTP	53	18	5	D	0	M1
EXTAP	53	48	7
NMTTP	53	54	7	E	0	M1
NMTTP	53	60	5	B	0	M1
NMTTP	53	66	4	E	0	M1
EXTAP	53	96	7
NMTTP	53	100	7	B	0	M1
NMTTP	53	104	0	C	0	M1
NMTTP	53	108	3	B	0	M1
NMTTP	53	112	3	A	0	M1
NMTAP	53	144	1
NMHLD	53	168	1	48
NMTAP	53	216	0
NMTAP	53	240	2
NMTAP	53	264	0
NMSTR	53	288	2
NMSI_	53	288	2	96	24	4
NMSTR	53	336	2
NMSI_	53	336	2	96	24	6
EXSTR	54	0	2
NMSI_	54	0	2	96	24	0
NMTTP	54	6	4	A	1	M1
EXTAP	54	48	2
NMTTP	54	54	6	A	1	M1
EXTAP	54	96	2
NMTTP	54	102	0	A	1	M1
NMTAP	54	144	5
NMHLD	54	168	5	48
NMTAP	54	216	7
NMTAP	54	240	6
NMTAP	54	264	0
NMTAP	54	288	7
NMTAP	54	336	0
NMTAP	54	336	7
BXTAP	55	0	6
BRTAP	55	6	5
BRHLD	55	12	4	36
BXTAP	55	48	7
BRTAP	55	54	6
BRHLD	55	60	5	36
BXTAP	55	96	0
BRTAP	55	102	7
BRHLD	55	108	6	36
NMTAP	55	144	2
NMSTR	55	192	4
BRSCL	55	192	4	96	36	0
NMHLD	55	192	5	96
BRTAP	55	288	4
NMTAP	56	0	1
NMTAP	56	0	2
NMTAP	56	48	5
NMTAP	56	48	6
NMSTR	56	96	3
NMSCL	56	96	3	96	36	1
NMSTR	56	96	4
NMSCR	56	96	4	96	36	6
NMTAP	56	120	3
NMTAP	56	120	4
NMTAP	56	144	3
NMTAP	56	144	4
NMTTP	56	192	5	D	0	M1
NMTTP	56	198	3	D	0	M1
NMTTP	56	288	0	C	1	M1
NMSTR	57	0	6
NMSUL	57	0	6	96	96	1
NMTAP	57	48	0
NMSTR	57	96	1
NMSUR	57	96	1	96	96	7
NMTAP	57	144	0
NMSTR	57	192	7
NMSUL	57	192	7	96	96	0
NMTAP	57	240	0
BRTAP	57	288	1
NMSTR	58	0	3
NMSUR	58	0	3	96	96	0
NMTAP	58	48	7
NMSTR	58	96	0
NMSUL	58	96	0	96	96	2
NMTAP	58	144	1
NMSTR	58	192	2
NMSUR	58	192	2	96	96	1
NMTAP	58	240	1
BRTAP	58	288	0
NMSTR	59	0	6
NMSUL	59	0	6	96	96	1
NMTAP	59	48	0
NMSTR	59	96	1
NMSUR	59	96	1	96	96	7
NMTAP	59	144	0
NMTAP	59	192	7
NMTAP	59	240	0
BRTAP	59	288	1
NMHLD	59	336	2	24
NMHLD	60	0	1	24
NMHLD	60	0	3	24
NMHLD	60	48	0	24
NMHLD	60	48	7	24
NMHLD	60	96	4	24
NMHLD	60	96	6	24
NMTAP	60	144	2
NMTAP	60	144	5
NMTTP	60	192	2	A	0	M1
NMTTP	60	192	2	D	0	M1
NMTTP	60	192	3	E	0	M1
NMTTP	60	192	5	E	0	M1
NMTTP	60	192	5	A	0	M1
NMTTP	60	192	6	D	0	M1
NMTTP	60	240	2	A	0	M1
NMTTP	60	240	2	D	0	M1
NMTTP	60	240	3	E	0	M1
NMTTP	60	240	5	E	0	M1
NMTTP	60	240	5	A	0	M1
NMTTP	60	240	6	D	0	M1
NMTTP	60	288	2	A	0	M1
NMTTP	60	288	2	D	0	M1
NMTTP	60	288	3	E	0	M1
NMTTP	60	288	5	E	0	M1
NMTTP	60	288	5	A	0	M1
NMTTP	60	288	6	D	0	M1
NMSTR	61	0	1
NMSUR	61	0	1	96	96	6
NMTAP	61	48	7
NMSTR	61	96	6
NMSUL	61	96	6	96	96	0
NMTAP	61	144	7
NMSTR	61	192	0
NMSUR	61	192	0	96	96	7
NMTAP	61	240	7
BRTAP	61	288	6
NMSTR	62	0	4
NMSUL	62	0	4	96	96	7
NMTAP	62	48	0
NMSTR	62	96	7
NMSUR	62	96	7	96	96	5
NMTAP	62	144	6
NMSTR	62	192	5
NMSUL	62	192	5	96	96	6
NMTAP	62	240	6
BRTAP	62	288	7
NMSTR	63	0	1
NMSUR	63	0	1	96	96	6
NMTAP	63	48	7
NMSTR	63	96	6
NMSUL	63	96	6	96	96	0
NMTAP	63	144	7
NMTAP	63	192	0
NMTAP	63	240	7
BRHLD	63	288	6	96
NMTAP	64	0	0
NMTAP	64	48	1
NMTAP	64	48	2
NMTAP	64	96	3
NMTAP	64	96	4
NMTAP	64	144	5
NMTAP	64	144	6
NMTHO	64	192	0	96	C	0	M1
BRTAP	64	192	7
NMSTR	64	288	5
NMSUR	64	288	5	96	96	3
NMHLD	65	0	4	96
CNSUL	65	96	3	0	96	5
NMHLD	65	144	7	96
EXSTR	65	288	2
NMSUL	65	288	2	96	96	4
NMTAP	65	288	4
NMHLD	66	0	3	96
CNSUR	66	96	4	0	96	2
NMHLD	66	144	0	96
NMTAP	66	288	3
EXSTR	66	288	5
NMSUR	66	288	5	96	96	2
NMHLD	67	0	4	96
CNSUL	67	96	2	0	96	5
NMHLD	67	144	7	96
BRTAP	67	288	0
BRTAP	67	288	3
NMTTP	68	0	4	B	0	M1
NMTTP	68	0	4	A	0	M1
NMTTP	68	0	5	B	0	M1
NMTTP	68	0	5	D	0	M1
NMTTP	68	0	6	B	0	M1
NMTTP	68	0	7	B	0	M1
NMTTP	68	0	7	A	0	M1
NMTTP	68	0	7	D	0	M1
NMTTP	68	48	0	A	0	M1
NMTTP	68	48	1	B	0	M1
NMTTP	68	48	1	A	0	M1
NMTTP	68	48	1	D	0	M1
NMTTP	68	48	2	B	0	M1
NMTTP	68	48	2	A	0	M1
NMTTP	68	48	3	A	0	M1
NMTTP	68	48	3	D	0	M1
EXSTR	68	96	3
BRSI_	68	96	3	96	48	7
EXHLD	68	144	5	48
EXTAP	68	192	3
CNSLL	68	240	7	0	48	1
NMTTP	68	288	1	A	1	M1
NMHLD	69	0	5	48
NMTAP	69	48	4
NMHLD	69	72	6	48
NMTAP	69	120	5
NMHLD	69	144	7	48
NMTAP	69	192	6
NMTAP	69	240	1
NMTAP	69	240	7
NMTAP	69	288	0
NMTAP	69	288	2
NMTAP	69	336	1
NMTAP	69	336	3
NMHLD	70	0	2	48
NMTAP	70	48	3
NMHLD	70	72	1	48
NMTAP	70	120	2
NMHLD	70	144	0	48
NMTAP	70	192	1
NMTAP	70	240	0
NMTAP	70	240	6
NMTAP	70	288	5
NMTAP	70	288	7
NMTAP	70	336	4
NMTAP	70	336	6
NMHLD	71	0	5	48
NMTAP	71	48	4
NMHLD	71	72	6	48
NMTAP	71	120	5
NMHLD	71	144	7	48
NMTAP	71	192	6
NMTAP	71	240	1
NMTAP	71	240	7
NMTAP	71	288	0
NMTAP	71	288	2
NMTAP	71	336	1
NMTAP	71	336	3
NMHLD	72	0	2	48
NMHLD	72	72	1	48
NMHLD	72	72	7	48
NMSTR	72	144	0
NMSXL	72	144	0	96	48	2
NMSXR	72	144	0	96	48	6
NMTTP	72	192	1	A	0	M1
NMTTP	72	192	7	A	0	M1
EXTAP	72	240	0
BRSTR	73	0	2
NMSI_	73	0	2	96	36	0
BRTAP	73	0	4
NMTAP	73	32	3
NMTAP	73	64	3
BXTAP	73	96	2
BXTAP	73	96	4
BRTAP	73	192	3
BRSTR	73	192	5
NMSI_	73	192	5	96	36	7
NMTAP	73	224	4
NMTAP	73	256	4
BXTAP	73	288	3
BXTAP	73	288	5
BRTAP	74	0	1
NMTAP	74	24	3
NMTAP	74	48	2
NMTAP	74	72	2
BRTAP	74	96	6
NMTAP	74	120	4
NMTAP	74	144	5
NMTAP	74	168	5
BRTAP	74	192	2
NMTAP	74	216	6
NMTAP	74	240	1
NMTAP	74	264	7
BRSTR	74	288	0
NMSI_	74	288	0	96	36	5
BRSCL	74	288	0	96	36	5
BRSTR	75	0	0
NMSI_	75	0	0	96	36	3
BRSCR	75	0	0	96	36	3
BRSTR	75	96	0
BRSCL	75	96	0	96	36	4
BRSUL	75	96	0	96	36	4
BRSTR	75	192	0
BRSCR	75	192	0	96	36	4
BRSUR	75	192	0	96	36	4
BRTAP	75	288	0
EXTAP	76	0	4
BRTAP	76	0	5
BRTAP	76	48	2
EXTAP	76	48	3
EXTAP	76	96	4
BRTAP	76	96	6
BRTAP	76	144	1
EXTAP	76	144	3
NMTAP	76	192	0
NMTAP	76	192	6
NMTAP	76	216	0
NMTAP	76	216	6
NMTAP	76	240	0
NMTAP	76	240	6
NMTAP	76	264	0
NMTAP	76	264	6
NMTAP	76	288	7
NMTAP	76	312	7
NMTAP	76	336	7
NMTTP	77	0	2	B	0	M1
NMTTP	77	0	2	E	0	M1
NMTTP	77	0	2	A	0	M1
NMTTP	77	0	2	D	0	M1
NMTTP	77	0	3	B	0	M1
NMTTP	77	0	3	E	0	M1
NMTTP	77	0	3	A	0	M1
NMTTP	77	0	3	D	0	M1
NMTTP	77	0	4	B	0	M1
NMTTP	77	0	4	E	0	M1
NMTTP	77	0	4	A	0	M1
NMTTP	77	0	4	D	0	M1
EXSTR	80	120	1
NMSCR	80	120	1	96	96	5
NMSTR	80	216	5
NMSCR	80	216	5	96	96	1
NMSTR	80	312	1
NMSCR	80	312	1	96	96	5
NMSTR	81	24	5
NMSCR	81	24	5	96	96	1
NMSTR	81	120	1
NMSCR	81	120	1	96	96	5
NMSTR	81	216	5
NMSCR	81	216	5	96	96	1
NMSTR	81	312	1
NMSCR	81	312	1	96	96	5
NMSTR	82	24	5
NMSCR	82	24	5	96	96	1
NMSTR	82	120	1
NMSCR	82	120	1	96	96	5
NMSTR	82	216	5
NMSCR	82	216	5	96	96	1
NMTAP	82	312	1
NMTAP	83	24	2
NMTAP	83	120	3
NMTAP	83	216	4
NMTAP	83	216	5
NMTAP	83	264	6
NMTAP	83	264	7
NMTAP	83	312	0
NMTAP	83	312	1
NMTAP	83	360	2
NMTAP	83	360	3
NMTAP	84	24	4
NMTAP	84	24	5
NMTAP	84	48	6
NMTAP	84	72	7
NMTAP	84	96	0
NMSTR	84	120	1
NMSV_	84	120	1	96	24	4
NMSTR	84	120	5
NMSV_	84	120	5	96	24	0
NMTAP	84	144	1
NMTAP	84	144	5
EXTAP	84	168	1
EXTAP	84	168	5
NMTTP	84	228	0	C	1	M1
NMTTP	84	228	1	B	0	M1
NMTTP	84	228	2	B	0	M1
NMTTP	84	228	2	E	0	M1
NMTTP	84	228	3	B	0	M1
NMTTP	84	228	4	B	0	M1
NMTTP	84	228	4	E	0	M1

T_REC_TAP	285
T_REC_BRK	58
T_REC_XTP	38
T_REC_BXX	32
T_REC_HLD	93
T_REC_XHO	32
T_REC_BHO	8
T_REC_BXH	0
T_REC_STR	82
T_REC_BST	7
T_REC_XST	9
T_REC_XBS	0
T_REC_TTP	178
T_REC_THO	2
T_REC_SLD	86
T_REC_BSL	18
T_REC_ALL	928
T_NUM_TAP	592
T_NUM_BRK	123
T_NUM_HLD	127
T_NUM_SLD	86
T_NUM_ALL	928
T_JUDGE_TAP	689
T_JUDGE_HLD	186
T_JUDGE_SLD	104
T_JUDGE_ALL	979
TTM_EACHPAIRS	89
TTM_SCR_TAP	296000
TTM_SCR_BRK	319800
TTM_SCR_HLD	127000
TTM_SCR_SLD	129000
TTM_SCR_ALL	871800
TTM_SCR_S	833750
TTM_SCR_SS	859500
TTM_RAT_ACV	10143

