VERSION	0.00.00	1.05.00
FES_MODE	0
BPM_DEF	126.000	126.000	126.000	126.000
MET_DEF	4	4
RESOLUTION	384
CLK_DEF	384
COMPATIBLE_CODE	MA2

BPM	0	0	126.000
MET	0	0	4	4
MET	82	0	16	9
MET	82	216	4	4

NMSTR	1	0	0
NMSI_	1	0	0	96	96	3
NMTAP	1	288	7
NMSTR	1	336	7
NMSI_	1	336	7	96	96	4
NMTTP	2	264	2	B	1	M1
NMTTP	2	264	2	E	0	M1
NMTTP	2	264	3	B	0	M1
EXSTR	3	0	0
NMSI_	3	0	0	96	96	3
NMTAP	3	288	4
BXTAP	3	336	4
BXTAP	4	48	1
BXTAP	4	48	3
BXTAP	4	96	2
BXTAP	4	96	4
BXTAP	4	144	3
BXTAP	4	144	5
BXHLD	4	192	4	96
BXHLD	4	192	6	96
NMTAP	5	0	5
NMTAP	5	48	5
NMTAP	5	96	4
NMTAP	5	144	4
NMTAP	5	192	6
NMTAP	5	240	6
NMTAP	5	288	4
NMTAP	5	336	4
NMTAP	6	0	5
NMTAP	6	48	5
NMTAP	6	96	4
NMTAP	6	144	4
NMTAP	6	192	6
NMTAP	6	240	7
NMTAP	6	288	0
NMTAP	6	336	1
NMTAP	7	0	2
NMTAP	7	48	2
NMTAP	7	96	3
NMTAP	7	144	3
NMTAP	7	192	1
NMTAP	7	240	1
NMTAP	7	288	3
NMHLD	8	0	0	48
NMHLD	8	0	2	48
NMHLD	8	96	1	48
NMHLD	8	96	3	48
NMTAP	8	192	2
NMTAP	8	192	4
NMTTP	8	288	5	E	0	M1
NMTAP	9	0	6
NMTAP	9	48	6
NMTAP	9	96	4
NMTAP	9	144	4
NMHLD	9	192	5	96
NMTAP	9	288	4
NMSTR	10	0	6
NMSI_	10	0	6	96	48	4
NMSTR	10	192	7
NMSI_	10	192	7	96	48	4
NMTAP	11	0	2
NMTAP	11	48	2
NMTAP	11	96	3
NMTAP	11	144	3
NMTAP	11	192	1
NMTAP	11	240	1
NMSTR	11	288	3
NMSXR	11	288	3	96	192	7
BRTAP	12	288	0
NMHLD	13	0	1	48
NMHLD	13	0	7	48
NMHLD	13	96	1	48
NMHLD	13	96	7	48
NMHLD	13	192	0	48
NMHLD	13	192	6	48
NMHLD	13	288	0	48
NMHLD	13	288	6	48
NMHLD	14	0	5	48
NMHLD	14	0	7	48
NMHLD	14	96	5	48
NMHLD	14	96	7	48
NMHLD	14	192	0	48
NMHLD	14	192	2	48
NMHLD	14	288	0	48
NMHLD	14	288	2	48
NMHLD	15	0	6	48
NMHLD	15	0	7	48
NMHLD	15	96	6	48
NMHLD	15	96	7	48
NMHLD	15	192	0	48
NMHLD	15	192	1	48
EXTAP	15	288	0
EXTAP	15	288	1
EXTAP	15	336	0
EXTAP	15	336	1
NMTTP	16	0	2	E	0	M1
NMTTP	16	48	3	E	0	M1
NMTTP	16	96	4	E	0	M1
NMTTP	16	144	5	E	0	M1
NMTTP	16	192	6	E	0	M1
BRTAP	16	288	7
BXTAP	17	0	0
BXTAP	17	0	6
BXTAP	17	48	1
BXTAP	17	48	5
BXTAP	17	96	2
BXTAP	17	96	4
NMTAP	17	144	5
NMTAP	17	192	6
NMTAP	17	240	7
NMTAP	17	288	0
NMTAP	17	288	6
BXTAP	18	0	1
BXTAP	18	0	3
BXTAP	18	48	1
BXTAP	18	48	3
BXTAP	18	96	1
BXTAP	18	96	3
NMTAP	18	144	2
NMTAP	18	192	1
NMTAP	18	240	1
NMTAP	18	288	2
NMTAP	18	288	4
BXTAP	19	0	1
BXTAP	19	48	3
BXSTR	19	96	2
NMSCR	19	96	2	96	48	4
BXTAP	19	288	0
BXTAP	19	288	6
NMHLD	20	0	0	48
NMHLD	20	0	6	48
NMHLD	20	96	1	192
NMSTR	20	96	7
NMSI_	20	96	7	96	48	3
BXTAP	21	0	0
BXTAP	21	0	6
BXTAP	21	48	1
BXTAP	21	48	5
BXTAP	21	96	2
BXTAP	21	96	4
NMTAP	21	144	5
NMTAP	21	192	6
NMTAP	21	240	7
NMTAP	21	288	0
NMTAP	21	288	6
BXTAP	22	0	1
BXTAP	22	0	3
BXTAP	22	48	1
BXTAP	22	48	3
BXTAP	22	96	1
BXTAP	22	96	3
NMTAP	22	144	2
NMTAP	22	192	1
NMTAP	22	240	1
NMTAP	22	288	2
NMTAP	22	288	4
BXTAP	23	0	1
BXTAP	23	48	1
BXTAP	23	96	3
BXHLD	23	144	3	96
BXTAP	23	240	0
BXTAP	23	288	0
NMSTR	24	0	1
NMSI_	24	0	1	96	48	5
NMSTR	24	0	7
NMSI_	24	0	7	96	48	3
EXTAP	24	192	2
EXTAP	24	192	6
NMTAP	24	240	7
BRTAP	24	288	7
NMHLD	25	0	4	96
NMHLD	25	0	6	96
NMHLD	25	144	5	96
NMHLD	25	144	7	96
NMTAP	25	288	5
NMTAP	25	288	7
NMHLD	26	0	1	96
NMHLD	26	0	3	96
NMHLD	26	144	0	96
NMHLD	26	144	2	96
NMTAP	26	288	0
NMTAP	26	288	2
NMHLD	27	0	4	96
NMHLD	27	0	6	96
NMHLD	27	144	5	96
NMHLD	27	144	7	96
NMTAP	27	288	5
NMTAP	27	288	7
NMTAP	28	0	4
NMTAP	28	48	4
NMTAP	28	96	3
NMTAP	28	96	5
EXTAP	28	192	2
EXTAP	28	192	6
EXTAP	28	240	2
EXTAP	28	240	6
EXTAP	28	288	2
EXTAP	28	288	6
NMHLD	29	0	1	96
NMHLD	29	0	3	96
NMHLD	29	144	0	96
NMHLD	29	144	2	96
NMTAP	29	288	0
NMTAP	29	288	2
NMHLD	30	0	4	96
NMHLD	30	0	6	96
NMHLD	30	144	5	96
NMHLD	30	144	7	96
NMTAP	30	288	5
NMTAP	30	288	7
NMHLD	31	0	1	96
NMHLD	31	0	3	96
NMHLD	31	144	0	96
NMHLD	31	144	2	96
BRTAP	31	288	1
BRTAP	31	288	3
NMSTR	32	0	2
NMSI_	32	0	2	96	48	0
NMTAP	32	48	2
BRTAP	32	192	3
BRTAP	32	288	1
BRTAP	32	288	5
NMTAP	33	0	3
NMTAP	33	96	6
NMTAP	33	144	6
NMTAP	33	192	4
NMTAP	33	288	1
NMTAP	33	336	1
NMTAP	34	0	3
NMTAP	34	96	6
NMTAP	34	144	6
NMTAP	34	192	4
NMTAP	34	288	1
NMTAP	34	336	1
NMTAP	35	0	3
NMTAP	35	48	4
NMTAP	35	96	5
NMTAP	35	144	5
NMTAP	35	192	3
NMTAP	35	240	2
BRTAP	35	288	2
BRTAP	35	288	4
NMTTP	36	0	5	A	0	M1
NMTTP	36	48	5	E	0	M1
NMTTP	36	96	4	E	0	M1
NMTTP	36	144	3	E	0	M1
NMTTP	36	192	2	A	0	M1
NMTTP	36	288	0	C	0	M1
NMTAP	37	0	7
NMTAP	37	48	7
NMTAP	37	96	7
NMTAP	37	144	7
NMTAP	37	192	7
NMTAP	37	240	7
NMTAP	37	288	7
NMTAP	37	336	7
NMTAP	38	0	0
NMTAP	38	48	0
NMTAP	38	96	0
NMTAP	38	144	0
NMTAP	38	192	0
NMTAP	38	240	0
NMTAP	38	288	0
NMTAP	38	336	0
NMTAP	39	0	1
NMTAP	39	0	7
NMTAP	39	48	1
NMTAP	39	48	7
NMTAP	39	96	1
NMTAP	39	96	7
NMTAP	39	144	1
NMTAP	39	144	7
NMTAP	39	192	0
NMTAP	39	192	6
NMTAP	39	240	0
NMTAP	39	240	6
NMTAP	39	288	0
NMTAP	39	288	6
NMSTR	39	336	0
NMSF_	39	336	0	96	96	4
NMTAP	39	336	6
BRTAP	40	288	0
NMTAP	41	0	7
NMTAP	41	48	7
NMTAP	41	96	6
NMTAP	41	144	6
NMTAP	41	192	4
NMTAP	41	240	4
BRTAP	41	288	5
NMTAP	42	0	7
NMTAP	42	48	7
NMTAP	42	96	6
NMTAP	42	144	6
NMTAP	42	192	4
NMTAP	42	240	4
BRTAP	42	288	5
NMTAP	43	0	0
NMTAP	43	48	0
NMTAP	43	96	1
NMTAP	43	144	1
NMTAP	43	192	3
NMTAP	43	240	3
BRTAP	43	288	2
NMTAP	44	0	1
NMTAP	44	48	1
NMTAP	44	96	3
NMTAP	44	144	3
BXTAP	44	192	2
BXTAP	44	216	2
BXTAP	44	240	2
BXTAP	44	264	2
BXTAP	44	288	2
NMTAP	45	0	5
NMTAP	45	48	3
BRTAP	45	96	4
NMTAP	45	144	4
NMTAP	45	192	3
NMTAP	45	240	3
BRTAP	45	288	4
NMTAP	45	336	4
NMTAP	46	0	3
NMTAP	46	48	2
BRTAP	46	96	4
NMTAP	46	144	5
NMTAP	46	192	2
NMTAP	46	240	3
BRTAP	46	288	4
NMTAP	46	336	3
BRTAP	47	0	4
NMTAP	47	48	5
BRTAP	47	96	4
NMTAP	47	144	3
BRTAP	47	192	4
BRTAP	47	240	4
BRTAP	47	288	4
BRTAP	47	336	4
NMTTP	48	0	5	A	0	M1
NMTTP	48	48	5	E	0	M1
NMTTP	48	96	4	E	0	M1
NMTTP	48	144	3	E	0	M1
NMTTP	48	192	2	A	0	M1
NMTTP	48	288	0	C	1	M1
BXTAP	49	0	0
BXTAP	49	0	6
BXTAP	49	48	0
BXTAP	49	48	6
BXTAP	49	96	0
BXTAP	49	96	6
NMTAP	49	144	5
NMTAP	49	168	5
NMTAP	49	192	4
NMTAP	49	240	6
NMTAP	49	240	7
NMTAP	49	288	0
NMTAP	49	288	1
BXTAP	50	0	1
BXTAP	50	0	3
BXTAP	50	48	1
BXTAP	50	48	3
BXTAP	50	96	1
BXTAP	50	96	3
NMTAP	50	144	2
NMTAP	50	168	2
NMTAP	50	192	3
NMTAP	50	240	1
NMTAP	50	240	4
NMTAP	50	288	1
NMTAP	50	288	4
BXTAP	51	0	1
BXTAP	51	48	3
BXSTR	51	96	2
NMSCR	51	96	2	96	48	4
BRTAP	51	288	0
BRTAP	51	288	6
NMTAP	52	0	1
NMTAP	52	0	7
NMTAP	52	48	1
NMTAP	52	48	7
NMHLD	52	96	1	192
NMSTR	52	96	7
NMSI_	52	96	7	96	48	3
BXTAP	53	0	0
BXTAP	53	0	6
BXTAP	53	48	1
BXTAP	53	48	5
BXTAP	53	96	2
BXTAP	53	96	4
NMTAP	53	144	5
NMTAP	53	168	5
NMTAP	53	192	4
NMTAP	53	240	6
NMTAP	53	240	7
NMTAP	53	288	0
NMTAP	53	288	1
BXTAP	54	0	1
BXTAP	54	0	3
BXTAP	54	48	1
BXTAP	54	48	3
BXTAP	54	96	1
BXTAP	54	96	3
NMTAP	54	144	2
NMTAP	54	168	2
NMTAP	54	192	3
NMTAP	54	240	1
NMTAP	54	240	4
NMTAP	54	288	1
NMTAP	54	288	4
BXTAP	55	0	1
BXTAP	55	48	1
BXTAP	55	96	3
BXHLD	55	144	3	96
BXTAP	55	240	0
BXTAP	55	288	0
NMSTR	56	0	1
BRSI_	56	0	1	96	48	5
NMSTR	56	0	7
BRSI_	56	0	7	96	48	3
EXTAP	56	192	2
EXTAP	56	192	6
NMTAP	56	240	7
BRTAP	56	288	7
NMHLD	57	0	4	48
NMHLD	57	0	6	48
NMTAP	57	96	4
NMTAP	57	96	6
NMHLD	57	144	5	48
NMHLD	57	144	7	48
NMTAP	57	240	5
NMTAP	57	240	7
NMTAP	57	288	4
NMTAP	57	288	5
NMHLD	58	0	1	48
NMHLD	58	0	3	48
NMTAP	58	96	1
NMTAP	58	96	3
NMHLD	58	144	0	48
NMHLD	58	144	2	48
NMTAP	58	240	0
NMTAP	58	240	2
NMTAP	58	288	2
NMTAP	58	288	3
NMHLD	59	0	4	48
NMHLD	59	0	6	48
NMTAP	59	96	4
NMTAP	59	96	6
NMHLD	59	144	5	48
NMHLD	59	144	7	48
NMTAP	59	240	5
NMTAP	59	240	7
NMTAP	59	288	4
NMTAP	59	288	5
NMTAP	60	0	2
NMTAP	60	0	4
NMTAP	60	48	2
NMTAP	60	48	4
NMTAP	60	96	3
NMTAP	60	96	5
NMTAP	60	144	3
NMTAP	60	144	5
EXTAP	60	192	2
EXTAP	60	192	6
EXTAP	60	240	2
EXTAP	60	240	6
EXTAP	60	288	2
EXTAP	60	288	6
NMHLD	61	0	0	48
NMHLD	61	0	2	48
NMTAP	61	96	0
NMTAP	61	96	2
NMHLD	61	144	1	48
NMHLD	61	144	3	48
NMTAP	61	240	1
NMTAP	61	240	3
NMTAP	61	288	0
NMTAP	61	288	1
NMHLD	62	0	5	48
NMHLD	62	0	7	48
NMTAP	62	96	5
NMTAP	62	96	7
NMHLD	62	144	4	48
NMHLD	62	144	6	48
NMTAP	62	240	4
NMTAP	62	240	6
NMTAP	62	288	6
NMTAP	62	288	7
NMHLD	63	0	0	48
NMHLD	63	0	2	48
NMTAP	63	96	0
NMTAP	63	96	2
NMHLD	63	144	1	48
NMHLD	63	144	3	48
NMTAP	63	240	1
NMTAP	63	240	3
NMTAP	63	288	0
NMTAP	63	288	1
NMTAP	63	336	0
NMTAP	63	336	1
NMTAP	64	0	6
NMTAP	64	0	7
NMTAP	64	48	6
NMTAP	64	48	7
NMTAP	64	96	3
NMTAP	64	96	4
NMTAP	64	144	3
NMTAP	64	144	4
BRTAP	64	192	2
BRTAP	64	192	5
NMTTP	64	288	4	E	0	M1
NMSTR	65	0	6
NMSCL	65	0	6	96	48	4
NMSTR	65	144	1
NMSCR	65	144	1	96	48	3
NMTAP	65	288	5
NMSTR	66	0	6
NMSI_	66	0	6	96	48	4
NMSTR	66	144	1
NMSI_	66	144	1	96	48	3
NMTAP	66	288	4
NMSTR	67	0	5
NMSI_	67	0	5	96	48	7
NMSTR	67	144	2
NMSI_	67	144	2	96	48	0
BRTAP	67	288	6
NMSTR	68	0	2
NMSI_	68	0	2	96	48	0
NMTAP	68	48	2
BRTAP	68	192	3
NMTTP	68	288	4	E	1	M1
NMHLD	69	0	6	72
NMHLD	69	72	5	72
NMTAP	69	144	4
NMTAP	69	240	3
NMTAP	69	240	4
NMTAP	69	288	3
NMTAP	69	288	4
NMHLD	70	0	1	72
NMHLD	70	72	2	72
NMTAP	70	144	3
NMTAP	70	240	3
NMTAP	70	240	4
NMTAP	70	288	3
NMTAP	70	288	4
NMHLD	71	0	5	72
NMHLD	71	72	6	72
NMTAP	71	144	7
NMTAP	71	240	0
NMTAP	71	240	7
NMTAP	71	288	0
NMTAP	71	288	7
NMHLD	72	0	2	72
NMHLD	72	72	1	72
NMTAP	72	144	0
NMTAP	72	240	2
NMTAP	72	240	7
NMTAP	72	288	2
NMTAP	72	288	7
NMSTR	73	0	5
NMSCR	73	0	5	96	96	0
NMSTR	73	192	2
NMSCL	73	192	2	96	96	7
NMTAP	74	0	6
NMTAP	74	48	6
NMTAP	74	96	4
NMTAP	74	144	5
NMTAP	74	192	1
NMTAP	74	240	1
NMTAP	74	288	3
NMHLD	75	0	0	48
NMHLD	75	0	6	48
NMHLD	75	96	1	48
NMHLD	75	96	7	48
NMHLD	75	192	0	48
NMHLD	75	192	5	48
NMHLD	75	288	2	48
NMHLD	75	288	7	48
NMTAP	76	0	4
NMTAP	76	0	5
NMTAP	76	48	4
NMTAP	76	48	5
NMTAP	76	96	2
NMTAP	76	96	3
NMTAP	76	144	2
NMTAP	76	144	3
NMTAP	76	192	0
NMTAP	76	192	1
NMTAP	76	240	0
NMTAP	76	240	1
EXHLD	76	288	7	2232
NMTTP	77	0	0	C	0	M1
NMTTP	77	0	5	B	0	M1
NMTTP	77	0	6	B	0	M1
NMSTR	82	216	0
NMSCR	82	216	0	96	96	3
NMSTR	83	24	4
NMSCR	83	24	4	96	96	7
NMTAP	83	216	0
NMTAP	83	264	1
NMTAP	83	312	2
NMTAP	83	360	3
NMTAP	84	24	5
NMTAP	84	72	6
NMTAP	84	120	7
NMTTP	84	216	0	C	1	M1
NMTTP	84	216	1	B	0	M1
NMTTP	84	216	2	B	0	M1
NMTTP	84	216	5	B	0	M1
NMTTP	84	216	6	B	0	M1

T_REC_TAP	295
T_REC_BRK	31
T_REC_XTP	20
T_REC_BXX	76
T_REC_HLD	95
T_REC_XHO	1
T_REC_BHO	0
T_REC_BXH	4
T_REC_STR	24
T_REC_BST	0
T_REC_XST	1
T_REC_XBS	2
T_REC_TTP	31
T_REC_THO	0
T_REC_SLD	25
T_REC_BSL	2
T_REC_ALL	607
T_NUM_TAP	371
T_NUM_BRK	115
T_NUM_HLD	96
T_NUM_SLD	25
T_NUM_ALL	607
T_JUDGE_TAP	480
T_JUDGE_HLD	189
T_JUDGE_SLD	27
T_JUDGE_ALL	696
TTM_EACHPAIRS	160
TTM_SCR_TAP	185500
TTM_SCR_BRK	299000
TTM_SCR_HLD	96000
TTM_SCR_SLD	37500
TTM_SCR_ALL	618000
TTM_SCR_S	588350
TTM_SCR_SS	606500
TTM_RAT_ACV	10189

