VERSION	0.00.00	1.05.00
FES_MODE	0
BPM_DEF	170.000	170.000	170.000	170.000
MET_DEF	4	4
RESOLUTION	384
CLK_DEF	384
COMPATIBLE_CODE	MA2

BPM	0	0	170.000
MET	0	0	4	4

EXHLD	1	0	3	288
EXHLD	1	0	6	288
NMTAP	2	0	5
NMTAP	2	48	4
NMTAP	2	96	3
NMTAP	2	96	6
NMTAP	2	144	5
NMTAP	2	168	4
NMTAP	2	192	5
NMTAP	2	240	6
NMTAP	2	288	3
NMTAP	2	288	5
NMTAP	2	336	4
NMTAP	3	0	2
NMTAP	3	48	3
NMTAP	3	96	1
NMTAP	3	96	4
NMTAP	3	144	2
NMTAP	3	168	3
NMTAP	3	192	2
NMTAP	3	240	1
NMTAP	3	288	2
NMTAP	3	288	4
NMTAP	3	336	3
NMTAP	4	0	5
NMTAP	4	48	4
NMTAP	4	96	3
NMTAP	4	96	6
NMTAP	4	144	5
NMTAP	4	168	4
NMTAP	4	192	5
NMTAP	4	240	6
NMTAP	4	288	4
NMTAP	4	288	6
NMTAP	4	336	4
NMHLD	5	0	7	96
NMSTR	5	96	4
BRSCL	5	96	4	96	48	2
NMTAP	5	144	4
NMSTR	5	192	6
BRSCL	5	192	6	96	48	4
NMTAP	5	240	6
NMTAP	5	288	1
NMTAP	6	0	2
NMTAP	6	48	3
NMTAP	6	96	1
NMTAP	6	96	4
NMTAP	6	144	2
NMTAP	6	168	3
NMSTR	6	192	2
NMSI_	6	192	2	96	48	4
NMTAP	6	240	5
NMTAP	6	288	5
NMTAP	6	336	6
NMTAP	7	0	5
NMTAP	7	48	4
NMTAP	7	96	3
NMTAP	7	96	6
NMTAP	7	144	5
NMTAP	7	168	4
NMSTR	7	192	5
NMSI_	7	192	5	96	48	3
NMTAP	7	240	2
NMTAP	7	288	2
NMTAP	7	336	1
NMTAP	8	0	2
NMTAP	8	48	3
NMTAP	8	96	1
NMTAP	8	96	4
NMTAP	8	144	2
NMTAP	8	168	3
NMTAP	8	192	1
NMTAP	8	240	0
NMTAP	8	288	1
NMTAP	8	288	3
NMTAP	8	336	2
NMTAP	9	0	3
NMSTR	9	0	4
BRSV_	9	0	4	96	48	1
BRSV_	9	0	4	96	48	7
NMSTR	9	192	2
BRSI_	9	192	2	96	48	6
NMSTR	9	192	5
BRSI_	9	192	5	96	48	3
BXTAP	10	0	0
BXTAP	10	0	4
NMTAP	10	48	0
NMTAP	10	48	4
NMTAP	10	96	1
NMTAP	10	96	3
NMTAP	10	144	1
NMTAP	10	168	3
NMTAP	10	192	2
NMTAP	10	240	2
NMSTR	10	288	1
NMSI_	10	288	1	96	48	4
NMTAP	10	288	3
NMTAP	10	336	4
NMTAP	11	0	5
NMTAP	11	48	5
NMTAP	11	96	3
NMTAP	11	96	6
NMTAP	11	144	5
NMTAP	11	168	4
NMTAP	11	192	6
NMTAP	11	240	6
NMTAP	11	288	3
NMSTR	11	288	5
NMSI_	11	288	5	96	48	2
NMTAP	11	336	2
NMTAP	12	0	1
NMTAP	12	48	1
NMTAP	12	96	1
NMTAP	12	96	4
NMTAP	12	144	2
NMTAP	12	168	3
NMTAP	12	192	1
NMTAP	12	240	1
NMTAP	12	288	2
NMTAP	12	288	3
NMTAP	12	336	2
NMSTR	13	0	1
NMSI_	13	0	1	96	96	3
NMHLD	13	0	3	288
CNSV_	13	192	3	0	48	4
CNSI_	13	240	4	0	48	6
NMTAP	14	0	7
NMTAP	14	48	7
NMTAP	14	96	0
NMTAP	14	96	6
NMTAP	14	144	5
NMTAP	14	168	4
NMTAP	14	192	5
NMTAP	14	240	3
NMTAP	14	240	4
NMHLD	14	288	2	48
NMTAP	14	336	3
NMTAP	15	0	1
NMTAP	15	0	4
NMTAP	15	48	0
NMTAP	15	96	1
NMTAP	15	96	3
NMTAP	15	144	2
NMTAP	15	168	3
NMTAP	15	192	2
NMTAP	15	240	3
NMTAP	15	240	4
NMHLD	15	288	5	48
NMTAP	15	336	4
NMTAP	16	0	3
NMTAP	16	0	6
NMTAP	16	48	7
NMTAP	16	96	4
NMTAP	16	96	6
NMTAP	16	144	5
NMTAP	16	192	3
NMTAP	16	192	4
NMTAP	16	240	2
NMTAP	16	264	3
NMTAP	16	288	1
NMTAP	16	336	0
NMTAP	17	0	1
NMTAP	17	0	7
NMTTP	17	48	1	E	0	M1
NMTTP	17	96	7	E	0	M1
NMTTP	17	144	2	E	0	M1
NMTTP	17	192	6	E	0	M1
NMTTP	17	240	3	E	0	M1
NMTTP	17	288	5	E	0	M1
NMTTP	17	336	4	E	0	M1
BRSTR	18	0	7
NMSCL	18	0	7	96	192	2
NMTAP	18	96	2
NMTAP	18	144	2
NMTAP	18	192	1
NMTAP	18	240	1
NMSTR	18	288	0
NMSI_	18	288	0	96	48	5
BXSTR	19	0	6
NMSI_	19	0	6	96	48	3
BXSTR	19	96	1
NMSI_	19	96	1	96	48	4
BXSTR	19	192	7
NMSI_	19	192	7	96	48	2
BRTAP	19	288	1
BRSTR	20	0	0
NMSCR	20	0	0	96	192	5
NMTAP	20	96	5
NMTAP	20	144	5
NMTAP	20	192	6
NMTAP	20	240	6
NMSTR	20	288	7
NMSI_	20	288	7	96	48	4
BXSTR	21	0	3
NMSI_	21	0	3	96	48	0
BXSTR	21	96	6
NMSI_	21	96	6	96	48	1
BXSTR	21	192	2
NMSI_	21	192	2	96	48	5
BRTAP	21	288	0
NMTAP	22	0	3
NMSTR	22	0	6
NMSXL	22	0	6	96	192	2
NMTAP	22	96	3
NMTAP	22	192	3
NMSTR	22	288	3
NMSI_	22	288	3	96	48	0
NMTAP	23	0	4
NMSTR	23	96	1
NMSXL	23	96	1	96	96	1
NMSTR	23	96	5
NMSXL	23	96	5	96	96	5
EXTAP	23	192	1
EXTAP	23	192	5
NMSTR	24	0	0
BRSXL	24	0	0	96	192	3
NMSTR	24	0	4
BRSXL	24	0	4	96	192	7
NMHLD	25	0	4	48
NMHLD	25	0	5	48
NMHLD	25	72	4	48
NMHLD	25	72	5	48
NMTAP	25	144	4
NMTAP	25	144	5
NMTAP	25	192	4
NMTAP	25	192	5
NMTAP	25	240	6
NMTAP	25	288	4
NMTAP	25	288	5
NMTAP	25	336	3
NMHLD	26	0	4	48
NMHLD	26	0	5	48
NMHLD	26	72	4	48
NMHLD	26	72	5	48
NMTAP	26	144	4
NMTAP	26	144	5
NMTAP	26	192	4
NMTAP	26	192	5
NMTAP	26	240	6
BXTAP	26	288	3
BXTAP	26	288	7
NMHLD	27	0	6	192
NMTAP	27	96	4
NMTAP	27	144	3
NMHLD	27	192	2	192
NMTAP	27	288	3
NMTAP	27	336	4
NMTAP	28	0	5
NMTAP	28	96	3
NMTAP	28	96	4
NMTAP	28	192	0
NMTAP	28	192	7
NMSTR	28	288	0
NMSCR	28	288	0	96	96	4
BRSTR	29	0	4
NMSCR	29	0	4	96	96	0
NMSTR	29	96	0
NMSCR	29	96	0	96	96	4
NMSTR	29	192	4
NMSCR	29	192	4	96	96	0
NMSTR	29	288	0
NMSCR	29	288	0	96	96	4
NMTAP	30	0	4
NMTAP	30	96	0
EXTAP	30	192	2
EXTAP	30	192	6
NMSTR	30	288	7
NMSCL	30	288	7	96	96	3
NMSTR	31	0	3
NMSCL	31	0	3	96	96	7
NMSTR	31	96	7
NMSCL	31	96	7	96	96	3
NMSTR	31	192	3
NMSCL	31	192	3	96	96	7
NMSTR	31	288	7
NMSCL	31	288	7	96	96	3
NMSTR	32	0	3
NMSCL	32	0	3	96	96	7
NMTAP	32	96	7
NMTAP	32	192	3
NMTAP	32	288	1
NMTAP	32	288	5
NMTAP	33	0	6
NMSTR	33	48	6
NMSCL	33	48	6	96	48	3
NMTAP	33	144	2
NMSTR	33	192	0
NMSLR	33	192	0	96	96	4
NMTAP	33	288	5
NMTAP	33	336	6
NMSTR	34	0	7
NMSI_	34	0	7	96	48	1
NMTAP	34	48	3
NMSTR	34	96	7
NMSI_	34	96	7	96	48	5
NMTAP	34	144	4
NMSTR	34	192	7
NMSI_	34	192	7	96	48	3
NMTAP	34	240	1
NMTAP	34	288	7
NMTAP	34	336	2
NMHLD	35	0	2	96
NMTAP	35	96	0
NMHLD	35	144	0	48
NMHLD	35	192	7	96
NMTAP	35	288	5
NMSTR	36	0	3
NMSI_	36	0	3	96	48	0
NMSTR	36	0	4
NMSI_	36	0	4	96	48	7
NMTAP	36	96	3
NMTAP	36	96	4
NMTAP	36	192	1
NMTAP	36	192	6
NMSTR	36	288	1
NMSCR	36	288	1	96	96	5
BRSTR	37	0	5
NMSCR	37	0	5	96	96	1
NMSTR	37	96	1
NMSUR	37	96	1	96	96	5
NMSTR	37	192	5
NMSUR	37	192	5	96	96	1
NMSTR	37	288	1
NMSCR	37	288	1	96	96	5
NMTAP	38	0	5
NMTAP	38	96	1
NMTAP	38	192	3
NMTAP	38	192	7
NMSTR	38	288	6
NMSCL	38	288	6	96	96	2
NMSTR	39	0	2
NMSCL	39	0	2	96	96	6
NMSTR	39	96	6
NMSUL	39	96	6	96	96	2
NMSTR	39	192	2
NMSUL	39	192	2	96	96	6
NMSTR	39	288	6
NMSCL	39	288	6	96	96	2
NMSTR	40	0	2
NMSCL	40	0	2	96	96	6
NMTAP	40	96	6
NMTAP	40	192	2
NMTAP	40	288	0
NMTAP	40	288	4
NMTAP	41	0	2
NMSTR	41	48	1
NMSI_	41	48	1	96	48	4
NMTAP	41	48	3
NMTAP	41	144	5
NMSTR	41	192	6
NMSI_	41	192	6	96	48	3
NMTAP	41	288	0
NMTAP	41	336	1
NMTAP	42	0	2
NMSTR	42	96	2
NMSV_	42	96	2	96	48	7
NMSTR	42	96	4
NMSV_	42	96	4	96	48	7
NMTAP	42	144	3
NMTAP	42	192	2
NMTAP	42	192	4
NMTAP	42	288	0
NMTAP	42	288	6
NMTAP	42	336	5
NMTAP	43	0	3
NMTAP	43	0	4
NMTAP	43	48	2
NMTAP	43	96	0
NMTAP	43	96	1
NMTAP	43	144	0
NMTAP	43	144	7
NMTAP	43	192	6
NMTAP	43	192	7
NMTAP	43	240	5
NMSTR	43	288	3
BRSSL	43	288	3	96	96	7
NMSTR	43	288	4
BRSSR	43	288	4	96	96	0
NMTAP	44	192	1
NMTAP	44	192	6
NMSTR	44	288	2
NMSI_	44	288	2	96	96	5
NMSTR	45	0	5
NMSUL	45	0	5	96	192	2
NMSTR	46	0	3
NMSXL	46	0	3	96	192	3
NMSXR	46	0	3	96	192	3
NMSTR	47	0	5
NMSUR	47	0	5	96	192	3
NMHLD	47	96	4	192
NMTAP	48	0	6
NMTAP	48	24	4
NMTAP	48	48	6
NMTAP	48	72	4
NMTAP	48	96	6
NMTAP	48	144	1
NMTAP	48	168	3
NMTAP	48	192	1
NMTAP	48	216	3
NMTAP	48	240	1
NMTAP	48	288	6
NMTAP	48	312	4
NMTAP	48	336	6
NMTAP	48	360	4
NMHLD	49	0	6	336
NMTTP	49	48	4	E	0	M1
NMTTP	49	96	5	E	0	M1
NMTTP	49	144	6	E	0	M1
NMTTP	49	192	7	E	0	M1
NMTTP	49	240	0	E	0	M1
NMTTP	49	288	1	E	0	M1
NMTTP	49	336	2	E	0	M1
BXTAP	50	0	5
NMTAP	50	48	5
NMSTR	50	96	4
NMSSL	50	96	4	96	96	0
NMTAP	50	96	6
NMSTR	51	0	2
NMSI_	51	0	2	96	72	0
NMHLD	51	96	7	192
CNSV_	51	168	0	0	72	7
CNSI_	51	240	7	0	48	5
NMTAP	52	0	6
NMTAP	52	24	4
NMTAP	52	48	6
NMTAP	52	72	4
NMTAP	52	96	6
NMTAP	52	144	1
NMTAP	52	168	3
NMTAP	52	192	1
NMTAP	52	216	3
NMTAP	52	240	1
NMTAP	52	288	6
NMTAP	52	312	4
NMTAP	52	336	6
NMTAP	52	360	4
NMSTR	53	0	6
NMSCR	53	0	6	96	96	1
NMSTR	53	96	1
NMSCL	53	96	1	96	96	6
NMSTR	53	192	2
BRSI_	53	192	2	96	48	4
EXTAP	54	0	4
EXTAP	54	0	6
NMTAP	54	48	5
EXTAP	54	96	1
EXSTR	54	96	3
NMSCL	54	96	3	96	96	7
NMSCR	54	96	3	96	96	7
NMTAP	54	144	2
EXTAP	54	192	3
BXSTR	55	0	0
BRSCL	55	0	0	96	48	5
BRSCR	55	0	0	96	48	3
BXTAP	55	96	0
BXSTR	55	192	0
NMSF_	55	192	0	96	48	4
BXTAP	55	288	0
NMSTR	56	0	6
NMSI_	56	0	6	96	48	1
NMSTR	56	48	2
NMSI_	56	48	2	96	48	5
NMTAP	56	96	6
NMTAP	56	144	2
NMSTR	56	192	7
NMSI_	56	192	7	96	48	3
NMSTR	56	240	0
NMSI_	56	240	0	96	48	4
NMTAP	56	288	7
NMTAP	56	336	0
BXSTR	57	0	5
NMSI_	57	0	5	96	48	0
BXSTR	57	96	3
NMSLL	57	96	3	96	96	7
BXSTR	57	192	7
NMSLL	57	192	7	96	96	3
BXTAP	57	288	3
EXTAP	58	0	7
NMSTR	58	96	1
NMSCR	58	96	1	96	96	6
NMSTR	58	96	4
NMSSL	58	96	4	96	96	0
NMTTP	59	0	5	E	0	M1
NMTTP	59	0	6	E	0	M1
NMTTP	59	0	7	E	0	M1
NMTTP	59	96	1	B	0	M1
NMTTP	59	96	1	E	0	M1
NMTTP	59	96	2	B	0	M1
NMTTP	59	96	3	E	0	M1
NMTAP	59	192	6
NMTAP	59	240	5
NMTAP	59	288	3
NMTAP	59	288	4
NMTAP	59	336	2
NMSTR	60	0	1
NMSXL	60	0	1	96	96	0
NMSTR	60	0	5
NMSXL	60	0	5	96	96	4
NMTAP	60	288	1
NMTAP	60	288	5
NMHLD	61	0	2	48
NMHLD	61	0	3	48
NMHLD	61	72	2	48
NMHLD	61	72	3	48
NMTAP	61	144	2
NMTAP	61	144	3
NMTAP	61	192	2
NMTAP	61	192	3
NMTAP	61	240	1
NMTAP	61	288	2
NMTAP	61	288	3
NMTAP	61	336	4
NMHLD	62	0	2	48
NMHLD	62	0	3	48
NMHLD	62	72	2	48
NMHLD	62	72	3	48
NMTAP	62	144	2
NMTAP	62	144	3
NMTAP	62	192	2
NMTAP	62	192	3
NMTAP	62	240	1
BXTAP	62	288	0
BXTAP	62	288	4
NMHLD	63	0	7	192
NMTAP	63	96	6
NMTAP	63	144	6
NMHLD	63	192	6	192
NMTAP	63	288	5
NMTAP	63	336	5
NMHLD	64	0	5	96
NMTAP	64	96	4
NMTAP	64	192	1
NMTAP	64	192	5
NMSTR	64	288	0
NMSCR	64	288	0	96	96	4
BRSTR	65	0	4
NMSCR	65	0	4	96	96	0
NMSTR	65	96	0
NMSCR	65	96	0	96	192	0
NMTTP	65	192	0	C	1	M1
BRSTR	65	288	0
NMSCR	65	288	0	96	96	4
NMTTP	66	0	0	C	1	M1
NMTAP	66	96	0
NMTAP	66	192	2
NMTAP	66	192	6
NMSTR	66	288	7
NMSCL	66	288	7	96	96	3
NMSTR	67	0	3
NMSCL	67	0	3	96	96	7
NMSTR	67	96	7
NMSCL	67	96	7	96	192	7
NMTTP	67	192	0	C	1	M1
NMSTR	67	288	7
NMSCL	67	288	7	96	192	7
NMTTP	68	0	0	C	1	M1
NMTAP	68	96	7
NMTTP	68	192	0	C	0	M1
EXTAP	68	288	1
EXTAP	68	288	5
NMTAP	69	0	6
NMTAP	69	0	7
NMTAP	69	48	5
NMTAP	69	96	3
NMTAP	69	96	4
NMTAP	69	144	1
NMTAP	69	192	0
NMSTR	69	192	2
NMSCL	69	192	2	96	48	7
NMTAP	69	288	6
NMTAP	69	336	5
NMHLD	70	0	4	96
NMTAP	70	96	7
NMTTP	70	144	5	E	1	M1
NMTTP	70	144	5	A	0	M1
NMTTP	70	144	5	D	0	M1
NMTTP	70	192	1	E	0	M1
NMTTP	70	192	1	A	1	M1
NMTTP	70	192	1	D	0	M1
NMTAP	70	288	7
NMTAP	70	336	7
NMTAP	71	0	0
NMTAP	71	0	6
NMTAP	71	48	1
NMTAP	71	72	3
NMTAP	71	96	2
NMTAP	71	144	4
NMTAP	71	144	5
NMTAP	71	192	3
NMSTR	71	192	7
NMSCL	71	192	7	96	48	4
NMTAP	71	288	2
NMSTR	71	288	7
NMSCR	71	288	7	96	48	2
NMTAP	72	0	5
NMSTR	72	0	7
NMSI_	72	0	7	96	48	3
NMTAP	72	96	7
NMTAP	72	192	1
NMTAP	72	192	5
NMSTR	72	288	0
NMSI_	72	288	0	96	48	2
NMSI_	72	288	0	96	48	6
NMSTR	73	0	0
NMSV_	73	0	0	96	48	3
NMSV_	73	0	0	96	48	5
NMTAP	73	96	0
NMSTR	73	192	2
NMSV_	73	192	2	96	48	1
NMSTR	73	192	6
NMSV_	73	192	6	96	48	7
NMTAP	73	288	2
NMTAP	73	288	6
NMTTP	73	312	0	C	1	M1
EXSTR	74	0	2
NMSV_	74	0	2	96	48	3
EXSTR	74	0	6
NMSV_	74	0	6	96	48	5
NMTAP	74	96	2
NMTAP	74	96	6
NMTTP	74	120	0	C	1	M1
EXSTR	74	192	2
NMSCL	74	192	2	96	48	7
EXSTR	74	192	6
NMSCL	74	192	6	96	48	3
NMTAP	74	288	2
NMTAP	74	288	6
EXSTR	75	0	0
NMSCR	75	0	0	96	48	3
EXSTR	75	0	4
NMSCR	75	0	4	96	48	7
EXTAP	75	96	0
EXTAP	75	96	4
EXSTR	75	192	0
NMSI_	75	192	0	96	48	5
EXSTR	75	192	4
NMSI_	75	192	4	96	48	1
EXTAP	75	288	0
EXTAP	75	288	4
NMSTR	76	0	2
NMSI_	76	0	2	96	48	7
NMSTR	76	0	6
NMSI_	76	0	6	96	48	3
NMSTR	76	96	2
NMSCR	76	96	2	96	48	5
NMSTR	76	96	6
NMSCR	76	96	6	96	48	1
NMTAP	76	192	2
NMTAP	76	192	6
NMTAP	76	288	2
NMTAP	76	288	6
NMTAP	77	0	1
NMTAP	77	48	0
NMSTR	77	48	2
NMSI_	77	48	2	96	48	5
NMTAP	77	144	7
NMSTR	77	192	6
NMSI_	77	192	6	96	48	1
NMTAP	77	288	4
NMTAP	77	336	3
NMHLD	78	0	2	144
NMTAP	78	96	1
NMTAP	78	144	1
NMSTR	78	192	0
NMSCL	78	192	0	96	48	5
NMTAP	78	288	0
NMTAP	78	288	4
NMTAP	78	336	3
NMTAP	79	0	2
NMTAP	79	0	4
NMTAP	79	48	1
NMTAP	79	72	3
NMTAP	79	96	2
NMTAP	79	144	6
NMTAP	79	168	4
NMSTR	79	192	5
NMSI_	79	192	5	96	48	0
NMSTR	79	288	3
NMSI_	79	288	3	96	48	6
NMTAP	79	288	5
NMSTR	80	0	1
NMSI_	80	0	1	96	48	4
NMSI_	80	0	1	96	48	5
NMTAP	80	0	3
NMTAP	80	96	1
NMTAP	80	192	3
NMTAP	80	192	6
NMSTR	80	288	0
NMSCR	80	288	0	96	48	3
NMSTR	80	288	4
NMSCR	80	288	4	96	48	7
BXSTR	81	0	0
NMSUL	81	0	0	96	48	4
BXSTR	81	0	4
NMSUL	81	0	4	96	48	0
EXSTR	81	96	0
NMSCR	81	96	0	96	48	3
EXSTR	81	96	4
NMSCR	81	96	4	96	48	7
EXSTR	81	192	0
NMSUL	81	192	0	96	48	4
EXSTR	81	192	4
NMSUL	81	192	4	96	48	0
EXSTR	81	288	0
NMSCR	81	288	0	96	48	3
EXSTR	81	288	4
NMSCR	81	288	4	96	48	7
EXSTR	82	0	0
NMSUL	82	0	0	96	48	4
EXSTR	82	0	4
NMSUL	82	0	4	96	48	0
EXTAP	82	96	0
EXTAP	82	96	4
BRTAP	82	192	2
BRTAP	82	192	6
NMSTR	82	288	3
NMSCL	82	288	3	96	48	0
NMSTR	82	288	7
NMSCL	82	288	7	96	48	4
EXSTR	83	0	3
NMSUR	83	0	3	96	48	7
EXSTR	83	0	7
NMSUR	83	0	7	96	48	3
EXTAP	83	96	3
EXTAP	83	96	7
EXTAP	83	192	1
EXTAP	83	192	5
NMHLD	83	288	2	96
NMTAP	83	288	6
NMTTP	84	0	0	E	0	M1
NMTTP	84	12	1	E	0	M1
NMTTP	84	24	2	E	0	M1
NMTTP	84	36	3	E	0	M1
NMTTP	84	48	4	E	0	M1
NMTTP	84	60	5	E	0	M1
NMTTP	84	72	6	E	0	M1
NMTTP	84	84	7	E	0	M1
NMTTP	84	96	0	E	0	M1
NMTTP	84	108	1	E	0	M1
NMTTP	84	120	2	E	0	M1
NMTTP	84	132	3	E	0	M1
NMTTP	84	144	4	E	0	M1
NMTTP	84	156	5	E	0	M1
NMTTP	84	168	6	E	0	M1
NMTTP	84	180	7	E	0	M1
NMTTP	84	192	0	C	1	M1
NMTTP	84	192	0	E	0	M1
NMTAP	84	288	1
NMTAP	84	288	6
NMTAP	85	0	0
NMTAP	85	0	7
NMTAP	85	48	1
NMTAP	85	72	3
NMTAP	85	96	2
NMTAP	85	144	4
NMTAP	85	144	5
NMSTR	85	192	6
NMSI_	85	192	6	96	48	3
NMTAP	85	240	6
NMSTR	85	288	2
NMSI_	85	288	2	96	48	7
NMTAP	85	336	2
NMSTR	86	0	5
NMSXL	86	0	5	96	144	0
NMTAP	86	96	0
NMTAP	86	144	1
NMTAP	86	192	2
NMTAP	86	240	3
NMTAP	86	288	4
NMTAP	86	336	4
NMTAP	87	0	3
NMTAP	87	0	7
NMTAP	87	48	1
NMTAP	87	72	0
NMTAP	87	96	2
NMTAP	87	144	6
NMTAP	87	168	4
NMTAP	87	192	5
NMTAP	87	216	3
NMTAP	87	240	4
NMTAP	87	264	2
NMSTR	87	288	3
NMSI_	87	288	3	96	48	7
NMSTR	88	0	1
NMSI_	88	0	1	96	48	5
NMTAP	88	0	3
NMTAP	88	96	0
NMTAP	88	96	1
NMTAP	88	192	2
NMTAP	88	192	6
NMSTR	88	288	1
NMSI_	88	288	1	96	48	3
NMSTR	88	288	7
NMSI_	88	288	7	96	48	3
NMSTR	89	0	1
NMSI_	89	0	1	96	48	5
NMSTR	89	0	7
NMSI_	89	0	7	96	48	5
NMSTR	89	96	1
NMSCR	89	96	1	96	48	3
NMSTR	89	96	7
NMSUR	89	96	7	96	48	3
NMSTR	89	192	1
NMSUL	89	192	1	96	48	5
NMSTR	89	192	7
NMSCL	89	192	7	96	48	5
NMSTR	89	288	1
NMSI_	89	288	1	96	48	3
NMSTR	89	288	7
NMSI_	89	288	7	96	48	3
NMSTR	90	0	1
NMSI_	90	0	1	96	48	5
NMSTR	90	0	7
NMSI_	90	0	7	96	48	5
NMTAP	90	96	1
NMTAP	90	96	7
NMTAP	90	192	1
NMTAP	90	192	7
NMSTR	90	288	0
NMSI_	90	288	0	96	48	4
NMSTR	90	288	6
NMSI_	90	288	6	96	48	4
NMSTR	91	0	0
NMSI_	91	0	0	96	48	2
NMSTR	91	0	6
NMSI_	91	0	6	96	48	2
NMSTR	91	96	0
NMSUL	91	96	0	96	48	4
NMSTR	91	96	6
NMSCL	91	96	6	96	48	4
NMSTR	91	192	0
NMSCR	91	192	0	96	48	2
NMSTR	91	192	6
NMSUR	91	192	6	96	48	2
NMSTR	91	288	0
NMSI_	91	288	0	96	48	4
NMSTR	91	288	6
NMSI_	91	288	6	96	48	4
NMSTR	92	0	0
NMSI_	92	0	0	96	48	2
NMSTR	92	0	6
NMSI_	92	0	6	96	48	2
NMSTR	92	96	0
NMSUL	92	96	0	96	48	4
NMSTR	92	96	6
NMSCL	92	96	6	96	48	4
NMTAP	92	192	0
NMTAP	92	192	6
NMTAP	92	288	1
NMTAP	92	288	7
NMSTR	93	0	0
NMSI_	93	0	0	96	48	6
NMTAP	93	48	0
NMSTR	93	96	5
NMSI_	93	96	5	96	48	1
NMTAP	93	144	5
NMSTR	93	192	2
NMSI_	93	192	2	96	48	4
NMTAP	93	240	2
NMSTR	93	288	6
NMSCR	93	288	6	96	96	5
NMTAP	93	336	6
BRTAP	94	0	0
NMTAP	94	144	3
NMSTR	94	192	2
NMSV_	94	192	2	96	48	7
NMSTR	94	192	4
NMSV_	94	192	4	96	48	7
NMTAP	94	288	2
NMTAP	94	288	4
NMTAP	95	0	0
NMTAP	95	0	6
NMTAP	95	48	1
NMTAP	95	72	3
NMTAP	95	96	2
NMTAP	95	144	4
NMTAP	95	144	5
NMSTR	95	192	3
NMSI_	95	192	3	96	48	0
NMTAP	95	192	6
NMTAP	95	288	3
NMSTR	95	288	4
NMSI_	95	288	4	96	48	7
NMTAP	96	0	4
NMSTR	96	0	5
NMSCR	96	0	5	96	96	2
BXTAP	96	96	5
NMHLD	96	192	4	96
NMTAP	96	288	3
NMTAP	97	0	2
NMTAP	97	0	3
NMTAP	97	48	1
NMTAP	97	72	0
NMTAP	97	96	2
NMTAP	97	144	5
NMTAP	97	168	4
NMTAP	97	192	6
NMTAP	97	240	1
NMTAP	97	264	3
NMTAP	97	288	2
NMTAP	97	336	3
NMHLD	97	336	4	96
EXTAP	98	0	5
EXTAP	98	16	6
EXTAP	98	32	7
EXTAP	98	48	0
EXTAP	98	64	1
EXTAP	98	80	2
EXSTR	98	96	3
BRSV_	98	96	3	96	48	0
EXSTR	98	96	5
BRSV_	98	96	5	96	48	0
BRTAP	98	192	3
BRTAP	98	192	5
NMTAP	98	288	1
NMTAP	98	288	7
EXTAP	99	0	6
NMTAP	99	24	0
NMTAP	99	48	5
NMTAP	99	72	1
EXTAP	99	96	4
NMTAP	99	120	2
EXTAP	99	144	7
NMTAP	99	168	1
EXTAP	99	192	6
NMTAP	99	216	2
NMTAP	99	240	5
NMTAP	99	264	3
EXSTR	99	288	3
NMSI_	99	288	3	96	48	1
EXSTR	99	288	4
NMSI_	99	288	4	96	48	0
EXSTR	100	0	3
BRSI_	100	0	3	96	48	7
BXSTR	100	0	4
NMSI_	100	0	4	96	48	6
NMTTP	100	24	0	C	1	M1
BXSTR	100	96	3
BRSI_	100	96	3	96	48	1
EXSTR	100	96	4
BRSI_	100	96	4	96	48	0
NMTTP	100	120	0	C	1	M1
BRTAP	100	192	3
BRTAP	100	192	4
NMTTP	100	216	0	C	1	M1

T_REC_TAP	426
T_REC_BRK	9
T_REC_XTP	31
T_REC_BXX	11
T_REC_HLD	36
T_REC_XHO	2
T_REC_BHO	0
T_REC_BXH	0
T_REC_STR	136
T_REC_BST	6
T_REC_XST	25
T_REC_XBS	15
T_REC_TTP	55
T_REC_THO	0
T_REC_SLD	171
T_REC_BSL	18
T_REC_ALL	941
T_NUM_TAP	673
T_NUM_BRK	59
T_NUM_HLD	38
T_NUM_SLD	171
T_NUM_ALL	941
T_JUDGE_TAP	714
T_JUDGE_HLD	87
T_JUDGE_SLD	189
T_JUDGE_ALL	990
TTM_EACHPAIRS	166
TTM_SCR_TAP	336500
TTM_SCR_BRK	153400
TTM_SCR_HLD	38000
TTM_SCR_SLD	256500
TTM_SCR_ALL	784400
TTM_SCR_S	755150
TTM_SCR_SS	778500
TTM_RAT_ACV	10075

