VERSION	0.00.00	1.05.00
FES_MODE	0
BPM_DEF	170.000	170.000	170.000	170.000
MET_DEF	4	4
RESOLUTION	384
CLK_DEF	384
COMPATIBLE_CODE	MA2

BPM	0	0	170.000
MET	0	0	4	4

NMTAP	2	0	3
NMTAP	2	0	4
NMTAP	2	96	5
NMTAP	2	144	5
NMTAP	2	192	4
NMTAP	2	192	6
NMTAP	2	288	3
NMTAP	2	336	3
NMTAP	3	0	2
NMTAP	3	0	4
NMTAP	3	96	7
NMTAP	3	144	7
NMTAP	3	192	4
NMTAP	3	192	6
NMTAP	3	288	1
NMTAP	3	336	1
NMTAP	4	0	2
NMTAP	4	0	4
NMTAP	4	96	5
NMTAP	4	144	5
NMTAP	4	192	4
NMTAP	4	192	6
NMTAP	4	288	3
NMTAP	4	336	3
NMTAP	5	0	2
NMTAP	5	0	4
NMSTR	5	96	1
NMSCR	5	96	1	96	96	4
NMSTR	5	96	5
NMSCR	5	96	5	96	96	0
NMTAP	6	0	3
NMTAP	6	0	4
NMTAP	6	96	2
NMTAP	6	144	2
NMTAP	6	192	1
NMTAP	6	192	3
NMTAP	6	288	4
NMTAP	6	336	4
NMTAP	7	0	3
NMTAP	7	0	5
NMTAP	7	96	0
NMTAP	7	144	0
NMTAP	7	192	1
NMTAP	7	192	3
NMTAP	7	288	6
NMTAP	7	336	6
NMTAP	8	0	3
NMTAP	8	0	5
NMTAP	8	96	2
NMTAP	8	144	2
NMTAP	8	192	1
NMTAP	8	192	3
NMTAP	8	288	4
NMTAP	8	336	4
NMTAP	9	0	3
NMTAP	9	0	5
NMSTR	9	96	2
NMSI_	9	96	2	96	96	5
NMSTR	9	96	6
NMSI_	9	96	6	96	96	1
NMTAP	10	0	0
NMTAP	10	0	7
NMTAP	10	96	1
NMTAP	10	144	1
NMTAP	10	192	0
NMTAP	10	192	2
NMTAP	10	288	7
NMTAP	10	336	7
NMTAP	11	0	0
NMTAP	11	0	6
NMTAP	11	96	3
NMTAP	11	144	3
NMTAP	11	192	0
NMTAP	11	192	2
NMTAP	11	288	5
NMTAP	11	336	5
NMTAP	12	0	0
NMTAP	12	0	6
NMTAP	12	96	1
NMTAP	12	144	1
NMTAP	12	192	0
NMTAP	12	192	2
NMTAP	12	288	7
NMTAP	12	336	7
NMTAP	13	0	0
NMSTR	13	0	6
NMSI_	13	0	6	96	48	4
CNSV_	13	144	4	0	96	3
CNSI_	13	240	3	0	48	1
NMTAP	14	0	0
NMTAP	14	0	7
NMTAP	14	96	6
NMTAP	14	144	6
NMTAP	14	192	5
NMTAP	14	192	7
NMTAP	14	288	0
NMTAP	14	336	0
NMTAP	15	0	1
NMTAP	15	0	7
NMTAP	15	96	4
NMTAP	15	144	4
NMTAP	15	192	5
NMTAP	15	192	7
NMTAP	15	288	2
NMTAP	15	336	2
NMTAP	16	0	1
NMTAP	16	0	7
NMTAP	16	96	6
NMTAP	16	144	6
NMTAP	16	192	5
NMTAP	16	192	7
NMTAP	16	288	0
NMTAP	16	336	0
NMTAP	17	0	1
NMTAP	17	0	7
NMTAP	17	48	1
NMTAP	17	48	7
NMTAP	17	96	1
NMTAP	17	96	7
NMTAP	17	192	4
NMTAP	17	192	6
NMTAP	17	288	1
NMTAP	17	288	3
NMSTR	18	0	2
NMSCL	18	0	2	96	192	5
NMTAP	18	0	4
NMTAP	18	96	4
NMTAP	18	192	4
NMTAP	18	288	4
NMTAP	19	0	4
BRTAP	19	0	7
NMTAP	19	96	4
BRTAP	19	96	5
BRTAP	19	192	0
NMTAP	19	192	4
BRTAP	19	288	2
NMTAP	19	288	4
NMTAP	20	0	3
NMSTR	20	0	5
NMSCR	20	0	5	96	192	2
NMTAP	20	96	3
NMTAP	20	192	3
NMTAP	20	288	3
BRTAP	21	0	0
NMTAP	21	0	3
BRTAP	21	96	2
NMTAP	21	96	3
NMTAP	21	192	3
BRTAP	21	192	7
NMSTR	21	288	3
NMSCL	21	288	3	96	48	0
BRSTR	21	288	5
NMSCR	21	288	5	96	48	0
EXTAP	22	144	1
EXTAP	22	144	7
EXTAP	22	192	1
EXTAP	22	192	7
NMTAP	22	288	3
NMTAP	22	288	5
NMSTR	23	0	6
NMSCR	23	0	6	96	96	1
NMTAP	23	96	4
NMSTR	23	192	2
NMSCR	23	192	2	96	96	5
NMTAP	23	288	0
NMHLD	24	0	6	144
NMTAP	24	144	4
NMTAP	24	192	4
NMTAP	24	288	1
NMHLD	25	0	0	72
NMHLD	25	72	2	72
NMTAP	25	144	3
NMTAP	25	192	3
NMTAP	25	288	4
NMTAP	25	288	5
NMHLD	26	0	7	72
NMHLD	26	72	5	72
NMTAP	26	144	4
NMTAP	26	192	4
BRTAP	26	288	2
BRTAP	26	288	3
NMHLD	27	0	1	96
NMHLD	27	0	2	96
NMHLD	27	192	5	96
NMHLD	27	192	6	96
EXTAP	28	0	1
EXTAP	28	0	2
EXTAP	28	96	5
EXTAP	28	96	6
EXTAP	28	192	1
EXTAP	28	192	2
NMSTR	29	0	0
NMSI_	29	0	0	96	48	4
NMSTR	29	0	1
NMSI_	29	0	1	96	48	3
EXTAP	29	96	0
EXTAP	29	96	1
NMTAP	29	192	5
NMTAP	29	240	5
NMTAP	29	288	4
NMSTR	30	0	6
NMSI_	30	0	6	96	48	4
NMSTR	30	0	7
NMSI_	30	0	7	96	48	3
EXTAP	30	96	6
EXTAP	30	96	7
NMTAP	30	192	2
NMTAP	30	240	2
NMTAP	30	288	3
NMSTR	31	0	0
NMSI_	31	0	0	96	48	4
NMSTR	31	0	1
NMSI_	31	0	1	96	48	3
EXTAP	31	96	0
EXTAP	31	96	1
NMTAP	31	192	5
NMTAP	31	288	6
NMTAP	31	288	7
NMTAP	32	0	0
NMTAP	32	0	1
NMSTR	32	96	2
NMSCL	32	96	2	96	96	7
NMSTR	32	96	3
NMSCR	32	96	3	96	96	6
NMSTR	33	0	6
NMSI_	33	0	6	96	48	4
NMSTR	33	0	7
NMSI_	33	0	7	96	48	3
EXTAP	33	96	6
EXTAP	33	96	7
NMTAP	33	192	2
NMTAP	33	240	2
NMTAP	33	288	3
NMSTR	34	0	0
NMSI_	34	0	0	96	48	4
NMSTR	34	0	1
NMSI_	34	0	1	96	48	3
EXTAP	34	96	0
EXTAP	34	96	1
NMTAP	34	192	5
NMTAP	34	240	5
NMTAP	34	288	4
NMSTR	35	0	6
NMSI_	35	0	6	96	48	4
NMSTR	35	0	7
NMSI_	35	0	7	96	48	3
EXTAP	35	96	6
EXTAP	35	96	7
NMTAP	35	192	2
NMTAP	35	288	0
NMTAP	35	288	1
NMTAP	36	0	6
NMTAP	36	0	7
NMSTR	36	96	4
NMSI_	36	96	4	96	96	0
NMSTR	36	96	5
NMSI_	36	96	5	96	96	1
NMSTR	37	0	7
NMSCL	37	0	7	96	96	3
NMSTR	37	96	3
NMSCL	37	96	3	96	96	7
NMSTR	37	192	7
NMSCL	37	192	7	96	96	3
NMTAP	37	288	3
NMTAP	38	0	7
NMTAP	38	96	3
NMTAP	38	192	1
NMTAP	38	192	5
NMTAP	38	288	1
NMTAP	38	288	5
NMSTR	39	0	0
NMSCR	39	0	0	96	96	4
NMSTR	39	96	4
NMSCR	39	96	4	96	96	0
NMSTR	39	192	0
NMSCR	39	192	0	96	96	4
NMTAP	39	288	4
NMTAP	40	0	0
NMTAP	40	96	4
NMTAP	40	192	2
NMTAP	40	192	6
NMTAP	40	288	2
NMTAP	40	288	6
NMSTR	41	0	7
NMSLL	41	0	7	96	96	3
NMSTR	41	96	3
NMSLL	41	96	3	96	96	7
NMSTR	41	192	7
NMSLL	41	192	7	96	96	3
NMTAP	41	288	3
NMTAP	42	0	7
NMTAP	42	96	3
NMTAP	42	192	1
NMTAP	42	192	5
NMTAP	42	288	1
NMTAP	42	288	5
NMSTR	43	0	0
NMSLR	43	0	0	96	96	4
NMSTR	43	96	4
NMSLR	43	96	4	96	96	0
NMSTR	43	192	0
NMSLR	43	192	0	96	96	4
NMTAP	43	288	4
NMTAP	44	0	0
NMTAP	44	96	4
BRTAP	44	192	2
BRTAP	44	192	6
NMTHO	45	0	0	192	C	0	M1
NMTTP	45	0	3	B	0	M1
NMTTP	45	0	4	B	0	M1
EXTAP	46	0	0
EXTAP	46	0	7
NMSTR	46	96	1
NMSI_	46	96	1	96	48	4
NMTAP	46	192	5
NMTAP	46	288	5
NMTAP	47	0	6
NMSTR	47	96	7
NMSI_	47	96	7	96	48	3
NMTAP	47	192	1
NMTAP	47	288	1
NMTAP	48	0	2
NMTAP	48	24	3
NMTAP	48	48	2
NMTAP	48	72	3
NMTAP	48	96	2
NMTAP	48	144	5
NMTAP	48	168	4
NMTAP	48	192	5
NMTAP	48	216	4
NMTAP	48	240	5
NMTAP	48	288	2
NMTAP	48	312	3
NMTAP	48	336	2
NMTAP	48	360	3
NMTAP	49	0	2
NMTAP	49	48	1
NMTAP	49	96	1
NMTTP	49	192	1	A	0	M1
NMTTP	49	192	2	B	0	M1
NMTTP	49	192	2	E	0	M1
NMTTP	49	192	3	B	0	M1
NMTTP	49	288	4	B	0	M1
NMTTP	49	288	5	B	0	M1
NMTTP	49	288	6	E	0	M1
NMTTP	49	288	6	A	0	M1
EXTAP	50	0	1
EXTAP	50	0	7
NMSTR	50	96	6
NMSI_	50	96	6	96	48	3
NMTAP	50	192	2
NMTAP	50	288	2
NMTAP	51	0	1
NMSTR	51	96	0
NMSI_	51	96	0	96	48	4
NMTAP	51	192	6
NMTAP	51	288	6
NMTAP	52	0	5
NMTAP	52	24	4
NMTAP	52	48	5
NMTAP	52	72	4
NMTAP	52	96	5
NMTAP	52	144	2
NMTAP	52	168	3
NMTAP	52	192	2
NMTAP	52	216	3
NMTAP	52	240	2
NMTAP	52	288	5
NMTAP	52	312	4
NMTAP	52	336	5
NMTAP	52	360	4
NMTAP	53	0	5
NMSTR	53	96	6
NMSCL	53	96	6	96	96	3
NMSTR	53	96	7
NMSUL	53	96	7	96	96	2
NMHLD	54	0	1	96
NMHLD	54	96	3	96
NMHLD	54	192	4	96
NMSTR	54	288	6
NMSI_	54	288	6	96	48	4
NMSTR	55	0	0
NMSI_	55	0	0	96	48	2
NMSTR	55	96	7
NMSI_	55	96	7	96	48	3
NMSTR	55	192	0
NMSI_	55	192	0	96	48	4
NMTAP	55	288	5
NMHLD	56	0	6	96
NMHLD	56	96	4	96
NMHLD	56	192	3	96
NMSTR	56	288	1
NMSI_	56	288	1	96	48	3
NMSTR	57	0	7
NMSI_	57	0	7	96	48	5
NMSTR	57	96	0
NMSI_	57	96	0	96	48	4
NMSTR	57	192	7
NMSI_	57	192	7	96	48	3
NMSTR	57	288	2
NMSCL	57	288	2	96	48	7
NMTAP	58	0	4
EXTAP	58	144	0
EXTAP	58	144	6
EXTAP	58	192	0
EXTAP	58	192	6
NMTAP	58	288	2
NMTAP	58	288	4
NMSTR	59	0	1
NMSCL	59	0	1	96	96	6
NMTAP	59	96	3
NMTAP	59	192	4
NMSTR	59	288	5
NMSXL	59	288	5	96	192	3
NMTAP	60	0	3
NMTAP	60	144	1
NMTAP	60	192	1
NMTAP	60	288	0
NMHLD	61	0	0	72
NMHLD	61	72	2	72
NMTAP	61	144	3
NMTAP	61	192	3
NMTAP	61	288	4
NMTAP	61	288	5
NMHLD	62	0	7	72
NMHLD	62	72	5	72
NMTAP	62	144	4
NMTAP	62	192	4
BRTAP	62	288	2
BRTAP	62	288	3
NMSTR	63	0	1
BRSSR	63	0	1	96	144	5
BXTAP	64	0	5
BXTAP	64	0	6
BXTAP	64	96	1
BXTAP	64	96	2
BXTAP	64	192	5
BXTAP	64	192	6
NMSTR	65	0	0
NMSI_	65	0	0	96	48	4
NMSTR	65	0	1
NMSI_	65	0	1	96	48	3
EXTAP	65	96	0
EXTAP	65	96	1
NMSTR	65	192	6
NMSI_	65	192	6	96	48	4
NMSTR	65	192	7
NMSI_	65	192	7	96	48	3
EXTAP	65	288	6
EXTAP	65	288	7
NMSTR	66	0	0
NMSI_	66	0	0	96	48	4
NMSTR	66	0	1
NMSI_	66	0	1	96	48	3
EXTAP	66	96	0
EXTAP	66	96	1
NMSTR	66	192	6
NMSI_	66	192	6	96	48	4
NMSTR	66	192	7
NMSI_	66	192	7	96	48	3
EXTAP	66	288	6
EXTAP	66	288	7
NMSTR	67	0	0
NMSI_	67	0	0	96	48	4
NMSTR	67	0	7
NMSI_	67	0	7	96	48	5
EXTAP	67	96	0
EXTAP	67	96	7
NMSTR	67	192	0
NMSI_	67	192	0	96	48	2
NMSTR	67	192	7
NMSI_	67	192	7	96	48	3
EXTAP	67	288	0
EXTAP	67	288	7
NMTAP	68	0	0
NMTAP	68	0	7
NMTAP	68	96	3
NMTAP	68	96	5
NMTAP	68	192	2
NMTAP	68	192	6
NMTAP	68	288	4
NMTAP	68	288	5
NMSTR	69	0	6
NMSI_	69	0	6	96	48	4
NMSTR	69	0	7
NMSI_	69	0	7	96	48	3
EXTAP	69	96	6
EXTAP	69	96	7
NMSTR	69	192	0
NMSI_	69	192	0	96	48	4
NMSTR	69	192	1
NMSI_	69	192	1	96	48	3
EXTAP	69	288	0
EXTAP	69	288	1
NMSTR	70	0	6
NMSI_	70	0	6	96	48	4
NMSTR	70	0	7
NMSI_	70	0	7	96	48	3
EXTAP	70	96	6
EXTAP	70	96	7
NMSTR	70	192	0
NMSI_	70	192	0	96	48	4
NMSTR	70	192	1
NMSI_	70	192	1	96	48	3
EXTAP	70	288	0
EXTAP	70	288	1
NMSTR	71	0	0
NMSI_	71	0	0	96	48	2
NMSTR	71	0	7
NMSI_	71	0	7	96	48	3
EXTAP	71	96	0
EXTAP	71	96	7
NMSTR	71	192	0
NMSI_	71	192	0	96	48	4
NMSTR	71	192	7
NMSI_	71	192	7	96	48	5
EXTAP	71	288	0
EXTAP	71	288	7
NMTAP	72	0	0
NMTAP	72	0	7
NMTAP	72	96	2
NMTAP	72	96	4
NMTAP	72	192	1
NMTAP	72	192	5
NMTAP	72	288	2
NMTAP	72	288	3
NMSTR	73	0	0
NMSCR	73	0	0	96	96	4
NMSTR	73	96	4
NMSCR	73	96	4	96	96	0
NMSTR	73	192	0
NMSCR	73	192	0	96	96	4
NMSTR	73	288	4
NMSCR	73	288	4	96	96	0
NMTAP	74	0	0
NMTAP	74	96	4
NMTAP	74	192	2
NMTAP	74	192	6
NMTAP	74	288	2
NMTAP	74	288	6
NMSTR	75	0	7
NMSCL	75	0	7	96	96	3
NMSTR	75	96	3
NMSCL	75	96	3	96	96	7
NMSTR	75	192	7
NMSCL	75	192	7	96	96	3
NMSTR	75	288	3
NMSCL	75	288	3	96	96	7
NMTAP	76	0	7
NMTAP	76	96	3
NMTAP	76	192	1
NMTAP	76	192	5
NMTAP	76	288	1
NMTAP	76	288	5
NMSTR	77	0	0
NMSLR	77	0	0	96	96	4
NMSTR	77	96	4
NMSLR	77	96	4	96	96	0
NMSTR	77	192	0
NMSLR	77	192	0	96	96	4
NMSTR	77	288	4
NMSLR	77	288	4	96	96	0
NMTAP	78	0	0
NMTAP	78	96	4
NMTAP	78	192	2
NMTAP	78	192	6
NMTAP	78	288	2
NMTAP	78	288	6
NMSTR	79	0	7
NMSLL	79	0	7	96	96	3
NMSTR	79	96	3
NMSLL	79	96	3	96	96	7
NMSTR	79	192	7
NMSLL	79	192	7	96	96	3
NMSTR	79	288	3
NMSLL	79	288	3	96	96	7
NMTAP	80	0	7
NMTAP	80	96	3
NMTAP	80	192	1
NMTAP	80	192	5
NMSTR	81	0	0
NMSI_	81	0	0	96	48	4
NMSTR	81	0	1
NMSI_	81	0	1	96	48	3
EXTAP	81	96	0
EXTAP	81	96	1
NMSTR	81	192	6
NMSI_	81	192	6	96	48	4
NMSTR	81	192	7
NMSI_	81	192	7	96	48	3
EXTAP	81	288	6
EXTAP	81	288	7
NMSTR	82	0	0
NMSCR	82	0	0	96	96	4
NMSTR	82	96	4
NMSCR	82	96	4	96	96	0
NMTAP	82	192	0
NMTAP	82	288	4
NMSTR	83	0	0
NMSI_	83	0	0	96	48	4
NMSTR	83	0	1
NMSI_	83	0	1	96	48	3
EXTAP	83	96	0
EXTAP	83	96	1
NMSTR	83	192	7
NMSCL	83	192	7	96	96	3
NMSTR	83	288	3
NMSCL	83	288	3	96	96	7
NMTAP	84	0	7
NMTAP	84	96	3
NMTAP	84	192	1
NMTAP	84	192	5
NMTAP	84	288	1
NMTAP	84	288	5
NMSTR	85	0	6
NMSI_	85	0	6	96	48	4
NMSTR	85	0	7
NMSI_	85	0	7	96	48	3
EXTAP	85	96	6
EXTAP	85	96	7
NMSTR	85	192	0
NMSI_	85	192	0	96	48	4
NMSTR	85	192	1
NMSI_	85	192	1	96	48	3
EXTAP	85	288	0
EXTAP	85	288	1
NMSTR	86	0	7
NMSCL	86	0	7	96	96	3
NMSTR	86	96	3
NMSCL	86	96	3	96	96	7
NMTAP	86	192	7
NMTAP	86	288	3
NMSTR	87	0	6
NMSI_	87	0	6	96	48	4
NMSTR	87	0	7
NMSI_	87	0	7	96	48	3
EXTAP	87	96	6
EXTAP	87	96	7
NMSTR	87	192	0
NMSCR	87	192	0	96	96	4
NMSTR	87	288	4
NMSCR	87	288	4	96	96	0
NMTAP	88	0	0
NMTAP	88	96	4
NMTAP	88	192	2
NMTAP	88	192	6
NMTAP	88	288	2
NMTAP	88	288	6
NMSTR	89	0	0
NMSI_	89	0	0	96	48	4
NMSTR	89	0	1
NMSI_	89	0	1	96	48	4
EXTAP	89	96	0
EXTAP	89	96	1
NMSTR	89	192	6
NMSI_	89	192	6	96	48	3
NMSTR	89	192	7
NMSI_	89	192	7	96	48	3
EXTAP	89	288	6
EXTAP	89	288	7
NMSTR	90	0	4
NMSLR	90	0	4	96	96	0
NMSTR	90	96	0
NMSLR	90	96	0	96	96	4
NMTAP	90	192	4
NMTAP	90	288	0
NMSTR	91	0	0
NMSI_	91	0	0	96	48	4
NMSTR	91	0	1
NMSI_	91	0	1	96	48	4
EXTAP	91	96	0
EXTAP	91	96	1
NMSTR	91	192	3
NMSLL	91	192	3	96	96	7
NMSTR	91	288	7
NMSLL	91	288	7	96	96	3
NMTAP	92	0	3
NMTAP	92	96	7
NMTAP	92	192	1
NMTAP	92	192	5
NMTAP	92	288	1
NMTAP	92	288	5
NMSTR	93	0	6
NMSI_	93	0	6	96	48	3
NMSTR	93	0	7
NMSI_	93	0	7	96	48	3
EXTAP	93	96	6
EXTAP	93	96	7
NMSTR	93	192	0
NMSI_	93	192	0	96	48	4
NMSTR	93	192	1
NMSI_	93	192	1	96	48	4
EXTAP	93	288	0
EXTAP	93	288	1
NMSTR	94	0	3
NMSLL	94	0	3	96	96	7
NMSTR	94	96	7
NMSLL	94	96	7	96	96	3
NMTAP	94	192	3
NMTAP	94	288	7
NMSTR	95	0	6
NMSI_	95	0	6	96	48	3
NMSTR	95	0	7
NMSI_	95	0	7	96	48	3
EXTAP	95	96	6
EXTAP	95	96	7
NMSTR	95	192	4
NMSLR	95	192	4	96	96	0
NMSTR	95	288	0
NMSLR	95	288	0	96	96	4
NMTAP	96	0	4
NMTAP	96	96	0
NMTAP	96	192	2
NMTAP	96	192	6
NMTAP	97	0	1
NMTAP	97	48	1
NMTAP	97	96	3
NMTAP	97	144	2
NMSTR	97	192	7
NMSCL	97	192	7	96	48	4
NMTAP	97	288	2
NMTAP	97	336	1
NMSTR	98	0	0
NMSCR	98	0	0	96	48	3
NMTAP	98	96	5
NMTAP	98	144	6
NMSTR	98	192	7
NMSCL	98	192	7	96	48	4
NMTAP	98	288	2
NMTAP	98	336	1
NMSTR	99	0	0
NMSI_	99	0	0	96	48	4
NMSTR	99	96	6
NMSI_	99	96	6	96	48	2
NMSTR	99	192	1
NMSI_	99	192	1	96	48	4
NMTAP	100	0	2
NMTAP	100	0	5
NMTAP	100	96	0
NMTAP	100	96	7
NMTTP	100	192	0	C	1	M1
NMTTP	100	192	1	B	0	M1
NMTTP	100	192	6	B	0	M1

T_REC_TAP	325
T_REC_BRK	13
T_REC_XTP	78
T_REC_BXX	6
T_REC_HLD	19
T_REC_XHO	0
T_REC_BHO	0
T_REC_BXH	0
T_REC_STR	142
T_REC_BST	1
T_REC_XST	0
T_REC_XBS	0
T_REC_TTP	13
T_REC_THO	1
T_REC_SLD	142
T_REC_BSL	1
T_REC_ALL	741
T_NUM_TAP	558
T_NUM_BRK	21
T_NUM_HLD	20
T_NUM_SLD	142
T_NUM_ALL	741
T_JUDGE_TAP	578
T_JUDGE_HLD	43
T_JUDGE_SLD	143
T_JUDGE_ALL	764
TTM_EACHPAIRS	162
TTM_SCR_TAP	279000
TTM_SCR_BRK	54600
TTM_SCR_HLD	20000
TTM_SCR_SLD	213000
TTM_SCR_ALL	566600
TTM_SCR_S	547600
TTM_SCR_SS	564500
TTM_RAT_ACV	10037

