VERSION	0.00.00	1.05.00
FES_MODE	0
BPM_DEF	170.000	170.000	170.000	170.000
MET_DEF	4	4
RESOLUTION	384
CLK_DEF	384
COMPATIBLE_CODE	MA2

BPM	0	0	170.000
MET	0	0	4	4

NMTAP	2	0	3
NMTAP	2	96	2
NMTAP	2	96	4
NMTAP	2	192	1
NMTAP	2	240	1
NMTAP	2	288	3
NMTAP	3	0	4
NMTAP	3	96	3
NMTAP	3	96	5
NMTAP	3	192	6
NMTAP	3	240	6
NMTAP	3	288	4
NMTAP	4	0	3
NMTAP	4	96	2
NMTAP	4	96	4
NMTAP	4	192	1
NMTAP	4	240	1
NMTAP	4	288	3
NMHLD	5	0	2	96
NMHLD	5	96	3	96
NMHLD	5	192	4	96
NMHLD	5	288	5	96
NMTAP	6	0	4
NMTAP	6	96	3
NMTAP	6	96	5
NMTAP	6	192	6
NMTAP	6	240	6
NMTAP	6	288	4
NMTAP	7	0	3
NMTAP	7	96	2
NMTAP	7	96	4
NMTAP	7	192	1
NMTAP	7	240	1
NMTAP	7	288	3
NMTAP	8	0	4
NMTAP	8	96	3
NMTAP	8	96	5
NMTAP	8	192	6
NMTAP	8	240	6
NMSTR	8	288	4
NMSSR	8	288	4	96	288	0
BXTAP	10	0	1
BXTAP	10	0	7
NMTAP	10	96	0
NMTAP	10	96	6
NMTAP	10	192	5
NMTAP	10	240	5
NMTAP	10	288	7
NMTAP	11	0	0
NMTAP	11	0	6
NMTAP	11	96	1
NMTAP	11	96	7
NMTAP	11	192	2
NMTAP	11	240	2
NMTAP	11	288	0
NMTAP	12	0	1
NMTAP	12	0	7
NMTAP	12	96	0
NMTAP	12	96	6
NMTAP	12	192	5
NMTAP	12	240	5
NMTAP	12	288	7
NMHLD	13	0	6	96
NMHLD	13	96	7	96
NMHLD	13	192	0	96
NMHLD	13	288	1	96
NMTAP	14	0	0
NMTAP	14	96	1
NMTAP	14	96	7
NMTAP	14	192	2
NMTAP	14	240	2
NMTAP	14	288	0
NMTAP	15	0	1
NMTAP	15	0	7
NMTAP	15	96	0
NMTAP	15	96	6
NMTAP	15	192	5
NMTAP	15	240	5
NMTAP	15	288	7
NMHLD	16	0	0	192
NMTAP	16	96	1
NMHLD	16	192	7	192
NMTAP	16	288	6
NMSTR	17	0	0
NMSF_	17	0	0	96	96	4
BXTAP	18	0	3
BXSTR	18	0	5
NMSI_	18	0	5	96	96	0
NMSTR	18	192	1
NMSI_	18	192	1	96	96	4
BXTAP	19	0	5
BXTAP	19	96	6
BXTAP	19	96	7
BXTAP	19	192	0
BXTAP	19	192	1
BXTAP	19	288	2
BXTAP	19	288	3
BXSTR	20	0	1
NMSI_	20	0	1	96	96	6
BXTAP	20	0	4
NMSTR	20	192	5
NMSI_	20	192	5	96	96	2
BXTAP	21	0	1
BXTAP	21	96	0
BXTAP	21	96	7
BXTAP	21	192	4
BXTAP	21	192	6
BXTAP	21	288	2
BXSTR	21	288	4
NMSLR	21	288	4	96	192	0
NMSTR	22	288	0
NMSCR	22	288	0	96	192	6
NMTAP	22	288	1
NMSTR	23	288	7
NMSLL	23	288	7	96	192	3
NMSLR	23	288	7	96	192	3
NMHLD	25	0	1	72
NMHLD	25	72	3	72
NMTAP	25	144	2
NMTAP	25	192	2
NMTAP	25	288	1
NMTAP	25	288	4
NMHLD	26	0	6	72
NMHLD	26	72	4	72
NMTAP	26	144	5
NMTAP	26	192	5
NMTAP	26	288	3
NMTAP	26	288	6
NMTTP	27	0	3	E	0	M1
NMTTP	27	96	0	B	0	M1
NMTTP	27	96	1	B	0	M1
NMTTP	27	192	5	E	0	M1
NMTTP	27	288	6	B	0	M1
NMTTP	27	288	7	B	0	M1
NMTTP	28	0	2	B	0	M1
NMTTP	28	0	2	E	0	M1
NMTTP	28	96	5	B	0	M1
NMTTP	28	96	6	E	0	M1
NMTTP	28	192	4	E	0	M1
BRTAP	29	0	0
BRTAP	29	0	1
NMTAP	29	96	3
NMTAP	29	96	5
NMTAP	29	192	6
NMTAP	29	192	7
NMTAP	29	288	2
NMTAP	29	288	4
NMTAP	30	0	1
NMTAP	30	0	7
NMTAP	30	96	4
NMTAP	30	96	5
NMTAP	30	192	0
NMTAP	30	192	6
NMTAP	30	288	2
NMTAP	30	288	3
NMTAP	31	0	0
NMTAP	31	0	1
NMTAP	31	96	6
NMTAP	31	96	7
NMTAP	31	192	4
NMTAP	31	192	5
NMTAP	31	288	2
NMTAP	31	288	3
NMTAP	32	0	0
NMTAP	32	0	1
NMTAP	32	96	6
NMTAP	32	96	7
NMTAP	32	192	0
NMTAP	32	192	5
NMSTR	33	0	1
NMSCR	33	0	1	96	96	4
NMSTR	33	0	4
NMSCR	33	0	4	96	96	7
EXTAP	33	288	4
EXTAP	33	288	7
NMSTR	34	0	3
NMSCL	34	0	3	96	96	0
NMSTR	34	0	6
NMSCL	34	0	6	96	96	3
EXTAP	34	288	1
EXTAP	34	288	4
NMHLD	35	0	6	96
NMHLD	35	96	4	96
NMHLD	35	192	2	96
NMHLD	35	288	0	96
NMHLD	36	0	6	96
NMTAP	36	96	7
BRTAP	36	192	0
BRTAP	36	192	5
BRTAP	37	0	6
BRTAP	37	0	7
NMTAP	37	96	2
NMTAP	37	96	4
NMTAP	37	192	0
NMTAP	37	192	1
NMTAP	37	288	3
NMTAP	37	288	5
NMTAP	38	0	0
NMTAP	38	0	6
NMTAP	38	96	2
NMTAP	38	96	3
NMTAP	38	192	1
NMTAP	38	192	7
NMTAP	38	288	4
NMTAP	38	288	5
NMTAP	39	0	6
NMTAP	39	0	7
NMTAP	39	96	0
NMTAP	39	96	1
NMTAP	39	192	2
NMTAP	39	192	3
NMTAP	39	288	4
NMTAP	39	288	5
NMTAP	40	0	6
NMTAP	40	0	7
NMTAP	40	96	0
NMTAP	40	96	1
NMTAP	40	192	2
NMTAP	40	192	7
NMSTR	40	288	3
NMSCL	40	288	3	96	96	0
NMSTR	40	288	6
NMSCL	40	288	6	96	96	3
EXTAP	41	192	0
EXTAP	41	192	3
NMSTR	41	288	1
NMSCR	41	288	1	96	96	4
NMSTR	41	288	4
NMSCR	41	288	4	96	96	7
EXTAP	42	192	3
EXTAP	42	192	6
NMHLD	42	288	1	96
NMTAP	42	288	4
NMHLD	43	0	3	96
NMHLD	43	96	5	96
NMHLD	43	192	7	96
NMTAP	43	288	0
NMTAP	44	0	2
NMTAP	44	0	3
NMTAP	44	96	4
NMTAP	44	96	5
BRSTR	44	192	0
NMSXL	44	192	0	96	288	3
BRSTR	44	192	7
NMSXR	44	192	7	96	288	4
EXHLD	46	0	2	384
NMTAP	46	192	3
NMTAP	46	240	3
NMTAP	46	288	3
NMHLD	47	0	1	288
NMTAP	47	192	0
NMTAP	47	240	0
NMTAP	47	288	0
EXHLD	48	0	7	144
EXHLD	48	144	0	144
EXTAP	48	288	1
EXSTR	49	0	0
NMSV_	49	0	0	96	120	2
EXTAP	49	0	1
CNSI_	49	216	2	0	72	4
BXTAP	50	0	3
BXHLD	50	0	5	384
NMTAP	50	192	6
NMTAP	50	240	6
NMTAP	50	288	6
NMHLD	51	0	4	288
NMTAP	51	192	3
NMTAP	51	240	3
NMTAP	51	288	3
EXHLD	52	0	5	144
EXHLD	52	144	6	144
EXTAP	52	288	7
NMTAP	53	0	0
NMHLD	53	0	5	192
EXTAP	53	96	7
EXTAP	53	192	0
BXTAP	54	0	3
BXSTR	54	0	6
NMSV_	54	0	6	96	96	1
NMSTR	54	192	2
NMSCR	54	192	2	96	96	5
BXTAP	55	0	6
BXTAP	55	96	4
BXTAP	55	96	7
BXTAP	55	192	1
BXTAP	55	192	2
BXTAP	55	288	2
BXTAP	55	288	3
BXSTR	56	0	3
NMSUL	56	0	3	96	96	7
BXTAP	56	0	4
NMSTR	56	192	5
NMSCL	56	192	5	96	96	2
BXTAP	57	0	1
BXTAP	57	96	0
BXTAP	57	96	3
BXTAP	57	192	5
BXTAP	57	192	6
BXTAP	57	288	4
BXSTR	57	288	5
NMSCR	57	288	5	96	192	2
EXSTR	58	288	3
NMSCL	58	288	3	96	192	6
EXSTR	59	288	4
NMSLL	59	288	4	96	192	0
NMSLR	59	288	4	96	192	0
NMHLD	61	0	1	72
NMHLD	61	72	3	72
NMTAP	61	144	2
NMTAP	61	192	2
NMTAP	61	288	1
NMTAP	61	288	4
NMHLD	62	0	6	72
NMHLD	62	72	4	72
NMTAP	62	144	5
NMTAP	62	192	5
NMTAP	62	288	3
NMTAP	62	288	6
NMTTP	63	0	3	E	0	M1
NMTTP	63	96	0	B	0	M1
NMTTP	63	96	1	B	0	M1
NMTTP	63	96	1	E	0	M1
NMTTP	63	192	5	E	0	M1
NMTTP	63	288	6	B	0	M1
NMTTP	63	288	7	B	0	M1
NMTTP	63	288	7	E	0	M1
NMTTP	64	0	2	B	0	M1
NMTTP	64	0	2	E	0	M1
NMTTP	64	0	3	E	0	M1
NMTTP	64	96	5	B	0	M1
NMTTP	64	96	5	E	0	M1
NMTTP	64	96	6	E	0	M1
NMTTP	64	192	4	E	0	M1
BRTAP	65	0	1
BRTAP	65	0	7
NMTAP	65	96	4
NMTAP	65	96	5
NMTAP	65	192	0
NMTAP	65	192	6
NMTAP	65	288	2
NMTAP	65	288	3
NMTAP	66	0	0
NMTAP	66	0	1
NMTAP	66	96	4
NMTAP	66	96	5
NMTAP	66	192	6
NMTAP	66	192	7
NMTAP	66	288	2
NMTAP	66	288	3
NMTAP	67	0	0
NMTAP	67	0	1
NMTAP	67	96	6
NMTAP	67	96	7
NMTAP	67	192	4
NMTAP	67	192	5
NMTAP	67	288	2
NMTAP	67	288	3
NMTAP	68	0	0
NMTAP	68	0	1
NMSTR	68	96	0
NMSI_	68	96	0	96	96	4
NMSTR	68	96	1
NMSI_	68	96	1	96	96	5
NMHLD	69	0	7	96
NMHLD	69	96	5	96
NMHLD	69	192	3	96
NMHLD	69	288	1	96
NMHLD	70	0	7	96
NMHLD	70	96	1	96
NMHLD	70	192	3	96
NMTAP	70	288	5
NMTAP	71	0	2
NMTAP	71	0	6
NMTAP	71	96	1
NMTAP	71	144	1
NMTAP	71	192	0
NMTAP	71	288	2
NMTAP	71	288	7
NMTAP	72	0	0
NMTAP	72	0	5
NMTAP	72	96	3
NMTAP	72	96	4
BRTAP	72	192	2
BRTAP	72	192	6
BRTAP	73	0	0
BRTAP	73	0	6
NMTAP	73	96	2
NMTAP	73	96	3
NMTAP	73	192	1
NMTAP	73	192	7
NMTAP	73	288	4
NMTAP	73	288	5
NMTAP	74	0	6
NMTAP	74	0	7
NMTAP	74	96	2
NMTAP	74	96	3
NMTAP	74	192	0
NMTAP	74	192	1
NMTAP	74	288	4
NMTAP	74	288	5
NMTAP	75	0	6
NMTAP	75	0	7
NMTAP	75	96	0
NMTAP	75	96	1
NMTAP	75	192	2
NMTAP	75	192	3
NMTAP	75	288	4
NMTAP	75	288	5
NMTAP	76	0	6
NMTAP	76	0	7
NMSTR	76	96	4
NMSI_	76	96	4	96	96	0
NMSTR	76	96	5
NMSI_	76	96	5	96	96	1
NMHLD	77	0	7	96
NMHLD	77	96	1	96
NMHLD	77	192	3	96
NMHLD	77	288	5	96
NMHLD	78	0	7	96
NMHLD	78	96	5	96
NMHLD	78	192	3	96
NMTAP	78	288	1
NMTAP	79	0	0
NMTAP	79	0	4
NMTAP	79	96	1
NMTAP	79	144	1
NMTAP	79	192	3
NMTAP	79	288	4
NMTAP	79	288	5
NMTAP	80	0	6
NMTAP	80	0	7
NMTAP	80	96	0
NMTAP	80	96	1
BRTAP	80	192	2
BRTAP	80	192	7
NMSTR	81	0	0
NMSI_	81	0	0	96	48	2
NMSTR	81	0	7
NMSI_	81	0	7	96	48	3
NMSTR	81	192	0
NMSI_	81	192	0	96	48	4
NMSTR	81	192	7
NMSI_	81	192	7	96	48	5
NMSTR	82	0	0
NMSI_	82	0	0	96	48	2
NMSTR	82	0	7
NMSI_	82	0	7	96	48	3
NMSTR	82	192	0
NMSI_	82	192	0	96	48	4
NMSTR	82	192	7
NMSI_	82	192	7	96	48	5
NMTAP	83	0	0
NMTAP	83	0	7
NMTAP	83	96	1
NMTAP	83	96	2
NMTAP	83	192	3
NMTAP	83	192	4
NMTAP	83	288	5
NMTAP	83	288	6
NMTAP	84	0	0
NMTAP	84	0	7
NMSTR	84	96	1
NMSI_	84	96	1	96	96	5
NMSTR	84	96	2
NMSI_	84	96	2	96	96	6
NMHLD	85	0	7	96
NMHLD	85	96	5	96
NMHLD	85	192	3	96
NMHLD	85	288	5	96
NMHLD	86	0	7	96
NMHLD	86	96	1	96
NMHLD	86	192	3	96
NMHLD	86	288	1	96
NMTAP	87	0	0
NMTAP	87	96	2
NMTAP	87	144	2
NMTAP	87	192	1
NMTAP	87	192	3
NMTAP	87	288	4
NMTAP	87	288	5
NMSTR	88	0	1
BRSI_	88	0	1	96	96	5
NMSTR	88	0	7
BRSI_	88	0	7	96	96	3
BRSTR	89	0	0
NMSI_	89	0	0	96	48	4
BRSTR	89	0	1
NMSI_	89	0	1	96	48	5
NMSTR	89	192	6
NMSI_	89	192	6	96	48	2
NMSTR	89	192	7
NMSI_	89	192	7	96	48	3
NMSTR	90	0	0
NMSI_	90	0	0	96	48	4
NMSTR	90	0	1
NMSI_	90	0	1	96	48	5
NMSTR	90	192	6
NMSI_	90	192	6	96	48	2
NMSTR	90	192	7
NMSI_	90	192	7	96	48	3
NMTAP	91	0	0
NMTAP	91	0	1
NMTAP	91	96	2
NMTAP	91	96	3
NMTAP	91	192	4
NMTAP	91	192	6
NMTAP	91	288	0
NMTAP	91	288	7
NMTAP	92	0	1
NMTAP	92	0	2
NMSTR	92	96	3
NMSUR	92	96	3	96	96	0
NMSTR	92	96	4
NMSCR	92	96	4	96	96	7
NMHLD	93	0	1	96
NMHLD	93	96	3	96
NMHLD	93	192	5	96
NMHLD	93	288	3	96
NMHLD	94	0	1	96
NMHLD	94	96	7	96
NMHLD	94	192	5	96
NMHLD	94	288	7	96
NMTAP	95	0	0
NMTAP	95	96	2
NMTAP	95	144	2
NMTAP	95	192	1
NMTAP	95	192	3
NMTAP	95	288	0
NMTAP	95	288	7
NMTAP	96	0	4
NMTAP	96	0	6
NMSTR	96	96	3
NMSV_	96	96	3	96	96	1
NMSV_	96	96	3	96	96	5
NMTAP	96	96	4
BRTAP	97	0	0
BRTAP	97	0	6
NMTAP	97	96	2
NMTAP	97	144	2
NMTAP	97	192	1
NMTAP	97	192	3
NMTAP	97	288	0
NMTAP	97	288	7
NMTAP	98	0	4
NMTAP	98	0	6
NMSTR	98	96	2
NMSV_	98	96	2	96	96	7
NMSTR	98	96	4
NMSV_	98	96	4	96	96	7
NMTAP	99	0	0
NMTAP	99	48	0
NMTAP	99	96	6
NMTAP	99	144	6
NMTAP	99	192	1
NMTAP	99	192	7
NMTAP	99	288	3
NMTAP	99	288	5
BRSTR	100	0	6
NMSI_	100	0	6	96	48	2
BRSTR	100	96	0
NMSI_	100	96	0	96	48	3
NMSI_	100	96	0	96	48	5

T_REC_TAP	287
T_REC_BRK	16
T_REC_XTP	13
T_REC_BXX	33
T_REC_HLD	60
T_REC_XHO	5
T_REC_BHO	0
T_REC_BXH	1
T_REC_STR	43
T_REC_BST	6
T_REC_XST	3
T_REC_XBS	6
T_REC_TTP	26
T_REC_THO	0
T_REC_SLD	60
T_REC_BSL	2
T_REC_ALL	561
T_NUM_TAP	372
T_NUM_BRK	64
T_NUM_HLD	65
T_NUM_SLD	60
T_NUM_ALL	561
T_JUDGE_TAP	433
T_JUDGE_HLD	162
T_JUDGE_SLD	62
T_JUDGE_ALL	657
TTM_EACHPAIRS	154
TTM_SCR_TAP	186000
TTM_SCR_BRK	166400
TTM_SCR_HLD	65000
TTM_SCR_SLD	90000
TTM_SCR_ALL	507400
TTM_SCR_S	486000
TTM_SCR_SS	501000
TTM_RAT_ACV	10127

