VERSION	0.00.00	1.05.00
FES_MODE	0
BPM_DEF	170.000	170.000	170.000	170.000
MET_DEF	4	4
RESOLUTION	384
CLK_DEF	384
COMPATIBLE_CODE	MA2

BPM	0	0	170.000
MET	0	0	4	4

NMTAP	2	0	6
NMTAP	2	96	6
NMTAP	2	192	6
NMTAP	3	0	5
NMTAP	3	96	5
NMTAP	3	192	5
NMTAP	4	0	4
NMTAP	4	96	4
NMTAP	4	192	4
NMTAP	5	0	2
NMTAP	5	0	3
NMTAP	5	192	2
NMTAP	5	192	3
NMTAP	6	0	1
NMTAP	6	96	1
NMTAP	6	192	1
NMTAP	7	0	2
NMTAP	7	96	2
NMTAP	7	192	2
NMTAP	8	0	3
NMTAP	8	96	3
NMTAP	8	192	3
NMTAP	9	0	4
NMTAP	9	0	5
NMTAP	9	192	4
NMTAP	9	192	5
NMTAP	10	0	5
NMTAP	10	96	5
NMTAP	10	192	4
NMTAP	10	192	5
NMTAP	11	0	6
NMTAP	11	96	6
NMTAP	11	192	6
NMTAP	11	192	7
NMTAP	12	0	0
NMTAP	12	96	0
NMTAP	12	192	0
NMTAP	12	192	1
NMTAP	13	0	2
NMTAP	13	0	3
NMTAP	13	96	2
NMTAP	13	96	3
NMTAP	13	192	2
NMTAP	13	192	3
NMTAP	14	0	2
NMTAP	14	96	2
NMTAP	14	192	2
NMTAP	14	192	3
NMTAP	15	0	1
NMTAP	15	96	1
NMTAP	15	192	0
NMTAP	15	192	1
NMTAP	16	0	7
NMTAP	16	96	7
NMTAP	16	192	6
NMTAP	16	192	7
NMTAP	17	0	4
NMTAP	17	0	5
NMTAP	17	96	4
NMTAP	17	96	5
NMTAP	17	192	4
NMTAP	17	192	5
NMSTR	18	0	5
NMSI_	18	0	5	96	192	2
NMSTR	19	0	1
NMSI_	19	0	1	96	192	5
NMSTR	20	0	7
NMSI_	20	0	7	96	192	3
NMSTR	21	0	1
NMSI_	21	0	1	96	192	4
NMSTR	22	0	6
NMSI_	22	0	6	96	192	3
NMSTR	23	0	2
NMSI_	23	0	2	96	192	5
NMSTR	24	0	6
NMSI_	24	0	6	96	192	3
NMTTP	25	0	1	B	0	L1
NMTTP	25	96	2	B	0	L1
NMTTP	25	192	3	B	0	L1
NMTTP	26	0	6	B	0	L1
NMTTP	26	96	5	B	0	L1
NMTTP	26	192	4	B	0	L1
NMTTP	27	0	1	B	0	L1
NMTTP	27	96	2	B	0	L1
NMTTP	27	192	3	B	0	L1
NMTTP	27	288	4	B	0	L1
NMTTP	28	0	0	C	1	L1
EXTAP	29	0	1
EXTAP	29	96	1
EXTAP	29	192	0
EXTAP	29	288	0
EXTAP	30	0	7
EXTAP	30	96	7
EXTAP	30	192	6
EXTAP	30	192	7
NMTAP	31	0	6
NMTAP	31	96	6
NMTAP	31	192	7
NMTAP	31	288	7
NMTAP	32	0	0
NMTAP	32	96	0
NMTAP	32	192	0
NMTAP	32	192	1
NMTAP	33	0	1
NMTAP	33	96	1
NMTAP	33	192	2
NMTAP	33	288	2
NMTAP	34	0	3
NMTAP	34	96	3
NMTAP	34	192	4
NMTAP	34	192	5
NMTAP	35	0	6
NMTAP	35	96	6
NMTAP	35	192	5
NMTAP	35	288	5
NMTAP	36	0	4
NMTAP	36	96	4
BXTAP	36	192	2
BXTAP	36	192	3
NMTAP	37	0	2
NMTAP	37	96	2
NMTAP	37	192	1
NMTAP	37	288	1
NMTAP	38	0	0
NMTAP	38	96	0
NMTAP	38	192	6
NMTAP	38	192	7
NMTAP	39	0	5
NMTAP	39	96	5
NMTAP	39	192	6
NMTAP	39	288	6
NMTAP	40	0	7
NMTAP	40	96	7
NMTAP	40	192	0
NMTAP	40	192	1
NMTAP	41	0	1
NMTAP	41	96	1
NMTAP	41	192	2
NMTAP	41	288	2
NMTAP	42	0	3
NMTAP	42	96	3
NMTAP	42	192	4
NMTAP	42	192	5
NMTAP	43	0	6
NMTAP	43	96	6
NMTAP	43	192	5
NMTAP	43	288	5
NMTAP	44	0	4
NMTAP	44	96	4
BXTAP	44	192	2
BXTAP	44	192	3
NMHLD	45	0	3	192
NMHLD	45	0	4	192
NMHLD	46	0	5	192
NMHLD	46	192	4	192
NMHLD	47	0	3	192
NMTAP	47	192	2
NMHLD	48	0	2	192
NMHLD	48	192	3	192
NMHLD	49	0	4	192
NMTAP	49	192	5
NMHLD	50	0	6	192
NMHLD	50	192	5	192
NMHLD	51	0	4	192
NMTAP	51	192	3
NMHLD	52	0	1	192
NMHLD	52	192	2	192
NMHLD	53	0	3	192
NMTAP	53	192	4
NMTAP	54	0	3
NMTAP	54	96	3
NMTAP	54	192	2
NMTAP	55	0	1
NMTAP	55	96	1
NMTAP	55	192	0
NMTAP	56	0	7
NMTAP	56	96	7
NMTAP	56	192	6
NMTAP	57	0	5
NMTAP	57	96	5
NMTAP	57	192	4
NMTAP	57	192	5
NMSTR	58	0	5
NMSUL	58	0	5	96	480	2
NMHLD	60	0	1	192
NMTAP	60	192	0
NMTTP	61	0	0	B	0	L1
NMTTP	61	96	1	B	0	L1
NMTTP	61	192	2	B	0	L1
NMTTP	61	192	3	B	0	L1
NMTTP	62	0	7	B	0	L1
NMTTP	62	96	6	B	0	L1
NMTTP	62	192	4	B	0	L1
NMTTP	62	192	5	B	0	L1
NMTTP	63	0	2	E	0	L1
NMTTP	63	96	3	E	0	L1
NMTTP	63	192	4	E	0	L1
NMTTP	63	288	5	E	0	L1
NMTTP	64	0	0	C	1	L1
EXTAP	65	0	6
EXTAP	65	96	6
EXTAP	65	192	6
EXTAP	65	192	7
EXTAP	65	288	6
EXTAP	65	288	7
EXTAP	66	0	0
EXTAP	66	96	0
EXTAP	66	192	0
EXTAP	66	192	1
NMTAP	67	0	2
NMTAP	67	96	2
NMTAP	67	192	0
NMTAP	67	192	1
NMTAP	67	288	0
NMTAP	67	288	1
NMTAP	68	0	7
NMTAP	68	96	7
NMTAP	68	192	6
NMTAP	68	192	7
NMTAP	69	0	6
NMTAP	69	96	6
NMTAP	69	192	4
NMTAP	69	192	5
NMTAP	69	288	4
NMTAP	69	288	5
NMTAP	70	0	3
NMTAP	70	96	3
NMTAP	70	192	2
NMTAP	70	192	3
NMTAP	71	0	1
NMTAP	71	96	1
NMTAP	71	192	2
NMTAP	71	192	3
NMTAP	71	288	2
NMTAP	71	288	3
NMTAP	72	0	4
NMTAP	72	96	4
BRTAP	72	192	4
BRTAP	72	192	5
NMHLD	73	0	6	192
NMTAP	73	192	7
NMTAP	74	0	6
NMTAP	74	0	7
NMTAP	74	96	6
NMTAP	74	96	7
NMTAP	74	192	6
NMTAP	74	192	7
NMHLD	75	0	5	192
NMTAP	75	192	4
NMTAP	76	0	4
NMTAP	76	0	5
NMTAP	76	96	4
NMTAP	76	96	5
NMTAP	76	192	4
NMTAP	76	192	5
NMHLD	77	0	2	192
NMTAP	77	192	3
NMTAP	78	0	2
NMTAP	78	0	3
NMTAP	78	96	2
NMTAP	78	96	3
NMTAP	78	192	2
NMTAP	78	192	3
NMHLD	79	0	1	192
NMTAP	79	192	0
NMTAP	80	0	0
NMTAP	80	0	1
NMTAP	80	96	0
NMTAP	80	96	1
NMTAP	80	192	0
NMTAP	80	192	1
NMTAP	81	0	1
NMTAP	81	96	1
NMTAP	81	192	1
NMTAP	81	288	0
NMTAP	81	288	1
NMTAP	82	0	2
NMTAP	82	96	2
NMTAP	82	192	2
NMTAP	82	288	2
NMTAP	82	288	3
NMTAP	83	0	4
NMTAP	83	96	4
NMTAP	83	192	4
NMTAP	83	288	4
NMTAP	83	288	5
NMTAP	84	0	6
NMTAP	84	0	7
NMTAP	84	96	6
NMTAP	84	96	7
NMTAP	84	192	6
NMTAP	84	192	7
NMTAP	85	0	6
NMTAP	85	96	6
NMTAP	85	192	6
NMTAP	85	288	6
NMTAP	85	288	7
NMTAP	86	0	5
NMTAP	86	96	5
NMTAP	86	192	5
NMTAP	86	288	4
NMTAP	86	288	5
NMTAP	87	0	3
NMTAP	87	96	3
NMTAP	87	192	3
NMTAP	87	288	2
NMTAP	87	288	3
NMTAP	88	0	0
NMTAP	88	0	1
NMTAP	88	96	0
NMTAP	88	96	1
NMTAP	88	192	0
NMTAP	88	192	1
NMTAP	89	0	0
NMTAP	89	0	1
NMTAP	89	96	0
NMTAP	89	96	1
NMTAP	89	192	2
NMTAP	89	288	2
NMTAP	90	0	3
NMTAP	90	0	4
NMTAP	90	96	3
NMTAP	90	96	4
NMTAP	90	192	5
NMTAP	90	288	5
NMTAP	91	0	6
NMTAP	91	0	7
NMTAP	91	96	6
NMTAP	91	96	7
NMTAP	91	192	5
NMTAP	91	288	5
NMTAP	92	0	3
NMTAP	92	0	4
NMTAP	92	96	3
NMTAP	92	96	4
NMTAP	92	192	2
NMTAP	92	192	5
NMTAP	93	0	2
NMTAP	93	0	3
NMTAP	93	96	2
NMTAP	93	96	3
NMTAP	93	192	1
NMTAP	93	288	1
NMTAP	94	0	0
NMTAP	94	0	7
NMTAP	94	96	0
NMTAP	94	96	7
NMTAP	94	192	6
NMTAP	94	288	6
NMTAP	95	0	4
NMTAP	95	0	5
NMTAP	95	96	4
NMTAP	95	96	5
NMTAP	95	192	6
NMTAP	95	288	6
NMTAP	96	0	0
NMTAP	96	0	7
NMTAP	96	96	0
NMTAP	96	96	7
NMTAP	96	192	1
NMTAP	96	192	6
NMTAP	97	0	7
NMTAP	97	96	6
NMTAP	97	192	5
NMTAP	97	288	4
NMTAP	98	0	3
NMTAP	98	96	2
NMTAP	98	192	1
NMTAP	98	288	0
NMTAP	99	0	7
NMTAP	99	96	6
NMTAP	99	192	5
NMTAP	99	288	4
NMTAP	100	0	3
NMTAP	100	0	4
NMTAP	100	96	3
NMTAP	100	96	4
BXTAP	100	192	2
BXTAP	100	192	5

T_REC_TAP	294
T_REC_BRK	2
T_REC_XTP	18
T_REC_BXX	6
T_REC_HLD	19
T_REC_XHO	0
T_REC_BHO	0
T_REC_BXH	0
T_REC_STR	8
T_REC_BST	0
T_REC_XST	0
T_REC_XBS	0
T_REC_TTP	24
T_REC_THO	0
T_REC_SLD	8
T_REC_BSL	0
T_REC_ALL	379
T_NUM_TAP	344
T_NUM_BRK	8
T_NUM_HLD	19
T_NUM_SLD	8
T_NUM_ALL	379
T_JUDGE_TAP	352
T_JUDGE_HLD	76
T_JUDGE_SLD	8
T_JUDGE_ALL	436
TTM_EACHPAIRS	83
TTM_SCR_TAP	172000
TTM_SCR_BRK	20800
TTM_SCR_HLD	19000
TTM_SCR_SLD	12000
TTM_SCR_ALL	223800
TTM_SCR_S	216350
TTM_SCR_SS	223000
TTM_RAT_ACV	10035

