VERSION	0.00.00	1.05.00
FES_MODE	0
BPM_DEF	170.000	170.000	170.000	170.000
MET_DEF	4	4
RESOLUTION	384
CLK_DEF	384
COMPATIBLE_CODE	MA2

BPM	0	0	170.000
MET	0	0	4	4

NMTAP	2	0	0
NMTAP	2	192	0
NMTAP	3	0	1
NMTAP	4	0	2
NMTAP	4	192	2
NMTAP	5	0	3
NMTAP	6	0	4
NMTAP	6	192	4
NMTAP	7	0	5
NMTAP	8	0	6
NMTAP	8	192	6
NMTAP	9	0	0
NMTAP	9	0	7
NMTAP	10	0	7
NMTAP	10	192	7
NMTAP	11	0	6
NMTAP	11	192	6
NMTAP	12	0	5
NMTAP	12	192	5
NMTAP	13	0	3
NMTAP	13	0	4
NMTAP	14	0	3
NMTAP	14	192	3
NMTAP	15	0	2
NMTAP	15	192	2
NMTAP	16	0	1
NMTAP	16	192	1
NMTAP	17	0	0
NMTAP	17	0	7
NMHLD	18	0	0	192
NMHLD	18	0	1	192
EXTAP	19	0	0
EXTAP	19	0	1
NMHLD	20	0	2	192
NMHLD	20	0	3	192
EXTAP	21	0	2
EXTAP	21	0	3
NMHLD	22	0	4	192
NMHLD	22	0	5	192
EXTAP	23	0	4
EXTAP	23	0	5
NMTAP	24	0	6
NMTAP	24	192	6
EXTAP	25	0	7
NMTAP	25	192	7
NMTAP	26	0	0
NMTAP	26	192	0
NMTAP	27	0	1
NMTAP	27	192	1
NMTAP	28	0	0
NMTAP	28	0	7
BRTAP	29	0	7
NMTAP	29	192	7
NMTAP	30	0	6
NMTAP	30	96	6
NMTAP	30	192	6
NMTAP	31	0	5
NMTAP	31	192	5
NMTAP	32	0	4
NMTAP	32	96	4
NMTAP	32	192	3
NMTAP	32	192	4
NMTAP	33	0	3
NMTAP	33	192	3
NMTAP	34	0	2
NMTAP	34	96	2
NMTAP	34	192	2
NMTAP	35	0	1
NMTAP	35	192	1
EXTAP	36	0	0
EXTAP	36	0	7
BRTAP	37	0	0
NMTAP	37	192	0
NMTAP	38	0	1
NMTAP	38	96	1
NMTAP	38	192	1
NMTAP	39	0	2
NMTAP	39	192	2
NMTAP	40	0	3
NMTAP	40	96	3
NMTAP	40	192	3
NMTAP	40	192	4
NMTAP	41	0	4
NMTAP	41	192	4
NMTAP	42	0	5
NMTAP	42	96	5
NMTAP	42	192	5
NMTAP	43	0	6
NMTAP	43	192	6
NMTAP	44	0	7
NMTAP	44	96	7
NMTAP	44	192	7
BRTAP	45	0	0
BRTAP	45	0	7
NMSTR	46	0	7
NMSI_	46	0	7	96	288	3
NMSTR	48	0	2
NMSI_	48	0	2	96	288	7
NMSTR	50	0	6
NMSI_	50	0	6	96	288	2
NMSTR	52	0	1
NMSI_	52	0	1	96	288	5
NMTTP	54	0	7	B	0	L1
NMTTP	55	0	0	B	0	L1
NMTTP	56	0	6	B	0	L1
NMTTP	57	0	1	B	0	L1
NMTTP	58	0	5	B	0	L1
NMTTP	59	0	2	B	0	L1
NMTTP	60	0	4	B	0	L1
NMTTP	61	0	3	B	0	L1
NMTTP	62	0	4	E	0	L1
NMTHO	63	0	0	384	C	1	L1
BRTAP	65	0	0
NMTAP	65	96	0
NMTAP	65	192	0
NMTAP	66	0	1
NMTAP	66	96	1
NMTAP	66	192	1
NMTAP	67	0	2
NMTAP	67	96	2
NMTAP	67	192	2
NMTAP	68	0	3
NMTAP	68	96	3
NMTAP	68	192	3
NMTAP	68	192	4
NMTAP	69	0	4
NMTAP	69	96	4
NMTAP	69	192	4
NMTAP	70	0	5
NMTAP	70	96	5
NMTAP	70	192	5
NMTAP	71	0	6
NMTAP	71	96	6
NMTAP	71	192	6
NMTAP	72	0	7
NMTAP	72	96	7
NMTAP	72	192	0
NMTAP	72	192	7
NMTAP	73	0	7
NMTAP	73	96	7
NMTAP	73	192	7
NMTAP	74	0	6
NMTAP	74	96	6
NMTAP	74	192	6
NMTAP	75	0	5
NMTAP	75	96	5
NMTAP	75	192	5
NMTAP	76	0	4
NMTAP	76	96	4
NMTAP	76	192	3
NMTAP	76	192	4
NMTAP	77	0	3
NMTAP	77	96	3
NMTAP	77	192	3
NMTAP	78	0	2
NMTAP	78	96	2
NMTAP	78	192	2
NMTAP	79	0	1
NMTAP	79	96	1
NMTAP	79	192	1
NMTAP	80	0	0
NMTAP	80	96	0
NMTAP	80	192	0
NMTAP	80	192	7
BRTAP	81	0	0
NMTAP	81	96	0
NMTAP	81	192	0
NMTAP	81	288	0
NMTAP	82	0	1
NMTAP	82	96	1
NMTAP	82	192	0
NMTAP	82	192	1
NMTAP	83	0	2
NMTAP	83	96	2
NMTAP	83	192	2
NMTAP	83	288	2
NMTAP	84	0	3
NMTAP	84	96	3
NMTAP	84	192	3
NMTAP	84	192	4
NMTAP	85	0	4
NMTAP	85	96	4
NMTAP	85	192	4
NMTAP	85	288	4
NMTAP	86	0	5
NMTAP	86	96	5
NMTAP	86	192	4
NMTAP	86	192	5
NMTAP	87	0	6
NMTAP	87	96	6
NMTAP	87	192	6
NMTAP	87	288	6
NMTAP	88	0	7
NMTAP	88	96	7
NMTAP	88	192	0
NMTAP	88	192	7
NMTAP	89	0	7
NMTAP	89	96	7
NMTAP	89	192	7
NMTAP	89	288	7
NMTAP	90	0	6
NMTAP	90	96	6
NMTAP	90	192	6
NMTAP	90	192	7
NMTAP	91	0	5
NMTAP	91	96	5
NMTAP	91	192	5
NMTAP	91	288	5
NMTAP	92	0	4
NMTAP	92	96	4
NMTAP	92	192	3
NMTAP	92	192	4
NMTAP	93	0	3
NMTAP	93	96	3
NMTAP	93	192	3
NMTAP	93	288	3
NMTAP	94	0	2
NMTAP	94	96	2
NMTAP	94	192	2
NMTAP	94	192	3
NMTAP	95	0	1
NMTAP	95	96	1
NMTAP	95	192	1
NMTAP	95	288	1
NMTAP	96	0	0
NMTAP	96	96	0
NMTAP	96	192	0
NMTAP	96	192	7
NMTAP	97	0	6
NMTAP	97	96	6
NMTAP	97	192	6
NMTAP	97	192	7
NMTAP	98	0	1
NMTAP	98	96	1
NMTAP	98	192	0
NMTAP	98	192	1
NMTAP	99	0	7
NMTAP	99	96	7
NMTAP	99	192	0
NMTAP	99	288	0
NMTAP	100	0	0
NMTAP	100	0	7
NMTAP	100	96	0
NMTAP	100	96	7
BRTAP	100	192	0
BRTAP	100	192	7

T_REC_TAP	205
T_REC_BRK	8
T_REC_XTP	9
T_REC_BXX	0
T_REC_HLD	6
T_REC_XHO	0
T_REC_BHO	0
T_REC_BXH	0
T_REC_STR	4
T_REC_BST	0
T_REC_XST	0
T_REC_XBS	0
T_REC_TTP	9
T_REC_THO	1
T_REC_SLD	4
T_REC_BSL	0
T_REC_ALL	246
T_NUM_TAP	227
T_NUM_BRK	8
T_NUM_HLD	7
T_NUM_SLD	4
T_NUM_ALL	246
T_JUDGE_TAP	235
T_JUDGE_HLD	32
T_JUDGE_SLD	4
T_JUDGE_ALL	271
TTM_EACHPAIRS	31
TTM_SCR_TAP	113500
TTM_SCR_BRK	20800
TTM_SCR_HLD	7000
TTM_SCR_SLD	6000
TTM_SCR_ALL	147300
TTM_SCR_S	142150
TTM_SCR_SS	146500
TTM_RAT_ACV	10054

