VERSION	0.00.00	1.05.00
FES_MODE	0
BPM_DEF	132.000	132.000	132.000	132.000
MET_DEF	4	4
RESOLUTION	384
CLK_DEF	384
COMPATIBLE_CODE	MA2

BPM	0	0	132.000
MET	0	0	4	4

NMTHO	1	240	0	96	C	0	M1
NMTAP	3	0	5
NMTAP	3	96	5
NMTAP	3	192	5
NMSTR	3	288	5
NMSI_	3	288	5	96	48	3
NMTAP	4	0	2
NMTAP	4	96	2
NMTAP	4	192	2
NMTAP	4	288	2
EXHLD	4	360	4	72
NMTAP	5	0	2
NMTAP	5	96	2
NMSTR	5	192	1
NMSI_	5	192	1	96	48	4
NMTAP	5	288	4
NMHLD	6	0	4	24
NMTAP	6	0	5
NMHLD	6	96	4	24
NMTAP	6	96	5
NMTAP	6	192	5
NMTAP	6	288	5
NMSTR	7	0	4
NMSXR	7	0	4	96	48	2
NMTAP	7	0	6
NMTAP	7	96	6
NMSTR	7	192	6
NMSI_	7	192	6	96	48	4
NMTAP	7	288	3
NMTAP	8	0	2
NMSTR	8	0	3
NMSUR	8	0	3	96	96	0
NMTAP	8	96	2
NMTAP	8	192	2
NMTAP	8	288	2
NMTAP	9	0	2
NMSTR	9	0	3
NMSUR	9	0	3	96	96	0
NMTAP	9	96	2
NMSTR	9	192	2
NMSI_	9	192	2	96	48	5
NMTAP	9	288	7
NMTAP	10	0	7
NMTAP	10	96	7
NMTAP	10	192	5
NMTAP	10	192	6
NMTAP	10	288	5
NMTAP	10	288	6
NMTHO	11	0	0	168	C	0	M1
NMTTP	11	0	3	B	0	M1
NMTTP	11	0	4	B	0	M1
NMTTP	11	0	4	E	0	M1
NMTTP	11	0	4	D	0	M1
EXTAP	11	240	0
EXTAP	11	288	0
NMTAP	12	0	1
NMTAP	12	0	5
NMTAP	12	48	2
NMTAP	12	72	4
NMTAP	12	96	3
NMHLD	12	192	3	48
NMHLD	12	192	5	48
NMHLD	12	264	4	48
NMHLD	12	264	6	48
NMTAP	12	336	4
NMSTR	12	336	6
NMSCR	12	336	6	96	144	3
NMTTP	13	48	4	E	0	M1
NMSTR	13	192	0
NMSI_	13	192	0	96	48	3
NMTAP	14	0	2
NMTAP	14	0	6
NMTAP	14	48	5
NMTAP	14	72	3
NMTAP	14	96	4
NMHLD	14	192	2	48
NMHLD	14	192	4	48
NMHLD	14	264	1	48
NMHLD	14	264	3	48
NMSTR	14	336	3
NMSI_	14	336	3	96	48	0
NMSCL	14	336	3	96	48	0
NMSTR	15	48	3
NMSCR	15	48	3	96	72	7
BRTAP	15	144	0
BRTAP	15	192	0
NMTAP	15	288	1
NMTAP	15	288	3
NMTAP	16	0	1
NMTAP	16	0	3
NMHLD	16	96	2	48
NMHLD	16	96	4	48
NMTAP	16	168	2
NMTAP	16	168	4
NMTAP	16	240	0
NMSTR	16	288	0
NMSXR	16	288	0	96	96	0
NMTAP	17	0	4
NMHLD	17	96	3	48
NMTAP	17	168	3
NMTAP	17	240	2
NMTAP	17	240	3
NMTAP	17	288	1
NMTAP	17	288	4
BXTAP	17	336	1
BXTAP	17	336	4
NMHLD	18	24	1	24
NMHLD	18	24	3	24
NMHLD	18	96	1	24
NMHLD	18	96	3	24
NMTAP	18	168	2
NMTAP	18	192	3
NMTAP	18	240	3
NMTAP	18	264	1
NMTAP	18	312	1
NMTAP	18	336	3
NMTAP	19	0	6
NMTAP	19	24	4
NMTAP	19	48	6
NMTAP	19	96	3
NMTAP	19	96	7
NMTAP	19	144	3
NMTAP	19	144	7
NMSTR	19	192	6
NMSI_	19	192	6	96	48	0
NMTAP	19	216	4
NMTAP	19	240	5
NMSTR	19	288	2
NMSI_	19	288	2	96	48	4
NMTAP	19	288	6
NMSTR	20	0	6
NMSI_	20	0	6	96	48	3
NMSTR	20	96	2
NMSCL	20	96	2	96	96	6
NMTAP	20	192	4
NMTAP	20	240	4
NMSTR	20	288	4
NMSI_	20	288	4	96	48	6
NMSTR	21	0	1
NMSI_	21	0	1	96	48	3
NMSTR	21	96	5
NMSCR	21	96	5	96	96	0
EXSTR	21	192	2
BRSXR	21	192	2	96	120	4
EXTAP	21	240	2
EXTAP	22	0	5
NMTAP	22	96	0
NMTAP	22	96	6
NMTAP	22	144	1
NMTAP	22	192	2
NMTAP	22	192	3
NMTAP	22	240	2
NMTAP	22	264	4
NMTAP	22	312	5
NMHLD	22	336	4	312
NMTAP	22	336	5
EXTAP	23	240	6
EXTAP	23	252	7
EXTAP	23	264	0
EXTAP	23	276	1
EXSTR	23	288	2
NMSF_	23	288	2	96	48	6
EXTAP	23	288	3
NMTTP	24	0	2	A	1	M1
NMTTP	24	0	3	A	0	M1
NMTTP	24	0	3	D	0	M1
EXTAP	24	96	0
EXTAP	24	96	1
NMTAP	24	192	2
NMTAP	24	192	3
NMTAP	24	240	5
NMTAP	24	264	4
NMTAP	24	312	6
NMSTR	24	336	7
NMSUL	24	336	7	96	48	2
NMSLL	24	336	7	96	48	3
NMTAP	25	48	7
NMTAP	25	144	1
NMTAP	25	168	1
NMTAP	25	192	3
NMTAP	25	240	2
NMTAP	25	240	4
NMSTR	25	288	3
NMSI_	25	288	3	96	48	0
NMSI_	25	288	3	96	48	1
NMTAP	25	336	3
NMSTR	26	0	3
NMSI_	26	0	3	96	48	5
NMSI_	26	0	3	96	48	6
NMTAP	26	96	3
EXTAP	26	192	0
EXTAP	26	192	7
NMTAP	26	240	6
NMTAP	26	264	4
NMTAP	26	312	1
NMSTR	26	336	3
BRSI_	26	336	3	96	48	6
BRSI_	26	336	3	96	48	7
BRTAP	27	48	3
NMTAP	27	144	0
NMTAP	27	168	7
NMHLD	27	192	1	48
NMTAP	27	240	4
NMHLD	27	264	3	48
NMHLD	27	312	6	72
NMHLD	27	336	4	48
NMSTR	28	72	3
NMSI_	28	72	3	96	48	7
NMTAP	28	96	3
NMTAP	28	120	5
NMTAP	28	144	2
NMTAP	28	168	3
NMSTR	28	264	0
NMSI_	28	264	0	96	48	4
NMTAP	28	288	0
NMTAP	28	312	6
NMTAP	28	336	1
NMTAP	28	360	0
NMTAP	29	48	5
NMTAP	29	96	3
NMTAP	29	96	5
NMTAP	29	144	4
NMTAP	29	144	6
BRHLD	29	168	4	72
BRHLD	29	168	6	72
NMSTR	29	288	7
NMSCL	29	288	7	96	48	4
NMSTR	29	336	4
NMSXL	29	336	4	96	48	6
NMTAP	30	0	2
NMTAP	30	72	0
NMSTR	30	96	0
NMSXL	30	96	0	96	144	3
NMTAP	30	144	4
NMSTR	30	192	5
NMSCR	30	192	5	96	48	7
NMTAP	31	0	4
NMTAP	31	0	6
NMTAP	31	48	0
NMTAP	31	48	7
NMTAP	31	96	1
NMTAP	31	96	3
NMTAP	31	144	4
NMTAP	31	144	6
NMHLD	31	168	4	96
NMTAP	31	168	6
EXTAP	31	240	6
EXTAP	31	252	7
EXTAP	31	264	0
EXTAP	31	276	1
EXSTR	31	288	2
NMSF_	31	288	2	96	48	6
EXTAP	31	288	3
NMTTP	32	0	2	A	1	M1
NMTTP	32	0	3	A	0	M1
NMTTP	32	0	3	D	0	M1
EXTAP	32	96	0
EXTAP	32	96	7
NMTAP	32	192	6
NMTAP	32	192	7
NMTAP	32	240	5
NMTAP	32	264	4
NMTAP	32	312	2
NMSTR	32	336	3
NMSCR	32	336	3	96	48	6
NMSUR	32	336	3	96	48	7
NMTAP	33	48	3
NMTAP	33	144	1
NMTAP	33	168	1
NMTAP	33	192	0
NMTAP	33	240	0
NMTAP	33	240	7
NMSTR	33	288	6
NMSI_	33	288	6	96	48	2
NMTAP	33	336	6
NMSTR	34	0	2
NMSCR	34	0	2	96	48	5
NMSTR	34	0	6
NMSCR	34	0	6	96	48	1
NMTAP	34	96	2
NMTAP	34	96	6
EXTAP	34	192	0
EXTAP	34	192	4
NMTAP	34	240	1
NMTAP	34	264	3
NMTAP	34	312	6
NMSTR	34	336	4
NMSCL	34	336	4	96	48	1
NMSCR	34	336	4	96	48	7
BXTAP	35	48	4
NMTAP	35	144	7
NMTAP	35	168	0
NMHLD	35	192	6	48
NMTAP	35	240	3
NMHLD	35	264	4	48
NMHLD	35	312	1	72
NMHLD	35	336	3	48
NMSTR	36	72	4
NMSI_	36	72	4	96	48	0
NMTAP	36	96	4
NMTAP	36	120	2
NMTAP	36	144	5
NMTAP	36	168	4
NMSTR	36	264	7
NMSI_	36	264	7	96	48	3
NMTAP	36	288	7
NMTAP	36	312	1
NMTAP	36	336	6
NMTAP	36	360	7
NMSTR	37	48	6
NMSCR	37	48	6	96	48	1
NMTAP	37	96	5
NMHLD	37	144	3	96
CNSI_	37	192	1	0	48	5
NMSTR	37	288	6
NMSI_	37	288	6	96	48	3
NMSTR	37	288	7
NMSI_	37	288	7	96	48	3
NMTAP	37	336	0
NMTAP	38	96	1
NMTAP	38	96	4
NMTAP	38	144	2
NMTAP	38	144	3
NMSTR	38	192	0
NMSCR	38	192	0	96	48	5
NMSTR	38	192	1
NMSCR	38	192	1	96	48	5
EXTAP	39	0	4
EXTAP	39	0	6
NMTAP	39	48	1
NMTAP	39	48	3
NMTAP	39	96	0
NMTAP	39	96	7
NMTAP	39	144	4
NMTAP	39	144	6
NMHLD	39	168	4	72
NMTAP	39	168	6
NMTAP	39	240	5
NMTAP	39	264	3
BRTAP	39	288	7
NMSTR	40	0	1
NMSCR	40	0	1	96	96	4
NMTAP	40	0	5
NMSTR	40	96	4
NMSCR	40	96	4	96	96	7
NMSTR	40	192	7
NMSCR	40	192	7	96	96	2
NMSTR	40	288	2
NMSLL	40	288	2	96	144	6
BRTAP	41	0	3
NMTAP	41	96	3
CNSI_	41	144	6	0	96	4
NMTAP	41	192	3
NMSTR	41	288	3
NMSCR	41	288	3	96	96	7
NMTAP	42	0	1
NMSTR	42	96	4
NMSCL	42	96	4	96	96	0
NMTAP	42	192	6
NMSTR	42	288	3
NMSCR	42	288	3	96	96	7
NMTAP	43	0	1
NMTAP	43	96	2
CNSUL	43	96	7	0	120	1
NMTAP	43	192	0
NMTAP	43	288	1
NMSTR	43	288	7
NMSCL	43	288	7	96	96	4
NMSTR	44	0	4
NMSCL	44	0	4	96	96	1
NMSTR	44	96	1
NMSCL	44	96	1	96	96	6
NMSTR	44	192	6
NMSCL	44	192	6	96	96	3
NMSTR	44	288	3
NMSLR	44	288	3	96	96	7
BRTAP	45	0	2
NMTAP	45	96	2
CNSI_	45	96	7	0	96	1
NMTAP	45	192	2
NMSTR	45	288	2
NMSCL	45	288	2	96	48	7
NMSTR	45	288	3
NMSCL	45	288	3	96	48	7
NMSTR	46	96	4
NMSCR	46	96	4	96	48	0
NMSTR	46	96	5
NMSCR	46	96	5	96	48	0
NMSTR	46	288	2
NMSCL	46	288	2	96	144	5
NMSTR	46	288	3
NMSUL	46	288	3	96	144	5
NMTAP	47	240	5
NMTAP	47	256	4
NMTAP	47	272	3
BRTAP	47	288	2
NMTAP	48	0	0
NMTAP	48	0	2
NMTAP	48	32	0
NMTAP	48	32	2
NMTAP	48	64	0
NMTAP	48	64	2
NMTAP	48	128	5
NMTAP	48	128	7
NMTAP	48	160	5
NMTAP	48	160	7
NMTAP	48	192	5
NMSTR	48	192	7
NMSCL	48	192	7	96	48	4
NMSCR	48	192	7	96	48	2
BRTAP	48	288	7
NMTHO	49	240	0	144	C	0	M1
NMTTP	50	0	0	E	0	M1
NMTTP	50	0	0	A	0	M1
NMTTP	50	0	0	D	0	M1
NMTTP	50	0	7	A	0	M1
NMTAP	50	288	1
NMTAP	50	288	7
NMTAP	51	96	0
NMTAP	51	96	6
NMTAP	51	288	2
NMTAP	51	288	4
NMTTP	52	0	4	A	0	M1
NMTTP	52	0	5	E	0	M1
NMTTP	52	0	5	A	0	M1
NMTTP	52	0	5	D	0	M1
NMTTP	52	96	2	A	0	M1
NMTTP	52	96	3	E	0	M1
NMTTP	52	96	3	A	0	M1
NMTTP	52	96	3	D	0	M1
NMTTP	52	192	5	A	0	M1
NMTTP	52	192	6	E	0	M1
NMTTP	52	192	6	A	0	M1
NMTTP	52	192	6	D	0	M1
EXSTR	52	288	7
NMSXL	52	288	7	96	192	7
NMSXR	52	288	7	96	192	7
NMSTR	53	288	0
NMSI_	53	288	0	96	48	2
NMSTR	54	96	3
NMSI_	54	96	3	96	48	7
NMHLD	54	288	0	288
NMTAP	55	0	6
NMTAP	55	96	6
NMTAP	55	192	4
NMSTR	55	288	5
NMSCR	55	288	5	96	288	2
NMHLD	56	0	4	288
NMTAP	57	0	2
NMTAP	57	0	3
NMTAP	57	48	3
NMTAP	57	48	4
NMTAP	57	96	5
NMTAP	57	144	4
NMTAP	57	144	6
NMHLD	57	168	4	96
NMTAP	57	168	6
EXTAP	57	240	6
EXTAP	57	252	7
EXTAP	57	264	0
EXTAP	57	276	1
EXSTR	57	288	2
NMSF_	57	288	2	96	48	6
EXTAP	57	288	3
NMTTP	58	0	2	A	0	M1
NMTTP	58	0	3	A	0	M1
NMTTP	58	0	3	D	1	M1
EXTAP	58	96	0
EXTAP	58	96	1
NMTAP	58	192	2
NMTAP	58	192	3
NMSTR	58	240	5
NMSCL	58	240	5	96	48	2
NMTAP	58	264	4
NMTAP	58	288	6
NMSTR	58	336	7
NMSI_	58	336	7	96	48	2
NMSI_	58	336	7	96	48	4
BRTAP	59	48	7
EXTAP	59	144	2
EXTAP	59	144	4
NMTAP	59	192	0
NMTAP	59	192	1
NMTAP	59	240	6
NMTAP	59	264	7
NMSTR	59	288	5
NMSI_	59	288	5	96	48	7
EXTAP	59	336	3
EXTAP	59	336	4
NMSTR	60	0	2
NMSI_	60	0	2	96	48	0
NMSTR	60	0	5
NMSI_	60	0	5	96	48	3
NMTAP	60	96	2
NMTAP	60	96	5
EXTAP	60	192	1
EXTAP	60	192	4
NMTAP	60	240	2
NMTAP	60	264	3
NMTAP	60	312	1
NMSTR	60	336	0
NMSCL	60	336	0	96	48	5
NMSUR	60	336	0	96	48	4
BRTAP	61	48	0
NMTAP	61	144	5
NMTAP	61	144	6
NMTAP	61	192	0
NMTAP	61	192	7
NMTAP	61	240	1
NMTAP	61	264	3
NMHLD	61	312	6	72
NMHLD	61	336	4	48
NMSTR	62	72	3
NMSI_	62	72	3	96	48	7
NMTAP	62	96	3
NMTAP	62	120	5
NMTAP	62	144	2
NMTAP	62	168	3
NMSTR	62	264	0
NMSI_	62	264	0	96	48	4
NMTAP	62	288	0
NMTAP	62	312	6
NMTAP	62	336	1
NMTAP	62	360	0
NMSTR	63	72	2
NMSI_	63	72	2	96	48	6
NMTAP	63	96	2
NMTAP	63	120	3
NMHLD	63	144	1	144
NMTTP	63	168	2	A	1	M1
NMSTR	63	288	7
NMSI_	63	288	7	96	48	3
NMSLL	63	288	7	96	48	3
NMTAP	63	336	0
NMSTR	64	96	1
NMSCR	64	96	1	96	48	6
NMSUR	64	96	1	96	48	6
NMTAP	64	144	0
EXTAP	64	288	7
NMTAP	65	0	5
NMTAP	65	0	6
NMTAP	65	48	3
NMTAP	65	48	4
NMTAP	65	96	1
NMTAP	65	96	2
NMTAP	65	144	0
NMTAP	65	144	6
BRTAP	65	168	0
BRTAP	65	168	6
NMTAP	65	240	2
NMTAP	65	240	4
NMTAP	65	288	1
NMSTR	65	288	5
NMSI_	65	288	5	96	48	3
NMSTR	66	0	2
NMSI_	66	0	2	96	48	0
NMTAP	66	48	1
NMSTR	66	96	6
NMSCL	66	96	6	96	72	2
NMTAP	66	144	5
EXTAP	66	192	0
EXTAP	66	240	0
CNSCR	66	264	2	0	72	6
NMSTR	66	288	0
NMSI_	66	288	0	96	48	4
EXTAP	66	336	1
NMSTR	67	0	7
NMSI_	67	0	7	96	48	2
NMTAP	67	48	6
NMSTR	67	96	3
NMSI_	67	96	3	96	48	7
NMTAP	67	144	4
EXTAP	67	192	7
NMTAP	67	240	6
NMSTR	67	288	0
NMSCR	67	288	0	96	48	3
NMTAP	67	288	5
NMTAP	67	336	6
NMTAP	67	336	7
NMSTR	68	0	0
NMSCL	68	0	0	96	48	5
NMTAP	68	48	4
NMSTR	68	96	0
NMSI_	68	96	0	96	48	4
NMTAP	68	144	4
NMTAP	68	192	0
NMTAP	68	240	6
NMSTR	68	288	7
NMSI_	68	288	7	96	48	2
NMTAP	68	336	0
NMTAP	69	0	1
NMTAP	69	48	1
CNSI_	69	48	2	0	48	6
EXTAP	69	96	0
CNSI_	69	96	6	0	48	4
EXTAP	69	144	0
NMTAP	69	216	1
NMTAP	69	240	1
NMTAP	69	264	3
NMTAP	69	288	2
NMTAP	69	312	3
NMTAP	69	336	1
NMTAP	70	0	0
EXTAP	70	0	7
NMTAP	70	48	2
NMTAP	70	72	3
NMTAP	70	96	1
NMHLD	70	120	4	48
NMHLD	70	168	0	48
NMTAP	70	216	3
NMTAP	70	240	3
NMSTR	70	288	6
NMSCR	70	288	6	96	48	1
NMTAP	70	336	3
NMTAP	70	336	5
EXTAP	71	0	6
NMTAP	71	48	2
NMHLD	71	72	2	48
NMTAP	71	120	3
NMTAP	71	168	1
NMTAP	71	168	4
NMTAP	71	216	1
NMTAP	71	240	0
NMTAP	71	264	2
BRSTR	71	288	7
NMSI_	71	288	7	96	48	3
BRSI_	71	288	7	96	48	2
EXTAP	71	336	4
EXTAP	71	336	6
EXTAP	72	0	7
NMTAP	72	96	3
NMTAP	72	96	6
NMTAP	72	144	5
NMTAP	72	168	4
NMTAP	72	192	6
NMTAP	72	240	1
NMTAP	72	264	3
NMTAP	72	288	2
NMTAP	72	312	3
NMHLD	72	336	0	48
BRTAP	73	0	2
BRTAP	73	48	2
BRTAP	73	48	4
BRTAP	73	96	4
BRTAP	73	96	6
BRTAP	73	144	3
BRTAP	73	144	7
BXHLD	73	168	3	84
BRSTR	73	168	7
NMSCL	73	168	7	96	48	4
NMTAP	73	264	2
NMTAP	73	276	1
NMTAP	73	288	0

T_REC_TAP	300
T_REC_BRK	19
T_REC_XTP	49
T_REC_BXX	3
T_REC_HLD	39
T_REC_XHO	1
T_REC_BHO	2
T_REC_BXH	1
T_REC_STR	85
T_REC_BST	2
T_REC_XST	5
T_REC_XBS	0
T_REC_TTP	31
T_REC_THO	3
T_REC_SLD	102
T_REC_BSL	4
T_REC_ALL	646
T_NUM_TAP	470
T_NUM_BRK	31
T_NUM_HLD	43
T_NUM_SLD	102
T_NUM_ALL	646
T_JUDGE_TAP	494
T_JUDGE_HLD	81
T_JUDGE_SLD	106
T_JUDGE_ALL	681
TTM_EACHPAIRS	105
TTM_SCR_TAP	235000
TTM_SCR_BRK	80600
TTM_SCR_HLD	43000
TTM_SCR_SLD	153000
TTM_SCR_ALL	511600
TTM_SCR_S	493250
TTM_SCR_SS	508500
TTM_RAT_ACV	10060

