VERSION	0.00.00	1.05.00
FES_MODE	0
BPM_DEF	132.000	132.000	132.000	132.000
MET_DEF	4	4
RESOLUTION	384
CLK_DEF	384
COMPATIBLE_CODE	MA2

BPM	0	0	132.000
MET	0	0	4	4

NMTHO	1	216	0	120	C	0	M1
NMTAP	3	0	5
NMTAP	3	96	5
NMTAP	3	192	5
NMTAP	4	0	7
NMTAP	4	96	7
NMTAP	4	192	0
NMTAP	4	192	6
NMSTR	4	288	0
NMSI_	4	288	0	96	96	4
NMSTR	4	288	6
NMSI_	4	288	6	96	96	2
NMTAP	5	192	3
NMTAP	5	288	3
NMTAP	6	0	2
NMTAP	6	0	4
NMTAP	6	96	2
NMTAP	6	96	4
NMTAP	6	192	3
NMTAP	6	192	5
NMTAP	6	288	3
NMTAP	6	288	5
NMSTR	7	0	2
NMSCR	7	0	2	96	96	5
NMTAP	7	288	6
NMSTR	8	0	7
NMSI_	8	0	7	96	96	4
NMTAP	8	96	2
NMTAP	8	192	1
NMTAP	8	288	1
NMSTR	9	0	0
NMSI_	9	0	0	96	96	3
NMTAP	9	96	5
NMTAP	9	192	6
NMTAP	9	288	6
NMHLD	10	0	4	96
NMHLD	10	0	6	96
NMHLD	10	192	1	96
NMHLD	10	192	3	96
NMTAP	11	0	4
NMTAP	11	0	6
NMSTR	11	96	4
NMSLL	11	96	4	96	144	0
NMTAP	11	96	6
NMHLD	11	192	5	96
NMTAP	12	48	2
NMTAP	12	72	3
NMTAP	12	96	1
NMHLD	12	192	1	72
NMHLD	12	264	2	72
NMTAP	12	336	3
NMTAP	13	48	1
NMTAP	13	48	4
NMSTR	13	96	1
NMSI_	13	96	1	96	48	3
NMTAP	13	96	4
NMSTR	13	192	7
NMSI_	13	192	7	96	48	5
NMTAP	14	48	5
NMTAP	14	72	4
NMTAP	14	96	6
NMHLD	14	192	6	72
NMHLD	14	264	5	72
NMTAP	14	336	4
NMTAP	15	48	3
NMTAP	15	48	6
NMSTR	15	96	3
NMSI_	15	96	3	96	96	0
NMSCL	15	96	3	96	96	0
NMTAP	15	96	6
NMTAP	16	0	2
NMTAP	16	0	3
NMHLD	16	96	2	72
NMHLD	16	168	1	72
NMTAP	16	240	0
NMSTR	16	288	0
NMSXL	16	288	0	96	144	0
NMTAP	17	240	7
NMSTR	17	288	7
NMSI_	17	288	7	96	48	3
NMSTR	18	0	0
NMSI_	18	0	0	96	48	4
NMTAP	18	96	5
NMTAP	18	192	6
NMTAP	18	240	6
NMTAP	18	288	4
NMTAP	18	336	4
NMTAP	19	0	7
NMTAP	19	48	7
NMHLD	19	96	0	96
NMTAP	19	192	3
NMTAP	19	240	3
NMTAP	19	288	1
NMTAP	19	336	1
NMSTR	20	0	4
NMSCR	20	0	4	96	48	7
NMTAP	20	96	2
NMSTR	20	192	0
NMSCR	20	192	0	96	48	3
NMTAP	20	288	6
NMSTR	21	0	4
NMSCR	21	0	4	96	48	7
NMTAP	21	96	2
NMSTR	21	192	0
NMSCR	21	192	0	96	48	3
NMTAP	21	288	6
NMHLD	22	0	7	96
NMSTR	22	96	3
NMSUR	22	96	3	96	192	4
NMTTP	23	0	0	C	0	M1
NMTAP	23	240	1
NMTAP	23	240	6
NMSTR	23	288	0
NMSCR	23	288	0	96	48	3
NMSTR	23	288	7
NMSCL	23	288	7	96	48	4
BXTAP	24	0	0
BXTAP	24	0	7
NMTAP	24	96	2
NMTAP	24	96	5
NMHLD	24	192	7	72
NMHLD	24	264	5	72
NMSTR	24	336	4
NMSI_	24	336	4	96	48	1
NMSI_	24	336	4	96	48	7
NMTAP	25	144	0
NMHLD	25	192	0	72
NMHLD	25	264	1	72
NMTAP	25	336	3
NMTAP	26	0	0
NMTAP	26	0	2
NMTAP	26	96	5
NMTAP	26	96	7
NMTAP	26	192	1
NMTAP	26	192	3
NMTAP	26	240	2
NMTAP	26	288	4
NMTAP	26	288	6
NMTAP	26	336	5
NMSTR	27	0	1
NMSCR	27	0	1	96	48	4
NMSTR	27	96	7
NMSXR	27	96	7	96	96	7
NMTAP	27	192	2
NMTAP	27	288	0
NMSTR	28	0	0
NMSI_	28	0	0	96	48	4
NMSTR	28	0	1
NMSI_	28	0	1	96	48	3
EXTAP	28	96	0
EXTAP	28	96	1
NMSTR	28	192	6
NMSI_	28	192	6	96	48	4
NMSTR	28	192	7
NMSI_	28	192	7	96	48	3
EXTAP	28	288	6
EXTAP	28	288	7
NMSTR	29	0	0
NMSI_	29	0	0	96	48	4
NMSTR	29	0	1
NMSI_	29	0	1	96	48	3
EXTAP	29	96	0
EXTAP	29	96	1
NMTAP	29	192	6
NMTAP	29	192	7
NMSTR	29	288	1
NMSCR	29	288	1	96	48	4
NMSTR	29	288	5
NMSCR	29	288	5	96	48	0
NMSTR	30	96	3
NMSI_	30	96	3	96	48	0
NMSTR	30	96	7
NMSI_	30	96	7	96	48	4
NMTAP	30	288	1
NMTAP	30	288	5
NMTTP	31	0	6	E	1	M1
NMTTP	31	48	4	B	1	M1
NMTTP	31	96	3	B	1	M1
NMTTP	31	144	2	E	1	M1
NMTAP	31	240	1
NMTAP	31	240	6
NMSTR	31	288	0
NMSCR	31	288	0	96	48	3
NMSTR	31	288	7
NMSCL	31	288	7	96	48	4
BXTAP	32	0	0
BXTAP	32	0	7
NMTAP	32	96	2
NMTAP	32	96	5
NMHLD	32	192	0	72
NMHLD	32	264	2	72
NMSTR	32	336	3
NMSI_	32	336	3	96	48	0
NMSI_	32	336	3	96	48	6
NMTAP	33	144	7
NMHLD	33	192	7	72
NMHLD	33	264	6	72
NMTAP	33	336	4
NMTAP	34	0	4
NMTAP	34	96	1
NMTAP	34	96	3
NMSTR	34	192	0
NMSI_	34	192	0	96	48	4
NMTAP	34	240	0
NMSTR	34	288	6
NMSXL	34	288	6	96	144	3
NMTAP	35	0	2
NMTAP	35	144	2
NMSTR	35	192	1
NMSI_	35	192	1	96	48	4
NMTAP	35	240	1
NMTAP	35	288	5
NMTAP	35	336	5
NMSTR	36	0	6
NMSI_	36	0	6	96	48	4
NMSTR	36	0	7
NMSI_	36	0	7	96	48	3
EXTAP	36	96	6
EXTAP	36	96	7
NMSTR	36	192	0
NMSI_	36	192	0	96	48	4
NMSTR	36	192	1
NMSI_	36	192	1	96	48	3
EXTAP	36	288	0
EXTAP	36	288	1
NMSTR	37	0	6
NMSI_	37	0	6	96	48	4
NMSTR	37	0	7
NMSI_	37	0	7	96	48	3
EXTAP	37	96	6
EXTAP	37	96	7
NMTAP	37	192	0
NMTAP	37	192	1
NMSTR	37	288	2
NMSI_	37	288	2	96	48	7
NMSTR	37	288	6
NMSI_	37	288	6	96	48	3
NMSTR	38	96	0
NMSCR	38	96	0	96	48	3
NMSTR	38	96	4
NMSCR	38	96	4	96	48	7
NMTAP	38	288	2
NMTAP	38	288	6
NMTTP	39	0	2	E	1	M1
NMTTP	39	48	0	B	1	M1
NMTTP	39	96	7	B	1	M1
NMTTP	39	144	6	E	1	M1
NMSTR	39	288	3
NMSCL	39	288	3	96	480	6
NMTAP	40	0	4
NMTAP	40	96	4
NMTAP	40	192	4
NMTAP	40	288	4
NMTAP	41	0	4
NMTAP	41	96	4
NMTAP	41	192	4
NMSTR	41	288	4
NMSCR	41	288	4	96	480	1
NMTAP	42	0	3
NMTAP	42	96	3
NMTAP	42	192	3
NMTAP	42	288	3
NMTAP	43	0	3
NMTAP	43	96	3
NMTAP	43	192	3
NMSTR	43	288	3
NMSLL	43	288	3	96	192	7
NMTAP	44	0	4
NMTAP	44	96	4
NMTAP	44	192	4
NMSTR	44	288	4
NMSLR	44	288	4	96	192	0
NMTAP	45	0	3
NMTAP	45	96	3
NMTAP	45	192	3
NMSTR	45	288	3
NMSCL	45	288	3	96	96	0
NMTAP	46	0	5
NMSTR	46	96	4
NMSCR	46	96	4	96	96	7
NMTAP	46	192	2
NMTAP	46	288	3
NMTAP	47	0	4
NMTAP	47	0	6
NMTAP	47	32	4
NMTAP	47	32	6
NMTAP	47	64	4
NMTAP	47	64	6
NMTAP	47	128	1
NMTAP	47	128	3
NMTAP	47	160	1
NMTAP	47	160	3
NMTAP	47	192	1
NMTAP	47	192	3
NMTAP	47	288	0
NMTAP	47	288	7
NMTAP	48	0	0
NMTAP	48	0	2
NMTAP	48	32	0
NMTAP	48	32	2
NMTAP	48	64	0
NMTAP	48	64	2
NMTAP	48	128	5
NMTAP	48	128	7
NMTAP	48	160	5
NMTAP	48	160	7
NMTAP	48	192	5
NMTAP	48	192	7
NMSTR	48	288	3
NMSCL	48	288	3	96	96	0
NMSTR	48	288	4
NMSCR	48	288	4	96	96	7
NMTTP	50	0	4	E	0	M1
NMTAP	50	96	4
NMTAP	50	96	5
NMTAP	50	288	4
NMTAP	50	288	5
NMTAP	51	96	2
NMTAP	51	96	3
NMTAP	51	288	2
NMTAP	51	288	3
NMTTP	52	0	4	E	0	M1
NMTTP	52	96	2	E	0	M1
NMTTP	52	192	0	E	0	M1
NMTTP	52	288	6	E	0	M1
NMTTP	53	0	4	E	0	M1
NMTAP	53	192	2
NMTAP	53	288	1
NMTAP	53	288	3
NMTAP	54	96	2
NMTAP	54	96	3
NMTAP	54	288	4
NMTAP	54	288	6
NMTAP	55	96	4
NMTAP	55	96	5
NMSTR	55	288	1
NMSUR	55	288	1	96	96	5
NMTAP	55	288	3
NMSTR	56	96	6
NMSCR	56	96	6	96	96	1
NMSTR	56	288	4
NMSSL	56	288	4	96	144	0
NMTAP	57	240	2
NMTAP	57	240	7
NMSTR	57	288	0
NMSCL	57	288	0	96	48	5
NMSTR	57	288	1
NMSCR	57	288	1	96	48	4
BXTAP	58	0	0
BXTAP	58	0	1
NMTAP	58	96	3
NMTAP	58	96	6
NMHLD	58	192	2	72
NMHLD	58	264	1	72
NMSTR	58	336	0
NMSCL	58	336	0	96	48	5
NMSCR	58	336	0	96	48	3
NMTAP	59	144	4
NMTAP	59	144	6
NMTAP	59	192	4
NMTAP	59	192	6
NMTAP	59	264	0
NMTAP	59	264	7
NMTAP	59	336	1
NMTAP	59	336	3
NMSTR	60	0	1
NMSI_	60	0	1	96	48	6
NMTAP	60	0	3
NMSTR	60	96	5
NMSI_	60	96	5	96	48	2
NMSTR	60	192	0
NMSI_	60	192	0	96	48	4
NMSTR	60	288	6
NMSCL	60	288	6	96	48	3
NMTAP	61	0	0
NMTAP	61	48	0
NMTAP	61	144	3
NMSTR	61	192	1
NMSUR	61	192	1	96	48	5
NMTAP	61	240	1
NMTAP	61	288	5
NMTAP	61	336	6
NMSTR	62	0	6
NMSI_	62	0	6	96	48	4
NMSTR	62	0	7
NMSI_	62	0	7	96	48	3
EXTAP	62	96	6
EXTAP	62	96	7
NMSTR	62	192	0
NMSI_	62	192	0	96	48	4
NMSTR	62	192	1
NMSI_	62	192	1	96	48	3
EXTAP	62	288	0
EXTAP	62	288	1
NMSTR	63	0	6
NMSCL	63	0	6	96	48	3
NMSTR	63	0	7
NMSCR	63	0	7	96	48	2
BXTAP	63	96	6
BXTAP	63	96	7
BRTAP	63	192	0
BRTAP	63	192	1
NMSTR	63	288	2
NMSI_	63	288	2	96	48	7
NMSTR	63	288	6
NMSI_	63	288	6	96	48	3
NMSTR	64	96	0
NMSCR	64	96	0	96	48	3
NMSTR	64	96	4
NMSCR	64	96	4	96	48	7
NMTAP	64	288	2
NMTAP	64	288	6
NMTTP	65	0	6	E	1	M1
NMTTP	65	48	7	B	1	M1
NMTTP	65	96	0	B	1	M1
NMTTP	65	144	2	E	1	M1
EXTAP	65	240	3
EXTAP	65	240	4
EXTAP	65	288	3
EXTAP	65	288	4
NMSTR	66	0	2
NMSI_	66	0	2	96	48	7
NMTAP	66	96	4
NMTAP	66	144	5
NMTAP	66	192	5
NMTAP	66	216	4
NMTAP	66	240	5
NMTAP	66	264	4
NMTAP	66	288	5
NMSTR	67	0	5
NMSI_	67	0	5	96	48	0
NMTAP	67	96	3
NMTAP	67	144	2
NMTAP	67	192	2
NMTAP	67	216	3
NMTAP	67	240	2
NMTAP	67	264	3
NMTAP	67	288	2
NMSTR	68	0	1
NMSI_	68	0	1	96	48	5
NMTAP	68	48	1
NMSTR	68	96	6
NMSI_	68	96	6	96	48	2
NMTAP	68	144	6
NMSTR	68	192	0
NMSLR	68	192	0	96	96	4
NMTAP	68	240	0
NMTAP	68	288	7
NMTAP	68	336	7
NMTAP	69	0	0
NMTAP	69	48	0
NMTAP	69	96	3
NMTAP	69	96	7
NMTAP	69	144	3
NMTAP	69	144	7
NMTAP	69	240	0
NMTAP	69	240	1
NMSTR	69	288	0
NMSI_	69	288	0	96	48	4
NMSTR	69	288	1
NMSI_	69	288	1	96	48	4
EXTAP	70	0	0
EXTAP	70	0	1
NMSTR	70	96	6
NMSI_	70	96	6	96	48	3
NMSTR	70	96	7
NMSI_	70	96	7	96	48	3
EXTAP	70	192	6
EXTAP	70	192	7
NMSTR	70	288	0
NMSI_	70	288	0	96	48	4
NMSTR	70	288	1
NMSI_	70	288	1	96	48	4
EXTAP	71	0	0
EXTAP	71	0	1
NMSTR	71	96	6
NMSI_	71	96	6	96	48	3
NMSTR	71	96	7
NMSI_	71	96	7	96	48	3
EXTAP	71	192	6
EXTAP	71	192	7
NMHLD	71	288	1	96
BRSTR	72	0	7
NMSCL	72	0	7	96	96	3
NMSTR	72	96	3
NMSCL	72	96	3	96	96	7
NMTAP	72	192	7
NMTAP	72	288	3
NMTAP	73	0	4
NMTAP	73	0	6
NMTAP	73	48	0
NMTAP	73	48	7
NMTAP	73	96	1
NMTAP	73	96	3
EXSTR	73	144	4
NMSV_	73	144	4	96	48	1
EXHLD	73	168	4	120

T_REC_TAP	224
T_REC_BRK	2
T_REC_XTP	28
T_REC_BXX	8
T_REC_HLD	24
T_REC_XHO	1
T_REC_BHO	0
T_REC_BXH	0
T_REC_STR	91
T_REC_BST	1
T_REC_XST	1
T_REC_XBS	0
T_REC_TTP	19
T_REC_THO	1
T_REC_SLD	97
T_REC_BSL	0
T_REC_ALL	497
T_NUM_TAP	363
T_NUM_BRK	11
T_NUM_HLD	26
T_NUM_SLD	97
T_NUM_ALL	497
T_JUDGE_TAP	374
T_JUDGE_HLD	54
T_JUDGE_SLD	97
T_JUDGE_ALL	525
TTM_EACHPAIRS	106
TTM_SCR_TAP	181500
TTM_SCR_BRK	28600
TTM_SCR_HLD	26000
TTM_SCR_SLD	145500
TTM_SCR_ALL	381600
TTM_SCR_S	369100
TTM_SCR_SS	380500
TTM_RAT_ACV	10028

