VERSION	0.00.00	1.05.00
FES_MODE	0
BPM_DEF	132.000	132.000	132.000	132.000
MET_DEF	4	4
RESOLUTION	384
CLK_DEF	384
COMPATIBLE_CODE	MA2

BPM	0	0	132.000
MET	0	0	4	4

NMHLD	1	224	1	112
NMTTP	3	0	7	E	0	M1
NMTTP	3	96	6	E	0	M1
NMTTP	3	192	5	E	0	M1
NMHLD	4	0	3	144
NMTAP	4	144	4
NMTAP	4	192	3
NMSTR	4	288	5
NMSI_	4	288	5	96	48	3
NMTAP	5	96	2
NMTAP	5	192	2
NMTAP	5	192	3
NMTAP	5	288	3
NMTAP	5	288	4
NMHLD	6	0	5	144
NMTAP	6	144	4
NMTAP	6	192	5
NMTAP	6	288	3
NMTAP	6	288	4
NMHLD	7	0	1	96
NMHLD	7	96	3	96
NMTAP	7	192	4
NMTAP	7	288	3
NMTAP	7	288	5
NMHLD	8	0	4	144
NMTAP	8	144	3
NMTAP	8	192	4
NMTAP	8	288	2
NMTAP	8	288	3
NMSTR	9	0	1
NMSCR	9	0	1	96	48	4
NMTAP	9	0	4
NMTAP	9	192	5
NMTAP	9	288	4
NMTAP	9	288	5
NMHLD	10	0	2	96
NMHLD	10	96	3	96
NMTAP	10	192	4
NMTAP	10	288	3
NMTAP	10	288	5
NMTAP	11	0	2
NMTAP	11	0	4
NMTAP	11	96	4
NMTAP	11	96	5
NMTAP	11	192	3
NMSTR	11	192	6
NMSCL	11	192	6	96	48	3
NMTAP	12	0	2
NMTAP	12	96	2
NMTAP	12	96	3
NMHLD	12	192	1	72
NMHLD	12	264	3	72
NMTAP	12	336	2
NMSTR	13	48	3
NMSUR	13	48	3	96	144	5
NMTAP	13	48	4
NMTAP	14	0	6
NMTAP	14	96	6
NMTAP	14	96	7
NMHLD	14	192	6	72
NMHLD	14	264	4	72
NMTAP	14	336	5
NMTAP	15	48	3
NMTAP	15	48	4
EXTAP	15	144	0
EXTAP	15	144	1
EXTAP	15	192	0
EXSTR	15	192	1
NMSI_	15	192	1	96	48	5
NMTAP	16	0	7
NMHLD	16	96	6	72
NMTAP	16	168	4
NMTAP	16	240	5
NMTAP	16	288	4
NMTAP	16	288	5
NMTAP	17	0	2
NMTAP	17	0	3
NMHLD	17	96	1	72
NMTAP	17	168	3
NMTAP	17	240	4
NMTAP	17	240	5
NMTAP	17	288	4
NMTAP	17	288	5
NMTAP	17	336	3
NMTAP	17	336	6
EXHLD	18	24	1	24
EXHLD	18	96	2	24
NMHLD	18	168	3	24
NMHLD	18	240	4	24
NMHLD	18	312	5	24
NMTAP	19	0	6
NMTAP	19	48	6
NMSTR	19	96	4
NMSCL	19	96	4	96	96	1
NMSCR	19	96	4	96	96	7
NMHLD	20	0	0	96
NMTAP	20	96	6
NMTAP	20	192	1
NMTAP	20	192	5
NMTAP	20	288	3
NMTAP	20	336	3
NMHLD	21	0	5	96
NMTAP	21	96	3
NMTAP	21	192	2
NMTAP	21	192	6
EXTAP	21	288	1
EXTAP	21	336	1
EXSTR	22	0	0
NMSI_	22	0	0	96	48	3
EXSTR	22	0	4
NMSI_	22	0	4	96	48	7
EXTAP	22	192	4
EXTAP	22	192	6
EXTAP	22	264	0
EXTAP	22	264	7
EXTAP	22	336	1
EXHLD	22	336	3	288
NMTTP	23	240	0	C	1	M1
BRSTR	24	0	0
NMSCR	24	0	0	96	48	3
BRSTR	24	0	6
NMSCL	24	0	6	96	48	3
NMHLD	24	192	7	72
NMHLD	24	264	1	72
NMSTR	24	336	3
NMSF_	24	336	3	96	48	7
NMTAP	25	144	1
NMTAP	25	144	5
NMTAP	25	192	1
NMTAP	25	192	5
NMTAP	25	264	4
NMTAP	25	264	6
NMTAP	25	336	0
NMTAP	25	336	7
NMSTR	26	0	0
NMSI_	26	0	0	96	48	2
NMSTR	26	0	7
NMSI_	26	0	7	96	48	3
NMTAP	26	192	4
NMTAP	26	192	5
NMTAP	26	264	6
NMTAP	26	264	7
NMTAP	26	336	0
NMSTR	26	336	1
NMSCR	26	336	1	96	48	4
NMTAP	27	144	7
NMTAP	27	192	7
NMTAP	27	264	4
NMTAP	27	264	5
NMTAP	27	336	1
NMTAP	27	336	3
NMTAP	28	0	1
NMSTR	28	0	3
NMSI_	28	0	3	96	48	7
NMTAP	28	192	0
NMSTR	28	192	1
NMSI_	28	192	1	96	48	5
NMSTR	29	0	4
NMSI_	29	0	4	96	48	0
NMSTR	29	0	6
NMSI_	29	0	6	96	48	4
NMSTR	29	192	1
NMSCR	29	192	1	96	48	4
NMSTR	29	192	3
NMSI_	29	192	3	96	48	7
NMHLD	30	0	6	72
NMHLD	30	72	5	72
NMTAP	30	144	4
NMHLD	30	192	0	72
NMHLD	30	264	1	72
NMTAP	30	336	2
NMTAP	31	0	2
NMTAP	31	0	3
NMTAP	31	48	2
NMTAP	31	48	3
NMTAP	31	96	2
NMTAP	31	96	3
BXHLD	31	144	0	96
BXHLD	31	144	4	96
BRSTR	32	0	1
NMSCR	32	0	1	96	48	4
BRSTR	32	0	7
NMSCL	32	0	7	96	48	4
NMHLD	32	192	0	72
NMHLD	32	264	6	72
NMSTR	32	336	4
NMSF_	32	336	4	96	48	0
NMTAP	33	144	2
NMTAP	33	144	6
NMTAP	33	192	2
NMTAP	33	192	6
NMTAP	33	264	1
NMTAP	33	264	3
NMTAP	33	336	0
NMTAP	33	336	7
NMSTR	34	0	0
NMSI_	34	0	0	96	48	4
NMSTR	34	0	7
NMSI_	34	0	7	96	48	5
NMTAP	34	192	2
NMTAP	34	192	3
NMTAP	34	264	0
NMTAP	34	264	1
NMSTR	34	336	6
NMSCL	34	336	6	96	48	3
NMTAP	34	336	7
NMTAP	35	144	0
NMTAP	35	192	0
NMTAP	35	264	2
NMTAP	35	264	3
NMTAP	35	336	4
NMTAP	35	336	6
NMSTR	36	0	4
NMSI_	36	0	4	96	48	0
NMTAP	36	0	6
NMSTR	36	192	6
NMSI_	36	192	6	96	48	2
NMTAP	36	192	7
NMSTR	37	0	1
NMSI_	37	0	1	96	48	3
NMSTR	37	0	3
NMSI_	37	0	3	96	48	7
NMSTR	37	192	4
NMSI_	37	192	4	96	48	0
NMSTR	37	192	6
NMSCL	37	192	6	96	48	3
NMHLD	38	0	1	72
NMHLD	38	72	2	72
NMTAP	38	144	3
NMHLD	38	192	7	72
NMHLD	38	264	6	72
NMTAP	38	336	5
NMTAP	39	0	4
NMTAP	39	0	5
NMTAP	39	48	4
NMTAP	39	48	5
NMTAP	39	96	4
NMTAP	39	96	5
BXHLD	39	144	3	144
BXHLD	39	144	7	144
NMSTR	40	0	5
NMSCL	40	0	5	96	48	3
NMSTR	40	192	1
NMSUR	40	192	1	96	48	5
NMSTR	41	0	7
NMSUL	41	0	7	96	96	1
NMTAP	41	192	0
NMTAP	41	288	1
NMTAP	41	288	7
NMSTR	42	0	2
NMSCR	42	0	2	96	48	4
NMSTR	42	192	6
NMSUL	42	192	6	96	48	2
NMSTR	43	0	0
NMSUR	43	0	0	96	96	6
NMTAP	43	192	7
NMTAP	43	288	0
NMTAP	43	288	6
NMSTR	44	0	5
NMSCL	44	0	5	96	48	2
NMSTR	44	192	1
NMSUR	44	192	1	96	72	6
NMHLD	45	0	7	72
NMHLD	45	72	5	72
NMTAP	45	144	4
NMTAP	45	240	2
NMTAP	45	240	6
NMTAP	45	288	2
NMTAP	45	288	6
NMHLD	46	0	0	72
NMHLD	46	72	1	72
NMTAP	46	144	2
NMHLD	46	192	7	72
NMHLD	46	264	6	72
NMTAP	46	336	5
NMTAP	47	0	0
NMTAP	47	32	0
NMTAP	47	64	0
NMTAP	47	128	1
NMTAP	47	128	7
NMTAP	47	160	1
NMTAP	47	160	7
NMTAP	47	192	1
NMTAP	47	192	7
BRTAP	47	288	3
BRTAP	47	288	4
NMTAP	48	0	0
NMTAP	48	0	6
NMTAP	48	32	0
NMTAP	48	32	6
NMTAP	48	64	0
NMTAP	48	64	6
NMTAP	48	128	1
NMTAP	48	128	5
NMTAP	48	160	1
NMTAP	48	160	5
NMSTR	48	192	1
BRSI_	48	192	1	96	48	6
NMSTR	48	192	5
BRSI_	48	192	5	96	48	2
NMTHO	49	240	0	144	C	0	M1
NMTAP	52	0	5
NMTAP	52	96	5
NMTAP	52	192	4
NMTAP	52	288	4
NMTAP	53	0	3
NMTAP	53	96	3
NMTAP	53	192	2
NMTAP	53	288	2
NMTTP	54	0	1	E	0	M1
NMTTP	54	96	2	E	0	M1
NMTTP	54	192	3	E	0	M1
NMTTP	54	288	4	E	0	M1
NMTTP	55	0	5	E	0	M1
NMTTP	55	96	6	E	0	M1
NMTTP	55	192	7	E	0	M1
NMTTP	55	288	0	E	0	M1
NMTAP	56	0	1
NMTAP	56	96	3
NMTAP	56	192	4
NMTAP	56	288	6
EXTAP	57	0	0
EXTAP	57	0	7
EXTAP	57	48	1
EXTAP	57	48	6
EXTAP	57	96	2
EXTAP	57	96	5
EXSTR	57	144	3
NMSCL	57	144	3	96	72	0
EXSTR	57	144	4
NMSCR	57	144	4	96	72	7
NMTTP	58	0	0	E	1	M1
NMTTP	58	0	0	A	0	M1
NMTTP	58	0	1	E	0	M1
NMTTP	58	0	7	E	0	M1
NMTTP	58	0	7	A	0	M1
NMTAP	58	192	1
NMTAP	58	192	3
NMTAP	58	264	0
NMTAP	58	264	7
NMSTR	58	336	4
NMSI_	58	336	4	96	48	0
NMSTR	58	336	6
NMSI_	58	336	6	96	48	3
NMTAP	59	144	7
NMTAP	59	192	7
NMTAP	59	264	4
NMTAP	59	264	5
NMTAP	59	336	1
NMTAP	59	336	3
NMSTR	60	0	1
NMSI_	60	0	1	96	48	4
NMSTR	60	0	3
NMSI_	60	0	3	96	48	7
NMHLD	60	192	6	72
NMHLD	60	264	5	72
NMSTR	60	336	4
NMSI_	60	336	4	96	48	0
NMTAP	61	144	1
NMHLD	61	192	1	72
NMHLD	61	264	2	72
BRTAP	61	336	3
NMTAP	62	96	4
NMTAP	62	96	5
EXTAP	62	144	3
EXTAP	62	144	6
EXTAP	62	168	3
EXTAP	62	168	6
NMTAP	62	288	2
NMTAP	62	288	3
EXTAP	62	336	1
EXTAP	62	336	4
EXTAP	62	360	1
EXTAP	62	360	4
NMTAP	63	96	0
NMTAP	63	96	7
EXTAP	63	144	1
EXTAP	63	144	6
BXTAP	63	168	1
BXTAP	63	168	6
NMTAP	63	288	6
NMTAP	63	288	7
NMTAP	63	336	6
NMTAP	63	336	7
NMTAP	64	0	0
NMHLD	64	0	5	72
NMTAP	64	72	4
NMTAP	64	144	0
NMTAP	64	144	1
NMHLD	64	192	2	72
NMTAP	64	192	7
NMTAP	64	264	3
NMTAP	64	336	3
NMTAP	64	336	4
NMTAP	65	0	3
NMTAP	65	0	4
NMTAP	65	48	2
NMTAP	65	48	5
NMTAP	65	96	1
NMTAP	65	96	6
BXHLD	65	144	0	96
BXHLD	65	144	7	96
EXTAP	65	288	1
EXTAP	65	288	6
NMSTR	66	0	4
NMSCL	66	0	4	96	72	1
NMSTR	66	0	5
NMSUL	66	0	5	96	72	0
NMTAP	66	240	0
NMTAP	66	240	1
NMTAP	66	288	0
NMTAP	66	288	1
NMSTR	67	0	2
NMSUR	67	0	2	96	72	7
NMSTR	67	0	3
NMSCR	67	0	3	96	72	6
NMTAP	67	240	6
NMTAP	67	240	7
NMTAP	67	288	6
NMTAP	67	288	7
NMSTR	68	0	4
NMSI_	68	0	4	96	48	1
NMSTR	68	0	5
NMSI_	68	0	5	96	48	0
NMTAP	68	192	7
NMTAP	68	240	7
NMTAP	68	288	0
NMTAP	68	288	6
NMTAP	69	0	5
NMTAP	69	48	5
NMTAP	69	96	4
NMTAP	69	96	6
NMSTR	69	192	2
NMSI_	69	192	2	96	48	7
NMSTR	69	192	3
NMSI_	69	192	3	96	48	6
NMTAP	70	0	0
NMTAP	70	48	0
NMTAP	70	96	1
NMTAP	70	96	7
NMTAP	70	192	2
NMTAP	70	240	2
NMTAP	70	288	1
NMTAP	70	288	3
NMTAP	71	0	5
NMTAP	71	48	5
NMTAP	71	96	4
NMTAP	71	96	6
NMTAP	71	192	7
NMTAP	71	240	7
EXTAP	71	288	0
EXTAP	71	288	6
EXTAP	71	336	0
EXTAP	71	336	6
EXSTR	72	0	1
NMSI_	72	0	1	96	48	4
EXSTR	72	0	5
NMSI_	72	0	5	96	48	0
NMHLD	72	192	6	72
NMHLD	72	264	4	72
NMTAP	72	336	3
NMTAP	73	0	1
NMTAP	73	0	5
NMTAP	73	48	1
NMTAP	73	48	5
NMTAP	73	96	1
NMTAP	73	96	5
EXTAP	73	144	0
EXTAP	73	144	6
EXSTR	73	168	0
NMSCR	73	168	0	96	48	3
EXSTR	73	168	6
NMSCL	73	168	6	96	48	3

T_REC_TAP	239
T_REC_BRK	3
T_REC_XTP	34
T_REC_BXX	2
T_REC_HLD	45
T_REC_XHO	3
T_REC_BHO	0
T_REC_BXH	6
T_REC_STR	48
T_REC_BST	4
T_REC_XST	9
T_REC_XBS	0
T_REC_TTP	17
T_REC_THO	1
T_REC_SLD	60
T_REC_BSL	2
T_REC_ALL	473
T_NUM_TAP	347
T_NUM_BRK	17
T_NUM_HLD	49
T_NUM_SLD	60
T_NUM_ALL	473
T_JUDGE_TAP	356
T_JUDGE_HLD	116
T_JUDGE_SLD	62
T_JUDGE_ALL	534
TTM_EACHPAIRS	131
TTM_SCR_TAP	173500
TTM_SCR_BRK	44200
TTM_SCR_HLD	49000
TTM_SCR_SLD	90000
TTM_SCR_ALL	356700
TTM_SCR_S	344350
TTM_SCR_SS	355000
TTM_RAT_ACV	10047

