VERSION	0.00.00	1.05.00
FES_MODE	0
BPM_DEF	132.000	132.000	132.000	132.000
MET_DEF	4	4
RESOLUTION	384
CLK_DEF	384
COMPATIBLE_CODE	MA2

BPM	0	0	132.000
MET	0	0	4	4

NMTAP	4	0	6
NMTAP	4	96	6
NMTAP	4	192	6
NMTAP	5	0	5
NMTAP	5	96	5
NMTAP	5	192	5
NMTAP	6	0	4
NMTAP	6	96	4
NMTAP	6	192	4
NMTAP	7	0	2
NMTAP	7	0	3
NMTAP	7	192	2
NMTAP	7	192	3
NMTAP	8	0	1
NMTAP	8	96	1
NMTAP	8	192	1
NMTAP	9	0	2
NMTAP	9	96	2
NMTAP	9	192	2
NMTAP	10	0	3
NMTAP	10	96	3
NMTAP	10	192	3
NMTAP	11	0	4
NMTAP	11	0	5
NMTAP	11	192	4
NMTAP	11	192	5
NMHLD	12	0	5	192
NMHLD	12	192	4	192
NMHLD	13	0	3	192
NMTAP	13	192	2
NMHLD	14	0	2	192
NMHLD	14	192	3	192
NMHLD	15	0	4	192
NMTAP	15	192	5
NMTAP	16	0	6
NMTAP	16	96	6
NMTAP	16	192	6
NMTAP	16	192	7
NMTAP	17	0	5
NMTAP	17	96	5
NMTAP	17	192	4
NMTAP	17	192	5
NMTAP	18	0	3
NMTAP	18	96	3
NMTAP	18	192	2
NMTAP	18	192	3
NMTAP	19	0	0
NMTAP	19	0	1
NMTAP	19	96	0
NMTAP	19	96	1
NMTAP	19	192	0
NMTAP	19	192	1
NMTAP	20	0	1
NMTAP	20	96	1
NMTAP	20	192	0
NMTAP	20	192	1
NMTAP	21	0	2
NMTAP	21	96	2
NMTAP	21	192	2
NMTAP	21	192	3
NMTAP	22	0	4
NMTAP	22	96	4
NMTAP	22	192	4
NMTAP	22	192	5
NMTAP	23	0	6
NMTAP	23	0	7
NMTAP	23	96	6
NMTAP	23	96	7
NMTAP	23	192	6
NMTAP	23	192	7
BXTAP	24	0	5
NMTAP	24	96	5
NMTAP	24	192	6
NMTAP	24	288	6
NMTAP	25	0	7
NMTAP	25	96	7
NMTAP	25	192	0
NMTAP	25	192	1
NMTAP	26	0	2
NMTAP	26	96	2
NMTAP	26	192	1
NMTAP	26	288	1
NMTAP	27	0	0
NMTAP	27	96	0
NMTAP	27	192	6
NMTAP	27	192	7
NMTAP	28	0	6
NMTAP	28	96	6
NMTAP	28	192	5
NMTAP	28	288	5
NMTAP	29	0	4
NMTAP	29	96	4
NMTAP	29	192	2
NMTAP	29	192	3
NMTAP	30	0	1
NMTAP	30	96	1
NMTAP	30	192	2
NMTAP	30	288	2
NMTAP	31	0	3
NMTAP	31	96	3
NMTAP	31	192	4
NMTAP	31	192	5
BXTAP	32	0	5
NMTAP	32	96	5
NMTAP	32	192	6
NMTAP	32	288	6
NMTAP	33	0	7
NMTAP	33	96	7
NMTAP	33	192	0
NMTAP	33	192	1
NMTAP	34	0	2
NMTAP	34	96	2
NMTAP	34	192	1
NMTAP	34	288	1
NMTAP	35	0	0
NMTAP	35	96	0
NMTAP	35	192	6
NMTAP	35	192	7
NMTAP	36	0	6
NMTAP	36	96	6
NMTAP	36	192	5
NMTAP	36	288	5
NMTAP	37	0	4
NMTAP	37	96	4
NMTAP	37	192	2
NMTAP	37	192	3
NMTAP	38	0	1
NMTAP	38	96	1
NMTAP	38	192	2
NMTAP	38	288	2
NMTAP	39	0	3
NMTAP	39	96	3
NMTAP	39	192	4
NMTAP	39	192	5
NMSTR	40	0	6
NMSI_	40	0	6	96	192	3
NMSTR	41	0	2
NMSI_	41	0	2	96	192	5
NMSTR	42	0	6
NMSI_	42	0	6	96	192	2
NMSTR	43	0	1
NMSI_	43	0	1	96	192	5
NMSTR	44	0	7
NMSI_	44	0	7	96	192	3
NMSTR	45	0	2
NMSI_	45	0	2	96	192	7
NMSTR	46	0	6
NMSUL	46	0	6	96	480	3
NMHLD	48	0	2	384
NMHLD	48	0	3	384
NMTTP	50	0	1	B	0	L1
NMTTP	50	96	2	B	0	L1
NMTTP	50	192	3	B	0	L1
NMTTP	51	0	6	B	0	L1
NMTTP	51	96	5	B	0	L1
NMTTP	51	192	4	B	0	L1
NMTTP	52	0	1	B	0	L1
NMTTP	52	96	2	B	0	L1
NMTTP	52	192	3	B	0	L1
NMTTP	52	288	4	B	0	L1
NMTTP	53	0	5	B	0	L1
NMTTP	53	96	6	B	0	L1
NMTTP	53	192	0	C	0	L1
NMTTP	54	0	7	B	0	L1
NMTTP	54	96	6	B	0	L1
NMTTP	54	192	4	B	0	L1
NMTTP	54	192	5	B	0	L1
NMTTP	55	0	0	B	0	L1
NMTTP	55	96	1	B	0	L1
NMTTP	55	192	2	B	0	L1
NMTTP	55	192	3	B	0	L1
NMTTP	56	0	6	B	0	L1
NMTTP	56	96	5	B	0	L1
NMTTP	56	192	4	B	0	L1
NMTTP	56	288	3	B	0	L1
NMTTP	57	0	0	C	1	L1
BRTAP	58	0	6
NMTAP	58	96	6
NMTAP	58	192	6
NMTAP	58	192	7
NMTAP	58	288	6
NMTAP	58	288	7
NMTAP	59	0	0
NMTAP	59	96	0
NMTAP	59	192	0
NMTAP	59	192	1
NMTAP	60	0	2
NMTAP	60	96	2
NMTAP	60	192	0
NMTAP	60	192	1
NMTAP	60	288	0
NMTAP	60	288	1
NMTAP	61	0	7
NMTAP	61	96	7
NMTAP	61	192	6
NMTAP	61	192	7
NMTAP	62	0	6
NMTAP	62	96	6
NMTAP	62	192	4
NMTAP	62	192	5
NMTAP	62	288	4
NMTAP	62	288	5
NMTAP	63	0	3
NMTAP	63	96	3
NMTAP	63	192	2
NMTAP	63	192	3
NMTAP	64	0	1
NMTAP	64	96	1
NMTAP	64	192	2
NMTAP	64	192	3
NMTAP	64	288	2
NMTAP	64	288	3
NMTAP	65	0	4
NMTAP	65	96	4
NMTAP	65	192	4
NMTAP	65	192	5
NMTAP	66	0	6
NMTAP	66	96	5
NMTAP	66	192	4
NMTAP	66	288	3
NMTAP	67	0	2
NMTAP	67	96	1
NMTAP	67	192	0
NMTAP	67	192	7
NMTAP	68	0	1
NMTAP	68	96	2
NMTAP	68	192	3
NMTAP	68	288	4
NMTAP	69	0	5
NMTAP	69	96	6
NMTAP	69	192	0
NMTAP	69	192	7
NMTAP	70	0	7
NMTAP	70	96	6
NMTAP	70	192	5
NMTAP	70	288	4
NMTAP	71	0	3
NMTAP	71	96	2
NMTAP	71	192	1
NMTAP	71	288	0
NMTAP	72	0	7
NMTAP	72	96	6
NMTAP	72	192	5
NMTAP	72	288	4
NMSTR	73	0	3
NMSI_	73	0	3	96	192	0
NMSTR	73	0	4
NMSI_	73	0	4	96	192	7

T_REC_TAP	193
T_REC_BRK	1
T_REC_XTP	0
T_REC_BXX	2
T_REC_HLD	8
T_REC_XHO	0
T_REC_BHO	0
T_REC_BXH	0
T_REC_STR	9
T_REC_BST	0
T_REC_XST	0
T_REC_XBS	0
T_REC_TTP	26
T_REC_THO	0
T_REC_SLD	9
T_REC_BSL	0
T_REC_ALL	248
T_NUM_TAP	228
T_NUM_BRK	3
T_NUM_HLD	8
T_NUM_SLD	9
T_NUM_ALL	248
T_JUDGE_TAP	231
T_JUDGE_HLD	40
T_JUDGE_SLD	9
T_JUDGE_ALL	280
TTM_EACHPAIRS	40
TTM_SCR_TAP	114000
TTM_SCR_BRK	7800
TTM_SCR_HLD	8000
TTM_SCR_SLD	13500
TTM_SCR_ALL	143300
TTM_SCR_S	138750
TTM_SCR_SS	143000
TTM_RAT_ACV	10020

