VERSION	0.00.00	1.05.00
FES_MODE	0
BPM_DEF	132.000	132.000	132.000	132.000
MET_DEF	4	4
RESOLUTION	384
CLK_DEF	384
COMPATIBLE_CODE	MA2

BPM	0	0	132.000
MET	0	0	4	4

NMTAP	4	0	0
NMTAP	4	192	0
EXTAP	5	0	1
NMTAP	6	0	2
NMTAP	6	192	2
NMTAP	7	0	3
NMTAP	8	0	4
NMTAP	8	192	4
NMTAP	9	0	5
NMTAP	10	0	6
NMTAP	10	192	6
NMTAP	11	0	0
NMTAP	11	0	7
NMTAP	12	0	6
NMTAP	12	192	6
NMTAP	13	0	6
NMTAP	13	0	7
NMTAP	14	0	1
NMTAP	14	192	1
NMTAP	15	0	0
NMTAP	15	0	1
NMHLD	16	0	6	192
NMHLD	16	0	7	192
NMTAP	17	0	6
NMTAP	17	0	7
NMHLD	18	0	4	192
NMHLD	18	0	5	192
NMTAP	19	0	4
NMTAP	19	0	5
NMHLD	20	0	2	192
NMHLD	20	0	3	192
NMTAP	21	0	2
NMTAP	21	0	3
NMHLD	22	0	0	192
NMHLD	22	0	1	192
NMTAP	23	0	0
NMTAP	23	0	1
BXTAP	24	0	0
NMTAP	24	96	0
NMTAP	24	192	0
NMTAP	25	0	1
NMTAP	25	192	1
NMTAP	26	0	2
NMTAP	26	96	2
NMTAP	26	192	2
EXTAP	27	0	2
EXTAP	27	0	3
NMTAP	28	0	4
NMTAP	28	96	4
NMTAP	28	192	4
NMTAP	29	0	5
NMTAP	29	192	5
NMTAP	30	0	6
NMTAP	30	96	6
NMTAP	30	192	6
NMTAP	31	0	6
NMTAP	31	0	7
BXTAP	32	0	7
NMTAP	32	96	7
NMTAP	32	192	7
NMTAP	33	0	6
NMTAP	33	192	6
NMTAP	34	0	5
NMTAP	34	96	5
NMTAP	34	192	5
EXTAP	35	0	3
EXTAP	35	0	4
NMTAP	36	0	3
NMTAP	36	96	3
NMTAP	36	192	3
NMTAP	37	0	2
NMTAP	37	192	2
NMTAP	38	0	1
NMTAP	38	96	1
NMTAP	38	192	1
BRTAP	39	0	0
BRTAP	39	0	7
NMTTP	40	0	7	B	0	L1
NMTTP	41	0	0	B	0	L1
NMTTP	42	0	6	B	0	L1
NMTTP	43	0	1	B	0	L1
NMTTP	44	0	5	B	0	L1
NMTTP	45	0	2	B	0	L1
NMTTP	46	0	4	B	0	L1
NMTTP	47	0	3	B	0	L1
NMTHO	48	0	0	288	C	1	L1
EXSTR	50	0	0
NMSI_	50	0	0	96	288	4
NMSTR	52	0	5
NMSI_	52	0	5	96	288	0
NMSTR	54	0	1
NMSI_	54	0	1	96	288	5
NMSTR	56	0	6
NMSI_	56	0	6	96	288	2
BRTAP	58	0	0
NMTAP	58	96	0
NMTAP	58	192	0
NMTAP	59	0	1
NMTAP	59	96	1
NMTAP	59	192	1
NMTAP	60	0	2
NMTAP	60	96	2
NMTAP	60	192	2
EXTAP	61	0	3
EXTAP	61	0	4
EXTAP	61	192	3
EXTAP	61	192	4
NMTAP	62	0	4
NMTAP	62	96	4
NMTAP	62	192	4
NMTAP	63	0	5
NMTAP	63	96	5
NMTAP	63	192	5
NMTAP	64	0	6
NMTAP	64	96	6
NMTAP	64	192	6
BRTAP	65	0	0
BRTAP	65	0	7
NMTAP	66	0	7
NMTAP	66	96	7
NMTAP	66	192	7
NMTAP	67	0	6
NMTAP	67	0	7
NMTAP	67	96	6
NMTAP	67	96	7
NMTAP	67	192	6
NMTAP	67	192	7
NMTAP	68	0	5
NMTAP	68	96	5
NMTAP	68	192	5
NMTAP	69	0	3
NMTAP	69	0	4
NMTAP	69	96	3
NMTAP	69	96	4
NMTAP	69	192	3
NMTAP	69	192	4
NMTAP	70	0	2
NMTAP	70	96	2
NMTAP	70	192	2
NMTAP	71	0	0
NMTAP	71	0	1
NMTAP	71	96	0
NMTAP	71	96	1
NMTAP	71	192	0
NMTAP	71	192	1
NMTAP	72	0	7
NMTAP	72	96	7
NMTAP	72	192	0
NMTAP	72	192	7
EXTAP	73	0	1
EXTAP	73	0	6
EXHLD	73	96	1	192
EXHLD	73	96	6	192

T_REC_TAP	108
T_REC_BRK	5
T_REC_XTP	11
T_REC_BXX	2
T_REC_HLD	8
T_REC_XHO	2
T_REC_BHO	0
T_REC_BXH	0
T_REC_STR	3
T_REC_BST	0
T_REC_XST	1
T_REC_XBS	0
T_REC_TTP	8
T_REC_THO	1
T_REC_SLD	4
T_REC_BSL	0
T_REC_ALL	153
T_NUM_TAP	131
T_NUM_BRK	7
T_NUM_HLD	11
T_NUM_SLD	4
T_NUM_ALL	153
T_JUDGE_TAP	138
T_JUDGE_HLD	46
T_JUDGE_SLD	4
T_JUDGE_ALL	188
TTM_EACHPAIRS	30
TTM_SCR_TAP	65500
TTM_SCR_BRK	18200
TTM_SCR_HLD	11000
TTM_SCR_SLD	6000
TTM_SCR_ALL	100700
TTM_SCR_S	97000
TTM_SCR_SS	100000
TTM_RAT_ACV	10070

