VERSION	0.00.00	1.05.00
FES_MODE	0
BPM_DEF	143.000	143.000	169.000	143.000
MET_DEF	4	4
RESOLUTION	384
CLK_DEF	384
COMPATIBLE_CODE	MA2

BPM	0	0	143.000
BPM	38	0	169.000
BPM	56	0	143.000
MET	0	0	4	4

NMHLD	1	0	2	720
NMHLD	1	0	4	48
NMHLD	1	96	4	48
NMHLD	1	192	3	48
NMHLD	1	288	3	48
NMHLD	2	0	4	48
NMHLD	2	96	4	48
NMHLD	2	192	3	48
NMHLD	2	288	4	48
NMHLD	3	0	3	48
NMHLD	3	0	5	576
NMHLD	3	96	3	48
NMHLD	3	192	4	48
NMHLD	3	288	4	48
NMHLD	4	0	3	48
NMHLD	4	96	3	48
NMSTR	4	192	4
NMSI_	4	192	4	96	48	0
EXTAP	5	0	1
EXTAP	5	0	7
NMTAP	5	96	2
NMTAP	5	96	3
NMTAP	5	144	1
NMTAP	5	168	3
NMHLD	5	192	2	48
NMTAP	5	240	3
NMTAP	5	264	2
NMTAP	6	0	2
NMTAP	6	24	3
NMTAP	6	48	2
NMTAP	6	96	1
NMTAP	6	96	4
NMTAP	6	144	2
NMTAP	6	168	3
NMSTR	6	240	2
NMSI_	6	240	2	96	48	4
NMTAP	6	288	1
NMTAP	6	336	2
NMTAP	7	96	5
NMTAP	7	120	4
NMTAP	7	144	5
NMTAP	7	168	4
NMTAP	7	192	6
NMTAP	7	240	6
NMTAP	7	264	4
NMTAP	7	312	4
NMSTR	7	336	5
NMSCR	7	336	5	96	48	7
NMTTP	8	96	3	B	0	M1
NMTTP	8	96	4	E	0	M1
NMTAP	8	192	6
NMTAP	8	216	4
NMTAP	8	240	5
NMTAP	8	264	4
NMSTR	8	288	6
NMSI_	8	288	6	96	48	3
NMTAP	8	336	2
NMTAP	9	0	6
NMTAP	9	96	1
NMTAP	9	120	3
NMTAP	9	144	1
NMTAP	9	168	3
NMHLD	9	192	2	48
NMTAP	9	240	3
NMTAP	9	264	2
NMTAP	9	336	2
NMTAP	9	336	3
NMTAP	10	0	2
NMTAP	10	24	3
NMTAP	10	48	2
NMTAP	10	96	1
NMTAP	10	96	4
NMTAP	10	144	2
NMHLD	10	168	3	72
NMTAP	10	240	2
NMSTR	10	288	3
NMSXR	10	288	3	96	96	4
NMTAP	10	288	4
NMTAP	10	336	5
NMTAP	11	96	6
NMTAP	11	144	5
NMTAP	11	168	4
NMTAP	11	192	5
NMSTR	11	240	5
NMSUR	11	240	5	96	144	2
NMTAP	11	264	4
NMTAP	11	288	6
NMHLD	12	192	1	48
NMHLD	12	192	3	48
NMHLD	12	288	1	48
NMHLD	12	288	3	48
NMTAP	13	0	0
NMTAP	13	0	1
NMTAP	13	48	0
NMTAP	13	48	1
NMTAP	13	96	2
NMTAP	13	96	7
NMTAP	13	144	1
NMTAP	13	168	0
NMTAP	13	192	1
BXTAP	13	240	0
BXTAP	13	240	1
BXTAP	13	288	0
BXTAP	13	288	7
EXTAP	13	336	6
EXTAP	13	336	7
NMTAP	14	0	6
NMTAP	14	24	7
NMTAP	14	48	6
NMTAP	14	96	0
NMTAP	14	120	7
NMTAP	14	144	0
NMSTR	14	192	6
NMSI_	14	192	6	96	48	2
NMSI_	14	192	6	96	48	3
NMTAP	14	240	5
NMTAP	14	240	7
NMTAP	15	0	1
NMTAP	15	0	4
NMSTR	15	48	1
NMSXL	15	48	1	96	144	5
NMTAP	15	48	4
NMTAP	15	144	5
NMTAP	15	192	6
NMTAP	15	240	7
NMTAP	15	288	7
NMSTR	16	0	4
NMSI_	16	0	4	96	48	6
NMHLD	16	0	7	288
NMSTR	16	192	5
NMSI_	16	192	5	96	48	3
NMTTP	17	0	3	E	0	M1
NMTTP	17	32	7	E	0	M1
NMTTP	17	64	2	E	0	M1
NMTTP	17	96	6	E	0	M1
NMTTP	17	128	1	E	0	M1
NMTTP	17	160	5	E	0	M1
NMTHO	17	192	0	96	C	0	M1
NMTTP	17	288	4	A	0	M1
NMTTP	17	320	0	A	0	M1
NMTTP	17	352	5	A	0	M1
NMTTP	18	0	1	A	0	M1
NMTTP	18	32	6	A	0	M1
NMTTP	18	64	2	A	0	M1
NMTTP	18	96	7	A	0	M1
NMTTP	18	128	3	A	0	M1
NMTTP	18	160	0	C	0	M1
BRTAP	18	192	0
NMTAP	18	288	7
NMSTR	18	336	7
NMSI_	18	336	7	96	48	3
NMTAP	19	48	3
NMTAP	19	96	2
NMTAP	19	144	1
NMSTR	19	192	0
NMSI_	19	192	0	96	48	2
NMTAP	19	240	0
NMSTR	19	288	3
NMSI_	19	288	3	96	48	7
NMTAP	19	336	3
NMSTR	20	0	1
NMSI_	20	0	1	96	48	5
NMTAP	20	48	1
NMSTR	20	96	0
NMSF_	20	96	0	96	48	4
BRTAP	20	288	2
BRTAP	20	288	6
NMTTP	21	0	0	C	0	M1
NMTTP	21	0	1	E	0	M1
NMTTP	21	96	2	E	0	M1
NMTTP	21	192	3	E	0	M1
NMTTP	21	288	4	E	0	M1
NMTTP	22	0	0	C	0	M1
NMTTP	22	0	5	E	0	M1
NMTTP	22	96	6	E	0	M1
NMTTP	22	192	7	E	0	M1
NMTTP	22	288	0	E	0	M1
NMTTP	23	0	0	C	0	M1
NMTTP	23	0	7	E	0	M1
NMTTP	23	96	6	E	0	M1
NMTTP	23	192	5	E	0	M1
NMTTP	23	288	4	E	0	M1
NMTTP	24	0	0	C	0	M1
NMTTP	24	0	3	E	0	M1
NMTTP	24	96	2	E	0	M1
NMTTP	24	192	1	E	0	M1
NMTTP	24	288	0	E	0	M1
NMTTP	24	288	0	A	0	M1
NMTTP	24	288	0	D	0	M1
NMTTP	24	288	7	A	0	M1
NMHLD	25	0	2	48
NMHLD	25	0	4	48
NMHLD	25	96	2	48
NMHLD	25	96	4	48
NMHLD	25	192	2	48
NMHLD	25	192	4	48
NMHLD	25	264	3	48
NMHLD	25	264	5	48
NMTAP	25	336	4
NMTAP	25	336	6
NMHLD	26	0	4	48
NMHLD	26	0	6	48
NMHLD	26	96	4	48
NMHLD	26	96	6	48
NMHLD	26	192	4	48
NMHLD	26	192	6	48
NMHLD	26	264	3	48
NMHLD	26	264	5	48
NMTAP	26	336	2
NMTAP	26	336	4
NMTAP	27	0	1
NMTAP	27	0	3
NMTAP	27	48	1
NMTAP	27	96	2
NMTAP	27	96	4
NMTAP	27	144	4
NMTAP	27	192	3
NMTAP	27	192	5
NMTAP	27	240	3
NMTAP	27	288	4
NMTAP	27	288	6
NMTAP	27	336	6
NMTAP	28	0	3
NMTAP	28	24	7
NMTAP	28	48	3
NMTAP	28	72	7
NMTAP	28	96	2
NMTAP	28	120	6
NMTAP	28	144	2
NMTAP	28	168	6
NMSTR	28	192	1
NMSI_	28	192	1	96	48	5
NMTAP	28	216	5
NMTAP	28	240	1
NMTAP	28	264	5
NMTAP	28	288	1
NMTAP	29	0	4
NMTAP	29	0	6
EXHLD	29	192	0	72
EXHLD	29	192	7	96
BRTAP	30	0	0
BRSTR	30	0	1
NMSI_	30	0	1	96	48	5
NMTAP	30	48	2
NMTAP	30	48	3
NMTAP	30	96	1
NMTAP	30	96	7
NMTAP	30	144	6
NMTAP	30	168	6
NMTAP	30	216	4
NMTAP	30	216	5
NMTAP	30	264	2
NMTAP	30	288	3
NMTAP	30	336	0
NMTAP	30	336	1
NMSTR	31	0	6
NMSI_	31	0	6	96	48	2
NMTAP	31	0	7
NMTAP	31	48	4
NMTAP	31	48	5
NMTAP	31	96	0
NMTAP	31	96	6
NMTAP	31	144	1
NMTAP	31	168	1
NMTAP	31	216	2
NMTAP	31	216	3
NMTAP	31	264	5
NMTAP	31	288	4
NMTAP	31	336	6
NMTAP	31	336	7
NMTAP	32	0	0
NMSTR	32	0	7
NMSI_	32	0	7	96	48	3
NMTAP	32	48	0
NMTAP	32	48	1
NMTAP	32	96	6
NMTAP	32	96	7
NMTAP	32	144	5
NMTAP	32	168	5
NMTAP	32	216	2
NMTAP	32	216	4
NMTAP	32	264	1
NMTAP	32	288	0
NMTAP	32	336	2
NMTAP	32	336	6
NMTAP	33	0	2
NMSTR	33	0	6
NMSI_	33	0	6	96	48	0
NMTAP	33	48	0
NMTAP	33	48	4
NMSTR	33	96	2
NMSI_	33	96	2	96	48	7
NMSTR	33	96	6
NMSI_	33	96	6	96	48	3
NMTAP	33	144	4
NMTAP	33	192	2
NMTAP	33	192	6
BRTAP	33	288	1
BRTAP	33	288	5
NMSTR	34	0	6
NMSI_	34	0	6	96	48	2
NMTAP	34	0	7
NMTAP	34	48	4
NMTAP	34	48	5
NMTAP	34	96	0
NMTAP	34	96	6
NMTAP	34	144	1
NMTAP	34	168	1
NMTAP	34	216	2
NMTAP	34	216	3
NMTAP	34	264	5
NMTAP	34	288	4
NMTAP	34	336	6
NMTAP	34	336	7
NMTAP	35	0	0
NMSTR	35	0	1
NMSI_	35	0	1	96	48	5
NMTAP	35	48	2
NMTAP	35	48	3
NMTAP	35	96	1
NMTAP	35	96	7
NMTAP	35	144	6
NMTAP	35	168	6
NMTAP	35	216	4
NMTAP	35	216	5
NMTAP	35	264	2
NMTAP	35	288	3
NMTAP	35	336	0
NMTAP	35	336	1
NMSTR	36	0	0
NMSI_	36	0	0	96	48	4
NMTAP	36	0	7
NMTAP	36	48	6
NMTAP	36	48	7
NMTAP	36	96	0
NMTAP	36	96	1
NMTAP	36	144	2
NMTAP	36	168	2
NMTAP	36	216	3
NMTAP	36	216	5
NMTAP	36	264	6
NMTAP	36	288	4
NMSTR	36	336	3
NMSI_	36	336	3	96	48	1
NMSTR	36	336	7
NMSI_	36	336	7	96	48	5
NMSTR	37	48	3
NMSI_	37	48	3	96	48	6
NMSTR	37	48	7
NMSI_	37	48	7	96	48	2
NMSTR	37	144	3
NMSCL	37	144	3	96	48	0
NMSTR	37	144	7
NMSCL	37	144	7	96	48	4
NMTAP	37	240	3
NMTAP	37	240	7
NMHLD	37	336	1	1488
NMSTR	37	336	5
NMSUL	37	336	5	96	336	3
CNSUR	39	0	3	0	288	5
NMSTR	40	0	6
NMSUR	40	0	6	96	288	0
CNSUL	41	0	0	0	288	6
NMTAP	42	0	0
NMTAP	42	0	7
NMTAP	42	96	0
NMTAP	42	96	7
NMTAP	42	192	5
NMTAP	42	192	6
NMTAP	42	288	5
NMTAP	42	288	6
NMTAP	43	0	3
NMTAP	43	0	4
NMTAP	43	96	3
NMTAP	43	96	4
NMTAP	43	192	1
NMTAP	43	192	2
NMTAP	43	288	1
NMTAP	43	288	2
NMTAP	44	0	0
NMTAP	44	48	0
NMTAP	44	96	1
NMTAP	44	96	7
NMTAP	44	144	1
NMTAP	44	144	7
NMTAP	44	192	2
NMTAP	44	216	6
NMTAP	44	240	2
NMTAP	44	264	6
NMTAP	44	288	1
NMTAP	44	312	5
NMTAP	44	336	1
NMTAP	44	360	5
NMTAP	45	0	2
NMTAP	45	24	3
NMTAP	45	72	1
NMTAP	45	96	0
NMTAP	45	144	6
NMTAP	45	168	7
NMTAP	45	216	5
NMTAP	45	240	4
BRTAP	45	288	1
BRTAP	45	288	7
EXTAP	46	0	4
EXHLD	46	0	6	48
NMTAP	46	48	3
NMHLD	46	96	2	48
NMTAP	46	96	4
NMTAP	46	144	5
NMSTR	46	192	4
NMSI_	46	192	4	96	48	0
NMSTR	46	192	6
NMSI_	46	192	6	96	48	2
NMTAP	46	240	7
NMTAP	46	288	4
NMTAP	46	288	6
EXHLD	47	0	1	48
EXTAP	47	0	3
NMTAP	47	48	4
NMTAP	47	96	3
NMHLD	47	96	5	48
NMTAP	47	144	2
NMSTR	47	192	1
NMSI_	47	192	1	96	48	5
NMSTR	47	192	3
NMSI_	47	192	3	96	48	7
NMTAP	47	240	0
NMTAP	47	288	1
NMTAP	47	288	3
EXTAP	48	0	4
EXTAP	48	0	6
NMTAP	48	48	5
NMSTR	48	96	2
NMSCL	48	96	2	96	96	4
NMSTR	48	96	4
NMSCR	48	96	4	96	96	2
NMTAP	49	0	4
NMTAP	49	24	5
NMTAP	49	48	6
NMTAP	49	72	7
NMTAP	49	96	4
NMTAP	49	120	3
NMTAP	49	144	2
NMTAP	49	168	1
NMTAP	49	192	7
NMTAP	49	240	7
NMTAP	49	288	1
NMTAP	49	288	5
NMTAP	50	0	3
NMSTR	50	0	6
NMSI_	50	0	6	96	48	3
NMTAP	50	48	7
NMSTR	50	96	2
NMSI_	50	96	2	96	48	5
NMTAP	50	144	1
NMTAP	50	192	6
NMTAP	50	240	6
NMTAP	50	288	3
NMTAP	50	288	7
NMSTR	51	0	1
NMSI_	51	0	1	96	48	4
NMTAP	51	0	4
NMTAP	51	48	0
NMSTR	51	96	5
NMSI_	51	96	5	96	48	2
NMTAP	51	144	6
NMTAP	51	192	1
NMTAP	51	240	1
NMTAP	51	288	0
NMTAP	51	288	4
NMTAP	52	0	1
NMTAP	52	0	7
NMTAP	52	48	0
NMTAP	52	48	6
NMSTR	52	96	1
NMSCR	52	96	1	96	48	3
NMSTR	52	96	7
NMSCL	52	96	7	96	48	5
NMTAP	52	144	0
NMTAP	52	144	6
NMSTR	52	192	1
NMSV_	52	192	1	96	48	4
NMSTR	52	192	7
NMSV_	52	192	7	96	48	4
EXTAP	52	288	1
EXTAP	52	288	7
EXHLD	53	0	4	48
EXTAP	53	0	5
NMTAP	53	48	7
NMTAP	53	96	2
NMHLD	53	96	3	48
NMTAP	53	144	0
NMSTR	53	192	3
NMSI_	53	192	3	96	48	1
NMSTR	53	192	4
NMSI_	53	192	4	96	48	6
NMSTR	53	288	3
NMSXR	53	288	3	96	192	0
NMSTR	53	288	4
NMSXL	53	288	4	96	192	7
CNSXL	54	192	0	0	288	3
CNSXR	54	192	7	0	288	4
NMHLD	56	0	1	576
NMTAP	56	144	3
NMHLD	56	192	3	48
NMTAP	57	48	2
NMHLD	57	144	3	96
NMHLD	58	0	6	576
NMTAP	58	144	4
NMHLD	58	192	4	48
NMTAP	59	48	5
NMHLD	59	144	4	96
NMHLD	60	0	2	48
NMHLD	60	0	4	48
NMHLD	60	96	2	48
NMHLD	60	96	4	48
NMHLD	60	192	2	48
NMHLD	60	192	4	48
NMHLD	60	264	1	48
NMHLD	60	264	3	48
NMTAP	60	336	0
NMTAP	60	336	4
NMHLD	61	0	5	48
NMHLD	61	0	7	48
NMHLD	61	96	5	48
NMHLD	61	96	7	48
NMHLD	61	192	5	48
NMHLD	61	192	7	48
NMHLD	61	264	0	48
NMHLD	61	264	6	48
NMTAP	61	336	1
NMTAP	61	336	5
NMTAP	62	0	2
NMTAP	62	0	4
NMTAP	62	48	1
NMTAP	62	96	3
NMTAP	62	96	5
NMTAP	62	144	6
NMTAP	62	192	2
NMTAP	62	192	4
NMTAP	62	240	0
NMTAP	62	288	3
NMTAP	62	288	5
NMTAP	62	336	7
NMTAP	63	0	1
NMTAP	63	24	0
NMTAP	63	48	1
NMTAP	63	72	0
NMTAP	63	96	2
NMTAP	63	120	7
NMTAP	63	144	2
NMTAP	63	168	7
NMSTR	63	192	3
NMSI_	63	192	3	96	48	7
NMTAP	63	216	6
NMTAP	63	240	3
NMTAP	63	264	6
NMTAP	63	288	3
NMTAP	64	0	0
NMTAP	64	0	5
NMTAP	64	192	1
NMTAP	64	216	3
NMTAP	64	264	6
NMTAP	64	288	4
BRTAP	65	0	4
BRSTR	65	0	5
NMSI_	65	0	5	96	48	0
NMTAP	65	48	6
NMTAP	65	48	7
NMTAP	65	96	3
NMTAP	65	96	5
NMTAP	65	144	2
NMTAP	65	168	2
NMTAP	65	216	0
NMTAP	65	216	1
NMTAP	65	264	6
NMTAP	65	288	7
NMTAP	65	336	4
NMTAP	65	336	5
NMSTR	66	0	2
NMSI_	66	0	2	96	48	7
NMTAP	66	0	3
NMTAP	66	48	0
NMTAP	66	48	1
NMTAP	66	96	2
NMTAP	66	96	4
NMTAP	66	144	5
NMTAP	66	168	5
NMTAP	66	216	6
NMTAP	66	216	7
NMTAP	66	264	1
NMTAP	66	288	0
NMTAP	66	336	2
NMTAP	66	336	3
NMSTR	67	0	3
NMSI_	67	0	3	96	48	7
NMTAP	67	0	4
NMTAP	67	48	4
NMTAP	67	48	5
NMTAP	67	96	2
NMTAP	67	96	3
NMTAP	67	144	1
NMTAP	67	168	1
NMTAP	67	216	0
NMTAP	67	216	6
NMTAP	67	264	5
NMTAP	67	288	4
NMTAP	67	336	2
NMTAP	67	336	6
NMTAP	68	0	2
NMSTR	68	0	6
NMSI_	68	0	6	96	48	0
NMTAP	68	48	0
NMTAP	68	48	4
NMSTR	68	96	2
NMSI_	68	96	2	96	48	7
NMSTR	68	96	6
NMSI_	68	96	6	96	48	3
NMTAP	68	144	4
NMTAP	68	192	2
NMTAP	68	192	6
BRTAP	68	288	1
BRTAP	68	288	5
NMSTR	69	0	2
NMSI_	69	0	2	96	48	7
NMTAP	69	0	3
NMTAP	69	48	0
NMTAP	69	48	1
NMTAP	69	96	2
NMTAP	69	96	4
NMTAP	69	144	5
NMTAP	69	168	5
NMTAP	69	216	6
NMTAP	69	216	7
NMTAP	69	264	1
NMTAP	69	288	0
NMTAP	69	336	2
NMTAP	69	336	3
NMTAP	70	0	4
NMSTR	70	0	5
NMSI_	70	0	5	96	48	0
NMTAP	70	48	6
NMTAP	70	48	7
NMTAP	70	96	3
NMTAP	70	96	5
NMTAP	70	144	2
NMTAP	70	168	2
NMTAP	70	216	0
NMTAP	70	216	1
NMTAP	70	264	6
NMTAP	70	288	7
NMTAP	70	336	4
NMTAP	70	336	5
NMTAP	71	0	3
NMSTR	71	0	4
NMSI_	71	0	4	96	48	0
NMTAP	71	48	2
NMTAP	71	48	3
NMTAP	71	96	4
NMTAP	71	96	5
NMTAP	71	144	6
NMTAP	71	168	6
NMTAP	71	216	1
NMTAP	71	216	7
NMTAP	71	264	2
NMTAP	71	288	3
NMSTR	71	336	0
NMSI_	71	336	0	96	48	4
NMTAP	71	336	4
NMTAP	72	48	0
NMSTR	72	48	6
NMSI_	72	48	6	96	48	2
NMSTR	72	144	1
NMSI_	72	144	1	96	48	5
NMTAP	72	144	6
NMTAP	72	240	1
NMTAP	72	240	7
NMTAP	72	336	4
NMTAP	72	336	6
NMSTR	73	0	4
NMSF_	73	0	4	96	48	0
NMTAP	73	0	6
BRTAP	73	96	4
NMTAP	73	192	2
NMTAP	73	192	6
NMTAP	73	288	3
NMTAP	73	288	5
NMTAP	73	336	4
NMTAP	74	0	1
NMTAP	74	0	3
NMHLD	74	48	0	144
NMTAP	74	144	4
NMTAP	74	192	4
NMTAP	74	240	2
NMTAP	74	240	6
NMTAP	75	0	4
NMTAP	75	0	5
NMTAP	75	48	6
NMTAP	75	96	2
NMTAP	75	96	3
NMTAP	75	144	1
NMTAP	75	192	6
NMTAP	75	192	7
NMTAP	75	240	4
NMTAP	75	240	5
NMTAP	75	288	2
NMTAP	75	288	3
NMTAP	75	336	0
NMSTR	75	336	1
NMSCR	75	336	1	96	48	4
NMSTR	76	0	7
NMSI_	76	0	7	96	48	3
NMSTR	76	48	1
NMSI_	76	48	1	96	48	5
NMSTR	76	96	7
NMSCL	76	96	7	96	48	4
NMTAP	76	144	1
NMTAP	76	192	7
NMTAP	76	288	0
NMTAP	76	288	3
NMSTR	77	0	2
NMSI_	77	0	2	96	48	7
NMSTR	77	0	5
NMSI_	77	0	5	96	48	0
BRTAP	77	96	2
BRTAP	77	96	5
NMTAP	77	240	0
NMTAP	77	240	1
NMTAP	77	288	0
NMTAP	77	288	1
NMTAP	77	336	2
NMTAP	77	336	7
NMTAP	78	48	1
NMHLD	78	48	5	96
NMTAP	78	144	4
NMTAP	78	192	5
NMTAP	78	240	2
NMTAP	78	240	7
NMTAP	79	0	0
NMTAP	79	0	6
NMTAP	79	48	1
NMTAP	79	96	2
NMTAP	79	96	3
NMTAP	79	144	4
NMTAP	79	192	3
NMTAP	79	192	5
NMSTR	79	240	6
NMSCL	79	240	6	96	48	3
NMTAP	79	288	0
NMTAP	79	288	7
NMSTR	79	336	1
NMSCL	79	336	1	96	48	6
NMTAP	79	336	6
NMTAP	80	48	1
NMSTR	80	48	4
NMSCL	80	48	4	96	48	1
NMTAP	80	144	4
NMSTR	80	144	7
NMSI_	80	144	7	96	48	3
NMSTR	80	240	1
NMSI_	80	240	1	96	48	5
NMTAP	80	240	7
NMSTR	80	336	0
NMSI_	80	336	0	96	48	4
NMTAP	80	336	1
NMTAP	81	48	0
NMSTR	81	48	7
NMSI_	81	48	7	96	48	3
NMSTR	81	144	6
NMSI_	81	144	6	96	48	2
NMTAP	81	144	7
NMSTR	81	240	3
NMSCL	81	240	3	96	48	0
NMTAP	81	240	6
NMSTR	81	336	3
NMSI_	81	336	3	96	48	6
NMSTR	81	336	4
NMSCR	81	336	4	96	48	6
NMSTR	82	48	3
NMSCL	82	48	3	96	48	1
NMSTR	82	48	4
NMSI_	82	48	4	96	48	1
NMSTR	82	144	3
NMSI_	82	144	3	96	48	7
NMSTR	82	144	4
NMSI_	82	144	4	96	48	0
NMTAP	82	240	3
NMTAP	82	240	4
NMTTP	82	336	0	C	1	M1
NMTTP	82	336	1	B	0	M1
NMTTP	82	336	1	A	0	M1
NMTTP	82	336	2	B	0	M1
NMTTP	82	336	2	A	0	M1
NMTTP	82	336	5	B	0	M1
NMTTP	82	336	5	A	0	M1
NMTTP	82	336	6	B	0	M1
NMTTP	82	336	6	A	0	M1
NMHLD	84	0	2	48
NMTAP	84	0	4
NMHLD	84	96	1	48
NMTTP	84	96	3	B	0	M1
NMTTP	84	96	4	E	0	M1
NMHLD	84	192	2	48
NMTAP	84	192	4
NMHLD	84	288	1	48
NMTTP	84	288	4	B	0	M1
NMTTP	84	288	4	E	0	M1
NMTAP	85	0	3
NMHLD	85	0	5	48
NMTTP	85	96	4	B	0	M1
NMTTP	85	96	4	E	0	M1
NMHLD	85	96	6	48
NMTAP	85	192	3
NMHLD	85	192	5	48
NMTTP	85	288	4	B	0	M1
NMTTP	85	288	4	E	0	M1
NMHLD	85	288	6	48
NMTAP	86	0	3
NMHLD	86	0	5	48
NMTTP	86	96	3	B	0	M1
NMTTP	86	96	4	E	0	M1
NMHLD	86	96	6	48
NMTAP	86	192	2
NMTAP	86	192	4
NMSTR	86	240	2
BRSI_	86	240	2	96	48	5
NMSTR	86	240	4
BRSI_	86	240	4	96	48	7

T_REC_TAP	475
T_REC_BRK	14
T_REC_XTP	11
T_REC_BXX	4
T_REC_HLD	78
T_REC_XHO	5
T_REC_BHO	0
T_REC_BXH	0
T_REC_STR	86
T_REC_BST	2
T_REC_XST	0
T_REC_XBS	0
T_REC_TTP	59
T_REC_THO	1
T_REC_SLD	87
T_REC_BSL	2
T_REC_ALL	824
T_NUM_TAP	631
T_NUM_BRK	22
T_NUM_HLD	84
T_NUM_SLD	87
T_NUM_ALL	824
T_JUDGE_TAP	651
T_JUDGE_HLD	175
T_JUDGE_SLD	89
T_JUDGE_ALL	915
TTM_EACHPAIRS	208
TTM_SCR_TAP	315500
TTM_SCR_BRK	57200
TTM_SCR_HLD	84000
TTM_SCR_SLD	130500
TTM_SCR_ALL	587200
TTM_SCR_S	567450
TTM_SCR_SS	585000
TTM_RAT_ACV	10037

