VERSION	0.00.00	1.05.00
FES_MODE	0
BPM_DEF	143.000	143.000	169.000	143.000
MET_DEF	4	4
RESOLUTION	384
CLK_DEF	384
COMPATIBLE_CODE	MA2

BPM	0	0	143.000
BPM	38	0	169.000
BPM	56	0	143.000
MET	0	0	4	4

NMTAP	4	192	7
NMTAP	4	288	0
EXHLD	5	0	1	672
EXTAP	5	0	6
NMTAP	5	192	3
NMTAP	5	288	3
NMTAP	6	0	2
NMSTR	6	96	2
NMSI_	6	96	2	96	96	6
NMHLD	7	0	6	576
NMTAP	7	96	3
NMTAP	7	192	4
NMTAP	7	288	4
NMTAP	8	0	5
NMTAP	8	96	5
NMTAP	8	192	7
NMTAP	8	288	0
NMTAP	8	288	7
NMHLD	9	0	1	768
NMTAP	9	96	4
NMTAP	9	192	3
NMTAP	9	288	2
NMTAP	10	0	0
NMSTR	10	96	0
NMSI_	10	96	0	96	96	4
NMHLD	11	0	6	192
NMTAP	11	96	3
NMSTR	11	192	4
NMSCR	11	192	4	96	192	1
NMHLD	12	192	2	48
NMHLD	12	192	3	48
NMHLD	12	288	4	48
NMHLD	12	288	5	48
NMHLD	13	0	2	96
NMTAP	13	96	0
NMTAP	13	192	0
EXTAP	13	240	1
EXTAP	13	240	7
EXTAP	13	288	1
EXTAP	13	288	7
NMHLD	14	0	5	96
NMTAP	14	96	7
NMTAP	14	192	7
EXTAP	14	240	0
EXTAP	14	240	6
EXTAP	14	288	0
EXTAP	14	288	6
NMHLD	15	0	1	96
NMTAP	15	96	0
NMHLD	15	192	6	96
NMTAP	15	288	7
EXSTR	16	0	6
NMSI_	16	0	6	96	48	3
EXSTR	16	0	7
NMSI_	16	0	7	96	48	2
EXSTR	16	192	6
NMSI_	16	192	6	96	48	3
EXSTR	16	192	7
NMSI_	16	192	7	96	48	2
NMTAP	17	0	5
BXTAP	17	96	4
BXTAP	17	96	6
BXTAP	17	288	1
BXTAP	17	288	3
BXTAP	18	96	5
BXTAP	18	96	7
BXTAP	18	192	0
BXTAP	18	192	7
BXTAP	18	264	0
BXTAP	18	264	7
BXTAP	18	336	0
BXTAP	18	336	7
NMTAP	19	0	1
NMTAP	19	48	1
NMTAP	19	96	3
NMTAP	19	192	6
NMTAP	19	240	6
NMTAP	19	288	4
NMTAP	20	0	6
NMTAP	20	0	7
NMTAP	20	96	4
NMTAP	20	96	5
NMTAP	20	192	2
NMTAP	20	192	3
NMTAP	20	288	0
NMTAP	20	288	1
NMHLD	21	0	7	672
NMTTP	21	96	1	E	0	M1
NMTTP	21	288	2	E	0	M1
NMTTP	22	96	3	E	0	M1
NMTTP	22	288	4	E	0	M1
NMHLD	23	0	1	672
NMTTP	23	96	7	E	0	M1
NMTTP	23	288	6	E	0	M1
NMTTP	24	96	5	E	0	M1
NMTTP	24	288	4	E	0	M1
EXTAP	25	0	0
EXTAP	25	0	4
NMTAP	25	96	0
NMTAP	25	96	4
NMTAP	25	192	4
NMTAP	25	192	5
NMTAP	25	264	4
NMTAP	25	264	5
NMTAP	25	336	4
NMTAP	25	336	5
EXTAP	26	0	3
EXTAP	26	0	6
NMTAP	26	96	3
NMTAP	26	96	6
NMTAP	26	192	2
NMTAP	26	192	3
NMTAP	26	264	2
NMTAP	26	264	3
NMTAP	26	336	2
NMTAP	26	336	3
NMTAP	27	0	1
NMTAP	27	48	1
NMTAP	27	96	1
NMTAP	27	144	1
NMTAP	27	192	7
NMTAP	27	240	7
NMTAP	27	288	7
NMTAP	27	336	7
NMTAP	28	0	0
NMTAP	28	48	0
NMTAP	28	96	2
NMTAP	28	144	2
NMTAP	28	192	4
NMTAP	28	240	4
NMTAP	28	288	6
NMTAP	28	336	6
NMTHO	29	0	0	192	C	1	M1
BRTAP	29	192	0
EXSTR	30	0	7
NMSI_	30	0	7	96	48	3
NMTAP	30	48	7
NMSTR	30	96	0
NMSI_	30	96	0	96	48	2
NMTAP	30	288	7
EXSTR	31	0	6
NMSI_	31	0	6	96	48	2
NMTAP	31	48	6
NMSTR	31	96	7
NMSI_	31	96	7	96	48	1
NMTAP	31	288	7
EXSTR	32	0	5
NMSI_	32	0	5	96	48	3
NMTAP	32	48	5
NMSTR	32	96	6
NMSI_	32	96	6	96	48	2
NMTAP	32	288	7
NMTAP	33	0	1
NMTAP	33	0	3
NMTAP	33	96	4
NMTAP	33	96	6
NMTAP	33	192	3
NMTAP	33	192	4
BRTAP	33	288	1
BRTAP	33	288	7
EXSTR	34	0	0
NMSI_	34	0	0	96	48	4
NMTAP	34	48	0
NMSTR	34	96	7
NMSI_	34	96	7	96	48	5
NMTAP	34	288	0
EXSTR	35	0	1
NMSI_	35	0	1	96	48	5
NMTAP	35	48	1
NMSTR	35	96	0
NMSI_	35	96	0	96	48	6
NMTAP	35	288	0
EXSTR	36	0	2
NMSI_	36	0	2	96	48	4
NMTAP	36	48	2
NMSTR	36	96	1
NMSI_	36	96	1	96	48	5
NMTAP	36	288	0
BXTAP	36	336	0
BXTAP	37	48	2
BXTAP	37	48	7
BXTAP	37	144	0
BXTAP	37	144	5
BXTAP	37	240	3
BXTAP	37	240	7
NMTHO	37	336	0	1104	C	1	M1
EXTAP	42	0	2
EXTAP	42	0	3
NMTAP	42	96	2
NMTAP	42	96	3
NMTAP	42	192	2
NMTAP	42	192	3
NMTAP	42	288	2
NMTAP	42	288	3
NMTAP	43	0	4
NMTAP	43	0	5
NMTAP	43	96	4
NMTAP	43	96	5
NMTAP	43	192	4
NMTAP	43	192	5
NMTAP	43	288	4
NMTAP	43	288	5
NMTAP	44	0	3
NMTAP	44	0	4
NMTAP	44	96	3
NMTAP	44	96	4
NMTAP	44	192	3
NMTAP	44	192	4
NMSTR	44	288	3
NMSCL	44	288	3	96	144	0
NMSTR	44	288	4
NMSCR	44	288	4	96	144	7
BRTAP	45	288	0
BRTAP	45	288	7
NMTAP	46	0	4
NMTAP	46	0	6
NMTAP	46	96	3
NMTAP	46	96	4
NMTAP	46	192	5
NMTAP	46	192	6
NMTAP	46	288	3
NMTAP	46	288	4
NMTAP	47	0	1
NMTAP	47	0	3
NMTAP	47	96	3
NMTAP	47	96	4
NMTAP	47	192	1
NMTAP	47	192	2
NMTAP	47	288	3
NMTAP	47	288	4
NMHLD	48	0	7	96
NMTAP	48	96	0
NMTAP	48	192	1
NMTAP	48	192	6
NMTAP	48	288	2
NMTAP	48	288	5
NMHLD	49	0	6	96
NMTAP	49	96	4
NMHLD	49	192	1	96
NMTAP	49	288	3
NMTAP	50	0	2
NMTAP	50	0	6
NMTAP	50	96	1
NMTAP	50	96	5
NMTAP	50	192	2
NMTAP	50	192	7
NMTAP	50	288	2
NMTAP	50	288	7
NMTAP	51	0	1
NMTAP	51	0	5
NMTAP	51	96	2
NMTAP	51	96	6
NMTAP	51	192	0
NMTAP	51	192	5
NMTAP	51	288	0
NMTAP	51	288	5
NMTAP	52	0	1
NMTAP	52	0	7
NMTAP	52	96	0
NMTAP	52	96	6
NMTAP	52	192	3
NMTAP	52	192	4
NMTAP	52	288	3
NMTAP	52	288	4
NMTAP	53	0	5
NMSTR	53	96	1
NMSI_	53	96	1	96	96	4
NMSTR	53	96	6
NMSI_	53	96	6	96	96	3
BRHLD	54	0	2	384
BRSTR	54	0	7
NMSSR	54	0	7	96	288	3
NMHLD	56	0	2	432
NMHLD	57	48	3	336
NMHLD	58	0	4	432
NMHLD	59	48	5	240
NMTTP	59	288	3	E	0	M1
EXTAP	60	0	0
EXTAP	60	0	4
NMTAP	60	96	0
NMTAP	60	96	4
NMTAP	60	192	4
NMTAP	60	192	5
NMTAP	60	264	4
NMTAP	60	264	5
NMTAP	60	336	4
NMTAP	60	336	5
EXTAP	61	0	3
EXTAP	61	0	6
NMTAP	61	96	3
NMTAP	61	96	6
NMTAP	61	192	2
NMTAP	61	192	3
NMTAP	61	264	2
NMTAP	61	264	3
NMTAP	61	336	2
NMTAP	61	336	3
NMTAP	62	0	1
NMTAP	62	48	1
NMTAP	62	96	1
NMTAP	62	144	1
NMTAP	62	192	7
NMTAP	62	240	7
NMTAP	62	288	7
NMTAP	62	336	7
NMTAP	63	0	0
NMTAP	63	48	0
NMTAP	63	96	2
NMTAP	63	144	2
NMTAP	63	192	4
NMTAP	63	240	4
NMTAP	63	288	6
NMTAP	63	336	6
NMTHO	64	0	0	192	C	1	M1
BRTAP	64	192	0
EXSTR	65	0	6
NMSCL	65	0	6	96	48	3
NMTAP	65	48	6
NMSTR	65	96	7
NMSXL	65	96	7	96	48	1
NMTAP	65	288	0
NMSTR	66	0	5
NMSCR	66	0	5	96	48	0
NMTAP	66	48	5
NMSTR	66	96	4
NMSXR	66	96	4	96	48	2
NMTAP	66	288	3
NMSTR	67	0	6
NMSCL	67	0	6	96	48	3
NMTAP	67	48	6
NMSTR	67	96	7
NMSXL	67	96	7	96	48	1
NMTAP	67	288	0
NMTAP	68	0	2
NMTAP	68	0	7
NMTAP	68	96	0
NMTAP	68	96	5
NMTAP	68	192	3
NMTAP	68	192	4
BRTAP	68	288	1
BRTAP	68	288	7
EXSTR	69	0	1
NMSCR	69	0	1	96	48	4
NMTAP	69	48	1
NMSTR	69	96	0
NMSXR	69	96	0	96	48	6
NMTAP	69	288	7
NMSTR	70	0	2
NMSCL	70	0	2	96	48	7
NMTAP	70	48	2
NMSTR	70	96	3
NMSXL	70	96	3	96	48	5
NMTAP	70	288	4
NMSTR	71	0	1
NMSCR	71	0	1	96	48	4
NMTAP	71	48	1
NMSTR	71	96	0
NMSXR	71	96	0	96	48	6
NMTAP	71	288	7
BXTAP	71	336	7
BXTAP	72	48	0
BXTAP	72	48	5
BXTAP	72	144	3
BXTAP	72	144	6
BXTAP	72	240	0
BXSTR	72	240	7
BRSF_	72	240	7	96	96	3
NMTTP	73	96	0	C	1	M1
NMTTP	73	96	2	B	0	M1
NMTTP	73	96	3	B	0	M1
NMTTP	73	96	4	B	0	M1
NMTTP	73	96	5	B	0	M1
NMTAP	73	288	7
NMHLD	73	336	7	96
NMHLD	74	48	1	96
NMTAP	74	144	3
NMTAP	74	192	3
NMTAP	74	288	3
NMTAP	74	288	4
EXTAP	75	0	4
EXHLD	75	0	5	192
NMSTR	75	96	6
NMSCR	75	96	6	96	96	2
EXHLD	76	0	2	192
EXTAP	76	0	3
NMSTR	76	96	1
NMSCL	76	96	1	96	96	5
NMTAP	77	0	3
NMTAP	77	0	4
NMTTP	77	96	0	C	1	M1
NMTTP	77	96	2	B	0	M1
NMTTP	77	96	3	B	0	M1
NMTTP	77	96	4	B	0	M1
NMTTP	77	96	5	B	0	M1
NMTAP	77	288	0
NMHLD	77	336	0	96
NMHLD	78	48	6	96
NMTAP	78	144	4
NMTAP	78	192	4
NMTAP	78	288	3
NMTAP	78	288	4
EXHLD	79	0	2	288
EXTAP	79	0	3
NMTAP	79	96	1
NMTAP	79	192	7
NMTAP	79	288	5
BXTAP	79	336	5
BXTAP	80	48	2
BXTAP	80	48	7
BXSTR	80	144	0
NMSI_	80	144	0	96	48	4
BXTAP	80	336	2
BXTAP	80	336	7
BXTAP	81	48	0
BXTAP	81	48	5
BXSTR	81	144	7
NMSI_	81	144	7	96	48	3
BXTAP	81	336	0
BXTAP	81	336	5
BXTAP	82	48	2
BXTAP	82	48	7
BXTAP	82	144	0
BXTAP	82	144	4
BXTAP	82	240	2
BXTAP	82	240	6
BRHLD	82	336	0	1296
BRTAP	82	336	5
NMTTP	83	288	3	B	0	M1
NMTTP	84	96	5	B	0	M1
NMTTP	84	288	2	B	0	M1
NMTTP	85	96	4	B	0	M1
NMTTP	85	288	1	B	0	M1
NMTTP	86	96	6	B	0	M1
NMTTP	86	288	3	B	0	M1
NMTTP	86	288	3	E	0	M1
NMTTP	86	288	4	B	0	M1
NMTTP	86	288	5	E	0	M1

T_REC_TAP	222
T_REC_BRK	9
T_REC_XTP	22
T_REC_BXX	40
T_REC_HLD	24
T_REC_XHO	4
T_REC_BHO	2
T_REC_BXH	0
T_REC_STR	25
T_REC_BST	1
T_REC_XST	12
T_REC_XBS	3
T_REC_TTP	29
T_REC_THO	3
T_REC_SLD	40
T_REC_BSL	1
T_REC_ALL	437
T_NUM_TAP	310
T_NUM_BRK	56
T_NUM_HLD	31
T_NUM_SLD	40
T_NUM_ALL	437
T_JUDGE_TAP	363
T_JUDGE_HLD	210
T_JUDGE_SLD	41
T_JUDGE_ALL	614
TTM_EACHPAIRS	105
TTM_SCR_TAP	155000
TTM_SCR_BRK	145600
TTM_SCR_HLD	31000
TTM_SCR_SLD	60000
TTM_SCR_ALL	391600
TTM_SCR_S	374450
TTM_SCR_SS	386000
TTM_RAT_ACV	10145

