VERSION	0.00.00	1.05.00
FES_MODE	0
BPM_DEF	143.000	143.000	169.000	143.000
MET_DEF	4	4
RESOLUTION	384
CLK_DEF	384
COMPATIBLE_CODE	MA2

BPM	0	0	143.000
BPM	38	0	169.000
BPM	56	0	143.000
MET	0	0	4	4

NMTAP	5	0	6
NMTAP	5	96	6
NMTAP	5	192	6
NMTAP	6	0	5
NMTAP	6	96	5
NMTAP	6	192	5
NMTAP	7	0	4
NMTAP	7	96	4
NMTAP	7	192	4
NMTAP	8	0	2
NMTAP	8	0	3
NMTAP	8	192	2
NMTAP	8	192	3
NMTAP	9	0	1
NMTAP	9	96	1
NMTAP	9	192	1
NMTAP	10	0	2
NMTAP	10	96	2
NMTAP	10	192	2
NMTAP	11	0	3
NMTAP	11	96	3
NMTAP	11	192	3
NMTAP	12	0	4
NMTAP	12	0	5
NMTAP	12	192	4
NMTAP	12	192	5
NMTAP	13	0	5
NMTAP	13	96	5
NMTAP	13	192	4
NMTAP	13	192	5
NMTAP	14	0	6
NMTAP	14	96	6
NMTAP	14	192	6
NMTAP	14	192	7
NMTAP	15	0	0
NMTAP	15	96	0
NMTAP	15	192	0
NMTAP	15	192	1
NMTAP	16	0	2
NMTAP	16	0	3
NMTAP	16	96	2
NMTAP	16	96	3
NMTAP	16	192	2
NMTAP	16	192	3
NMTAP	17	0	2
NMTAP	17	96	2
NMTAP	17	192	2
NMTAP	17	192	3
NMTAP	18	0	1
NMTAP	18	96	1
NMTAP	18	192	0
NMTAP	18	192	1
NMTAP	19	0	7
NMTAP	19	96	7
NMTAP	19	192	6
NMTAP	19	192	7
NMTAP	20	0	4
NMTAP	20	0	5
NMTAP	20	96	4
NMTAP	20	96	5
NMTAP	20	192	4
NMTAP	20	192	5
NMSTR	21	0	6
NMSI_	21	0	6	96	192	3
NMSTR	22	0	1
NMSI_	22	0	1	96	192	4
NMSTR	23	0	6
NMSI_	23	0	6	96	192	2
NMSTR	24	0	0
NMSI_	24	0	0	96	192	4
NMTTP	25	0	6	B	0	L1
NMTTP	25	96	5	B	0	L1
NMTTP	25	192	4	B	0	L1
NMTTP	26	0	1	B	0	L1
NMTTP	26	96	2	B	0	L1
NMTTP	26	192	3	B	0	L1
NMTTP	27	0	6	B	0	L1
NMTTP	27	96	5	B	0	L1
NMTTP	27	192	4	B	0	L1
NMTTP	27	288	3	B	0	L1
NMTTP	28	0	2	B	0	L1
NMTTP	28	96	1	B	0	L1
NMTTP	28	192	0	C	1	L1
NMTAP	30	0	1
NMTAP	30	96	1
NMTAP	30	192	0
NMTAP	30	288	0
NMTAP	31	0	7
NMTAP	31	96	7
NMTAP	31	192	6
NMTAP	31	192	7
NMTAP	32	0	5
NMTAP	32	96	5
NMTAP	32	192	6
NMTAP	32	288	6
NMTAP	33	0	7
NMTAP	33	96	7
BXTAP	33	192	0
BXTAP	33	192	1
NMTAP	34	0	1
NMTAP	34	96	1
NMTAP	34	192	2
NMTAP	34	288	2
NMTAP	35	0	3
NMTAP	35	96	3
NMTAP	35	192	4
NMTAP	35	192	5
NMTAP	36	0	6
NMTAP	36	96	6
NMTAP	36	192	5
NMTAP	36	288	5
NMTAP	37	0	4
NMTAP	37	96	4
NMTAP	37	192	2
NMTAP	37	192	3
NMSTR	38	0	1
NMSI_	38	0	1	96	288	4
NMTAP	39	192	5
NMSTR	40	0	6
NMSI_	40	0	6	96	288	3
NMTAP	41	192	2
NMSTR	42	0	1
NMSI_	42	0	1	96	288	5
NMTAP	43	192	6
NMSTR	44	0	7
NMSI_	44	0	7	96	288	3
NMTAP	46	0	5
NMTAP	46	96	5
NMTAP	46	192	5
NMTAP	46	288	5
NMTAP	47	0	6
NMTAP	47	96	6
NMTAP	47	192	6
NMTAP	47	288	6
NMTAP	48	0	7
NMTAP	48	96	7
NMTAP	48	192	7
NMTAP	48	288	7
NMTAP	49	0	0
NMTAP	49	0	1
NMTAP	50	0	2
NMTAP	50	96	2
NMTAP	50	192	2
NMTAP	50	288	2
NMTAP	51	0	1
NMTAP	51	96	1
NMTAP	51	192	1
NMTAP	51	288	1
NMTAP	52	0	0
NMTAP	52	96	0
NMTAP	52	192	0
NMTAP	52	288	0
NMTAP	53	0	6
NMTAP	53	0	7
NMSTR	54	0	0
NMSCR	54	0	0	96	288	3
NMSTR	54	0	7
NMSCL	54	0	7	96	288	4
NMHLD	56	0	2	192
NMHLD	56	192	3	192
NMHLD	57	0	4	192
NMTAP	57	192	5
NMHLD	58	0	5	192
NMHLD	58	192	4	192
NMHLD	59	0	3	192
NMTAP	59	192	2
NMTTP	60	0	0	B	0	L1
NMTTP	60	96	1	B	0	L1
NMTTP	60	192	2	B	0	L1
NMTTP	60	192	3	B	0	L1
NMTTP	61	0	7	B	0	L1
NMTTP	61	96	6	B	0	L1
NMTTP	61	192	4	B	0	L1
NMTTP	61	192	5	B	0	L1
NMTTP	62	0	1	B	0	L1
NMTTP	62	96	2	B	0	L1
NMTTP	62	192	3	B	0	L1
NMTTP	62	288	4	B	0	L1
NMTTP	63	0	5	B	0	L1
NMTTP	63	96	6	B	0	L1
NMTTP	63	192	0	C	1	L1
EXTAP	65	0	1
EXTAP	65	96	1
EXTAP	65	192	0
EXTAP	65	192	1
EXTAP	65	288	0
EXTAP	65	288	1
EXTAP	66	0	7
EXTAP	66	96	7
EXTAP	66	192	6
EXTAP	66	192	7
NMTAP	67	0	5
NMTAP	67	96	5
NMTAP	67	192	6
NMTAP	67	192	7
NMTAP	67	288	6
NMTAP	67	288	7
NMTAP	68	0	0
NMTAP	68	96	0
BRTAP	68	192	0
BRTAP	68	192	1
NMTAP	69	0	1
NMTAP	69	96	1
NMTAP	69	192	2
NMTAP	69	192	3
NMTAP	69	288	2
NMTAP	69	288	3
NMTAP	70	0	4
NMTAP	70	96	4
NMTAP	70	192	4
NMTAP	70	192	5
NMTAP	71	0	6
NMTAP	71	96	6
NMTAP	71	192	4
NMTAP	71	192	5
NMTAP	71	288	4
NMTAP	71	288	5
NMTAP	72	0	3
NMTAP	72	96	3
NMTAP	72	192	2
NMTAP	72	192	3
NMTAP	73	0	0
NMTAP	73	0	1
NMTAP	73	96	0
NMTAP	73	96	1
NMTAP	73	192	2
NMTAP	73	288	2
NMTAP	74	0	3
NMTAP	74	0	4
NMTAP	74	96	3
NMTAP	74	96	4
NMTAP	74	192	2
NMTAP	74	192	5
NMTAP	75	0	4
NMTAP	75	0	5
NMTAP	75	96	4
NMTAP	75	96	5
NMTAP	75	192	6
NMTAP	75	288	6
NMTAP	76	0	0
NMTAP	76	0	7
NMTAP	76	96	0
NMTAP	76	96	7
NMTAP	76	192	1
NMTAP	76	192	6
NMTAP	77	0	6
NMTAP	77	0	7
NMTAP	77	96	6
NMTAP	77	96	7
NMTAP	77	192	5
NMTAP	77	288	5
NMTAP	78	0	3
NMTAP	78	0	4
NMTAP	78	96	3
NMTAP	78	96	4
NMTAP	78	192	2
NMTAP	78	288	2
NMTAP	79	0	0
NMTAP	79	0	1
NMTAP	79	96	0
NMTAP	79	96	1
NMTAP	79	192	2
NMTAP	79	192	7
NMTAP	80	0	1
NMTAP	80	96	1
NMTAP	80	192	0
NMTAP	80	192	1
NMTAP	81	0	6
NMTAP	81	96	6
NMTAP	81	192	6
NMTAP	81	192	7
NMTAP	82	0	0
NMTAP	82	0	7
NMTAP	82	96	0
NMTAP	82	96	7
NMTAP	82	192	1
NMTAP	82	192	6
NMTAP	82	288	1
NMTAP	82	288	6
BXTAP	83	0	2
BXTAP	83	0	5
NMHLD	84	0	2	192
NMTAP	84	192	3
NMHLD	85	0	5	192
NMTAP	85	192	4
NMHLD	86	0	3	288
NMHLD	86	0	4	288

T_REC_TAP	213
T_REC_BRK	2
T_REC_XTP	10
T_REC_BXX	4
T_REC_HLD	10
T_REC_XHO	0
T_REC_BHO	0
T_REC_BXH	0
T_REC_STR	10
T_REC_BST	0
T_REC_XST	0
T_REC_XBS	0
T_REC_TTP	28
T_REC_THO	0
T_REC_SLD	10
T_REC_BSL	0
T_REC_ALL	287
T_NUM_TAP	261
T_NUM_BRK	6
T_NUM_HLD	10
T_NUM_SLD	10
T_NUM_ALL	287
T_JUDGE_TAP	267
T_JUDGE_HLD	44
T_JUDGE_SLD	10
T_JUDGE_ALL	321
TTM_EACHPAIRS	60
TTM_SCR_TAP	130500
TTM_SCR_BRK	15600
TTM_SCR_HLD	10000
TTM_SCR_SLD	15000
TTM_SCR_ALL	171100
TTM_SCR_S	165400
TTM_SCR_SS	170500
TTM_RAT_ACV	10035

