VERSION	0.00.00	1.05.00
FES_MODE	0
BPM_DEF	143.000	143.000	169.000	143.000
MET_DEF	4	4
RESOLUTION	384
CLK_DEF	384
COMPATIBLE_CODE	MA2

BPM	0	0	143.000
BPM	38	0	169.000
BPM	56	0	143.000
MET	0	0	4	4

NMTAP	5	0	0
NMTAP	5	192	0
NMTAP	6	0	1
NMTAP	7	0	2
NMTAP	7	192	2
NMTAP	8	0	3
NMTAP	8	0	4
NMTAP	9	0	4
NMTAP	9	192	4
NMTAP	10	0	5
NMTAP	11	0	6
NMTAP	11	192	6
NMTAP	12	0	0
NMTAP	12	0	7
NMTAP	13	0	7
NMTAP	13	192	7
NMTAP	14	0	6
NMTAP	14	0	7
NMTAP	15	0	5
NMTAP	15	192	5
NMTAP	16	0	3
NMTAP	16	0	4
EXTAP	17	0	2
EXTAP	17	192	2
EXTAP	18	0	2
EXTAP	18	0	3
NMTAP	19	0	1
NMTAP	19	192	1
NMTAP	20	0	0
NMTAP	20	0	7
NMHLD	21	0	0	384
NMHLD	21	0	1	384
NMHLD	23	0	2	384
NMHLD	23	0	3	384
NMHLD	25	0	4	384
NMHLD	25	0	5	384
NMHLD	27	0	6	384
NMHLD	27	0	7	384
NMTAP	29	0	0
NMTAP	29	0	7
BRTAP	30	0	7
NMTAP	30	96	7
NMTAP	30	192	7
NMTAP	31	0	6
NMTAP	31	192	6
NMTAP	32	0	5
NMTAP	32	192	5
NMTAP	33	0	3
NMTAP	33	0	4
NMTAP	34	0	3
NMTAP	34	96	3
NMTAP	34	192	3
NMTAP	35	0	2
NMTAP	35	192	2
NMTAP	36	0	1
NMTAP	36	192	1
EXTAP	37	0	0
EXTAP	37	0	7
EXSTR	38	0	0
NMSI_	38	0	0	96	288	4
NMSTR	40	0	5
NMSI_	40	0	5	96	288	0
NMSTR	42	0	1
NMSI_	42	0	1	96	288	5
NMSTR	44	0	6
NMSI_	44	0	6	96	288	2
BXTAP	46	0	0
EXTAP	46	96	0
EXTAP	46	192	0
NMTAP	47	0	1
NMTAP	47	192	1
NMTAP	48	0	2
NMTAP	48	96	2
NMTAP	48	192	2
NMTAP	49	0	3
NMTAP	49	0	4
NMTAP	49	192	3
NMTAP	49	192	4
NMTAP	50	0	4
NMTAP	50	96	4
NMTAP	50	192	4
NMTAP	51	0	5
NMTAP	51	192	5
NMTAP	52	0	6
NMTAP	52	96	6
NMTAP	52	192	6
NMTAP	53	0	0
NMTAP	53	0	7
NMTAP	53	192	0
NMTAP	53	192	7
NMSTR	54	0	0
NMSI_	54	0	0	96	288	3
NMSTR	54	0	7
NMSI_	54	0	7	96	288	4
NMTTP	56	0	3	E	0	L1
NMTTP	57	0	2	E	0	L1
NMTTP	58	0	1	E	0	L1
NMTTP	59	0	0	E	0	L1
NMTTP	60	0	7	E	0	L1
NMTTP	61	0	6	E	0	L1
NMTTP	62	0	5	E	0	L1
NMTHO	63	0	0	384	C	1	L1
BRTAP	65	0	7
NMTAP	65	96	7
NMTAP	65	192	7
NMTAP	66	0	6
NMTAP	66	96	6
NMTAP	66	192	6
NMTAP	67	0	5
NMTAP	67	96	5
NMTAP	67	192	5
NMTAP	68	0	4
NMTAP	68	96	4
NMTAP	68	192	3
NMTAP	68	192	4
NMTAP	69	0	3
NMTAP	69	96	3
NMTAP	69	192	3
NMTAP	70	0	2
NMTAP	70	96	2
NMTAP	70	192	2
NMTAP	71	0	1
NMTAP	71	96	1
NMTAP	71	192	1
EXTAP	72	0	0
EXTAP	72	96	0
EXTAP	72	192	0
EXTAP	72	192	7
NMTAP	73	0	0
BXTAP	73	96	0
NMTAP	73	192	0
NMTAP	73	288	0
NMTAP	74	0	1
NMTAP	74	96	1
NMTAP	74	192	0
NMTAP	74	192	1
NMTAP	75	0	2
NMTAP	75	96	2
NMTAP	75	192	2
NMTAP	75	288	2
NMTAP	76	0	3
NMTAP	76	96	3
NMTAP	76	192	3
NMTAP	76	192	4
NMTAP	77	0	4
BXTAP	77	96	4
NMTAP	77	192	4
NMTAP	77	288	4
NMTAP	78	0	5
NMTAP	78	96	5
NMTAP	78	192	4
NMTAP	78	192	5
NMTAP	79	0	6
NMTAP	79	96	6
NMTAP	79	192	6
NMTAP	79	288	6
EXTAP	80	0	7
EXTAP	80	96	7
EXTAP	80	192	0
EXTAP	80	192	7
EXTAP	81	0	1
EXTAP	81	96	1
EXTAP	81	192	0
EXTAP	81	192	1
EXTAP	82	0	6
EXTAP	82	96	6
EXTAP	82	192	6
EXTAP	82	192	7
BXTAP	83	0	0
BXTAP	83	0	7
NMTTP	84	0	0	E	0	L1
NMTTP	85	0	0	B	0	L1
NMTTP	85	0	7	B	0	L1
NMTHO	86	0	0	336	C	0	L1

T_REC_TAP	111
T_REC_BRK	2
T_REC_XTP	24
T_REC_BXX	5
T_REC_HLD	8
T_REC_XHO	0
T_REC_BHO	0
T_REC_BXH	0
T_REC_STR	5
T_REC_BST	0
T_REC_XST	1
T_REC_XBS	0
T_REC_TTP	10
T_REC_THO	2
T_REC_SLD	6
T_REC_BSL	0
T_REC_ALL	174
T_NUM_TAP	151
T_NUM_BRK	7
T_NUM_HLD	10
T_NUM_SLD	6
T_NUM_ALL	174
T_JUDGE_TAP	158
T_JUDGE_HLD	79
T_JUDGE_SLD	6
T_JUDGE_ALL	243
TTM_EACHPAIRS	27
TTM_SCR_TAP	75500
TTM_SCR_BRK	18200
TTM_SCR_HLD	10000
TTM_SCR_SLD	9000
TTM_SCR_ALL	112700
TTM_SCR_S	108650
TTM_SCR_SS	112000
TTM_RAT_ACV	10062

