VERSION	0.00.00	1.05.00
FES_MODE	0
BPM_DEF	118.000	118.000	118.000	118.000
MET_DEF	4	4
RESOLUTION	384
CLK_DEF	384
COMPATIBLE_CODE	MA2

BPM	0	0	118.000
MET	0	0	4	4

NMHLD	1	0	5	144
NMHLD	1	144	4	144
NMHLD	1	288	3	240
NMTAP	2	0	2
NMTAP	2	72	1
NMHLD	2	144	2	144
NMTAP	2	240	1
NMHLD	2	288	1	96
NMHLD	3	0	2	144
NMHLD	3	144	3	144
NMHLD	3	288	4	240
NMTAP	4	0	5
NMTAP	4	72	6
NMHLD	4	144	5	96
NMTAP	4	240	6
NMTAP	4	288	5
NMTAP	4	336	4
NMTAP	5	0	3
NMTAP	5	0	6
NMTAP	5	48	5
NMTAP	5	80	5
NMTAP	5	96	4
NMTAP	5	144	3
NMTAP	5	192	1
NMTAP	5	192	4
NMTAP	5	240	2
NMTAP	5	272	2
NMTAP	5	288	3
NMTAP	5	336	4
NMTAP	6	0	3
NMTAP	6	0	6
NMTAP	6	48	5
NMTAP	6	80	5
NMTAP	6	96	4
NMTAP	6	144	3
NMTAP	6	192	1
NMSTR	6	192	4
NMSCR	6	192	4	96	96	0
NMTAP	6	240	0
NMTAP	6	288	1
NMTAP	6	336	2
NMTAP	7	0	3
NMTAP	7	96	4
NMTAP	7	144	3
NMTAP	7	192	1
NMTAP	7	192	4
NMTAP	7	240	2
NMTAP	7	272	2
NMTAP	7	288	3
NMTAP	7	336	4
NMSTR	8	0	5
NMSCR	8	0	5	96	96	0
NMTAP	8	48	5
NMSTR	8	96	5
NMSCL	8	96	5	96	96	2
NMTTP	8	288	6	E	0	M1
NMSTR	9	0	4
NMSI_	9	0	4	96	48	0
NMHLD	9	0	5	768
NMTAP	9	96	4
NMSTR	9	192	1
NMSI_	9	192	1	96	48	3
NMTAP	9	288	1
NMTAP	10	0	4
NMTAP	10	48	4
NMTAP	10	96	6
NMTAP	10	144	6
NMSTR	10	192	4
NMSV_	10	192	4	96	96	1
NMTAP	10	240	4
NMHLD	11	48	2	96
NMTAP	11	96	3
NMHLD	11	144	5	96
NMTAP	11	192	4
NMHLD	11	240	2	96
NMTAP	11	288	3
NMTAP	11	336	4
NMHLD	12	0	5	72
NMTAP	12	72	6
NMHLD	12	96	6	72
NMTAP	12	168	7
NMHLD	12	192	7	72
NMTAP	12	264	0
NMTAP	12	288	0
NMTAP	12	336	1
NMTAP	12	336	6
EXHLD	13	0	2	480
NMTAP	13	48	3
NMTAP	13	96	4
NMTAP	13	144	5
NMTAP	13	192	6
NMTAP	13	240	5
NMTAP	13	288	4
NMTAP	13	336	3
NMSTR	14	0	1
NMSI_	14	0	1	96	48	5
NMTAP	14	48	1
NMTAP	14	192	4
NMHLD	14	192	6	288
NMTAP	14	240	4
NMTAP	14	288	5
NMTAP	14	336	5
NMTAP	15	0	7
NMTAP	15	48	7
NMSTR	15	96	0
NMSXL	15	96	0	96	144	3
NMTAP	15	192	5
NMTAP	15	240	6
NMTAP	15	288	7
NMSTR	15	336	0
NMSLL	15	336	0	96	144	3
NMTAP	16	0	0
NMTAP	16	96	2
NMTAP	16	144	2
EXTAP	16	240	0
EXTAP	16	240	5
EXTAP	16	288	0
EXSTR	16	288	5
NMSCR	16	288	5	96	96	1
NMSTR	17	0	1
NMSCR	17	0	1	96	96	5
NMSTR	17	96	5
NMSCR	17	96	5	96	96	1
NMTAP	17	192	1
NMTAP	17	240	2
NMSTR	17	288	3
NMSCL	17	288	3	96	96	7
NMSTR	18	0	7
NMSCL	18	0	7	96	96	3
NMSTR	18	96	3
NMSCL	18	96	3	96	96	7
NMTAP	18	192	6
NMTAP	18	240	5
EXSTR	18	288	4
NMSI_	18	288	4	96	48	1
NMSI_	18	288	4	96	48	7
NMTAP	18	336	4
NMTAP	19	96	2
NMTAP	19	144	3
NMHLD	19	192	4	72
NMTAP	19	264	5
NMHLD	19	288	5	72
NMTAP	19	360	6
NMTAP	20	0	6
NMTAP	20	48	7
NMTAP	20	96	0
NMTAP	20	96	1
NMTAP	20	144	2
NMTAP	20	192	0
NMTAP	20	192	1
NMTAP	20	240	6
NMTAP	20	240	7
NMTAP	20	288	4
NMSTR	20	288	5
BRSCR	20	288	5	96	96	1
NMTAP	20	336	3
EXTAP	21	0	4
EXTAP	21	0	5
NMTAP	21	72	3
NMSTR	21	144	2
NMSI_	21	144	2	96	48	7
NMSTR	21	192	3
NMSI_	21	192	3	96	48	6
EXSTR	22	0	0
NMSXL	22	0	0	96	96	0
NMTAP	22	72	7
NMSTR	22	144	6
NMSXL	22	144	6	96	144	1
NMSTR	22	192	5
BRSXR	22	192	5	96	96	2
NMTAP	23	96	0
NMTAP	23	96	4
NMSTR	23	144	0
NMSUR	23	144	0	96	96	4
NMSTR	23	144	4
NMSUR	23	144	4	96	96	0
NMTTP	24	0	3	D	0	M1
NMTTP	24	48	3	B	0	M1
NMTTP	24	96	6	B	0	M1
NMTTP	24	192	1	B	0	M1
NMTTP	24	192	5	B	0	M1
NMSTR	24	288	0
NMSCR	24	288	0	96	48	3
NMSTR	24	288	4
NMSCR	24	288	4	96	48	7
NMTAP	24	336	3
NMTAP	24	336	7
BRTAP	25	0	0
BRTAP	25	0	4
NMSTR	25	96	2
NMSI_	25	96	2	96	48	5
NMSTR	25	96	6
NMSI_	25	96	6	96	48	1
NMTAP	25	144	1
NMTAP	25	144	5
NMTAP	25	192	2
NMTAP	25	192	6
NMTAP	25	288	0
NMTAP	25	288	4
NMSTR	25	336	0
NMSXR	25	336	0	96	144	4
NMTAP	25	336	4
NMTAP	26	48	5
NMTAP	26	96	3
NMTAP	26	144	2
NMSTR	26	192	1
NMSI_	26	192	1	96	48	5
NMTAP	26	240	0
NMTAP	26	288	1
NMTAP	26	288	5
NMTAP	26	336	7
NMSTR	27	0	0
NMSCL	27	0	0	96	48	5
NMTAP	27	0	4
NMTAP	27	96	3
NMTAP	27	144	1
NMSTR	27	192	7
NMSI_	27	192	7	96	48	3
NMSTR	27	240	4
NMSI_	27	240	4	96	48	0
NMSTR	28	0	1
NMSI_	28	0	1	96	48	3
NMSTR	28	48	1
NMSI_	28	48	1	96	48	7
NMSTR	28	96	1
NMSI_	28	96	1	96	48	5
NMTAP	28	240	6
NMSTR	28	288	3
NMSCL	28	288	3	96	48	0
NMSTR	28	288	7
NMSCL	28	288	7	96	48	4
BRTAP	29	0	3
BRTAP	29	0	7
NMSTR	29	96	1
NMSI_	29	96	1	96	48	6
NMSTR	29	96	5
NMSI_	29	96	5	96	48	2
NMTAP	29	144	2
NMTAP	29	144	6
NMTAP	29	192	1
NMTAP	29	192	5
NMTAP	29	288	3
NMTAP	29	288	7
NMTAP	29	336	3
NMSTR	29	336	7
NMSXL	29	336	7	96	144	3
NMTAP	30	48	2
NMTAP	30	96	4
NMTAP	30	144	5
NMSTR	30	192	6
NMSI_	30	192	6	96	48	2
NMTAP	30	240	7
NMTAP	30	288	2
NMTAP	30	288	6
NMTAP	30	336	0
NMSTR	31	0	3
NMSV_	31	0	3	96	48	5
NMSTR	31	0	7
NMSV_	31	0	7	96	48	1
NMTAP	31	96	3
NMTAP	31	96	7
NMSTR	31	192	2
NMSLL	31	192	2	96	96	3
NMSTR	31	192	4
NMSLR	31	192	4	96	96	3
NMTAP	31	240	2
NMTAP	31	240	4
NMTAP	31	288	2
NMTAP	31	288	4
NMSTR	32	48	6
NMSI_	32	48	6	96	48	4
NMSTR	32	96	4
NMSI_	32	96	4	96	48	2
NMSTR	32	144	2
NMSLL	32	144	2	96	96	6
NMTAP	32	192	0
NMTAP	32	288	3
NMTAP	32	336	2
CNSI_	32	336	6	0	48	4
NMSTR	33	0	0
BRSF_	33	0	0	96	48	4
BRTAP	33	96	0
NMTAP	33	192	2
NMTAP	33	192	6
NMTAP	33	240	1
NMTAP	33	240	5
NMTAP	33	288	0
NMTAP	33	288	4
NMTAP	33	336	3
NMSTR	33	336	7
NMSXL	33	336	7	96	144	3
NMTAP	34	48	2
NMTAP	34	96	4
NMTAP	34	144	5
NMSTR	34	192	6
NMSI_	34	192	6	96	48	2
NMTAP	34	240	7
NMTAP	34	288	2
NMTAP	34	288	6
NMTAP	34	336	0
NMTAP	35	0	3
NMSTR	35	0	7
NMSCR	35	0	7	96	48	2
NMTAP	35	96	5
NMTAP	35	168	0
NMSTR	35	192	0
NMSI_	35	192	0	96	48	4
NMSTR	35	240	3
NMSI_	35	240	3	96	48	7
NMSTR	36	0	6
NMSCL	36	0	6	96	48	4
NMSTR	36	48	6
NMSCR	36	48	6	96	48	0
NMSTR	36	96	6
NMSI_	36	96	6	96	48	2
NMTAP	36	240	1
NMSTR	36	288	0
NMSCR	36	288	0	96	48	3
NMSTR	36	288	4
NMSCR	36	288	4	96	48	7
NMTAP	36	336	3
NMTAP	36	336	7
BRTAP	37	0	0
BRTAP	37	0	4
NMSTR	37	96	2
NMSI_	37	96	2	96	48	5
NMSTR	37	96	6
NMSI_	37	96	6	96	48	1
NMTAP	37	144	1
NMTAP	37	144	5
NMTAP	37	192	2
NMTAP	37	192	6
NMTAP	37	288	0
NMTAP	37	288	4
NMSTR	37	336	0
NMSXR	37	336	0	96	144	4
NMTAP	37	336	4
NMTAP	38	48	5
NMTAP	38	96	3
NMTAP	38	144	2
NMSTR	38	192	1
NMSI_	38	192	1	96	48	5
NMTAP	38	240	0
NMTAP	38	288	1
NMTAP	38	288	4
NMTAP	38	336	6
NMSTR	39	0	3
NMSV_	39	0	3	96	48	1
NMSTR	39	0	7
NMSV_	39	0	7	96	48	5
NMTAP	39	96	3
NMTAP	39	96	7
NMSTR	39	192	2
NMSLL	39	192	2	96	96	3
NMSTR	39	192	4
NMSLR	39	192	4	96	96	3
NMTAP	39	240	2
NMTAP	39	240	4
NMTAP	39	288	2
NMTAP	39	288	4
NMSTR	40	48	5
NMSI_	40	48	5	96	48	7
NMSTR	40	96	7
NMSI_	40	96	7	96	48	1
NMSTR	40	144	1
NMSI_	40	144	1	96	48	3
NMSTR	40	192	3
BRSI_	40	192	3	96	48	7
BRTAP	40	288	0
EXTAP	41	0	1
EXTAP	41	0	6
NMTAP	41	48	2
NMTAP	41	80	2
NMTAP	41	96	3
NMTAP	41	144	4
NMTAP	41	192	5
NMTAP	41	192	6
NMTAP	41	240	7
NMTAP	41	272	7
NMSTR	41	288	0
NMSI_	41	288	0	96	48	4
NMSTR	41	336	1
NMSI_	41	336	1	96	48	3
NMSTR	42	0	0
NMSI_	42	0	0	96	48	6
NMSTR	42	48	1
NMSI_	42	48	1	96	48	5
NMTAP	42	96	0
NMTAP	42	144	1
NMTAP	42	192	7
NMTAP	42	240	4
NMTAP	42	288	2
NMTAP	42	312	2
NMTAP	42	360	1
NMTAP	42	360	7
NMTAP	43	0	1
NMTAP	43	0	7
NMHLD	43	96	5	48
NMHLD	43	144	4	48
NMHLD	43	192	3	48
NMTAP	43	240	2
NMTAP	43	272	2
NMTAP	43	288	3
NMTAP	43	336	1
NMTAP	43	336	4
NMSTR	44	0	0
NMSCR	44	0	0	96	48	4
NMSTR	44	48	4
NMSCL	44	48	4	96	48	0
NMTAP	44	96	0
NMTAP	44	144	6
NMTAP	44	192	6
NMTAP	44	240	1
NMTAP	44	240	7
NMTAP	44	288	2
NMTAP	44	336	1
NMTAP	44	336	7
EXTAP	45	0	3
EXTAP	45	0	6
NMTAP	45	48	5
NMTAP	45	80	5
NMTAP	45	96	4
NMTAP	45	144	3
NMTAP	45	192	1
NMTAP	45	192	2
NMTAP	45	240	0
NMTAP	45	272	0
NMSTR	45	288	7
NMSI_	45	288	7	96	48	3
NMSTR	45	336	6
NMSI_	45	336	6	96	48	2
NMSTR	46	0	7
NMSI_	46	0	7	96	48	1
NMSTR	46	48	6
NMSI_	46	48	6	96	48	4
NMTAP	46	96	7
NMTAP	46	144	6
NMTAP	46	192	3
NMTAP	46	240	2
NMTAP	46	288	1
NMTAP	46	288	5
NMTAP	46	336	0
NMTAP	46	336	4
NMSTR	47	0	3
NMSV_	47	0	3	96	48	5
NMSTR	47	0	7
NMSV_	47	0	7	96	48	1
NMTAP	47	96	3
NMTAP	47	96	7
NMSTR	47	192	2
NMSI_	47	192	2	96	48	0
NMSTR	47	192	4
NMSI_	47	192	4	96	48	6
NMSTR	47	240	0
NMSI_	47	240	0	96	48	3
NMSTR	47	240	6
NMSI_	47	240	6	96	48	3
NMTAP	47	288	2
NMTAP	47	288	4
NMSTR	48	48	6
NMSI_	48	48	6	96	48	4
NMSTR	48	96	4
NMSI_	48	96	4	96	48	2
NMSTR	48	144	2
NMSI_	48	144	2	96	48	0
NMTAP	48	192	0
BRTAP	48	288	4
BRTAP	48	336	2
BRTAP	48	336	6

T_REC_TAP	236
T_REC_BRK	11
T_REC_XTP	9
T_REC_BXX	0
T_REC_HLD	22
T_REC_XHO	1
T_REC_BHO	0
T_REC_BXH	0
T_REC_STR	88
T_REC_BST	0
T_REC_XST	3
T_REC_XBS	0
T_REC_TTP	6
T_REC_THO	0
T_REC_SLD	88
T_REC_BSL	4
T_REC_ALL	468
T_NUM_TAP	342
T_NUM_BRK	15
T_NUM_HLD	23
T_NUM_SLD	88
T_NUM_ALL	468
T_JUDGE_TAP	353
T_JUDGE_HLD	155
T_JUDGE_SLD	92
T_JUDGE_ALL	600
TTM_EACHPAIRS	77
TTM_SCR_TAP	171000
TTM_SCR_BRK	39000
TTM_SCR_HLD	23000
TTM_SCR_SLD	132000
TTM_SCR_ALL	365000
TTM_SCR_S	352600
TTM_SCR_SS	363500
TTM_RAT_ACV	10041

