VERSION	0.00.00	1.05.00
FES_MODE	0
BPM_DEF	118.000	118.000	118.000	118.000
MET_DEF	4	4
RESOLUTION	384
CLK_DEF	384
COMPATIBLE_CODE	MA2

BPM	0	0	118.000
MET	0	0	4	4

NMSTR	1	0	2
NMSCR	1	0	2	96	96	5
NMTAP	1	288	6
NMSTR	2	0	6
NMSCL	2	0	6	96	96	3
NMTAP	2	288	2
NMSTR	3	0	1
NMSCR	3	0	1	96	96	4
NMTAP	3	288	5
NMSTR	4	0	6
NMSXR	4	0	6	96	192	2
NMHLD	5	0	1	672
NMTAP	5	96	0
NMTAP	5	192	0
NMTAP	5	288	7
NMTAP	6	0	7
NMTAP	6	96	0
NMTAP	6	192	0
NMTAP	6	288	7
NMHLD	7	0	6	384
NMTAP	7	96	0
NMTAP	7	192	0
NMTAP	7	288	7
NMSTR	8	0	7
NMSUR	8	0	7	96	192	0
NMTAP	9	0	1
NMTAP	9	48	1
NMTAP	9	96	3
NMTAP	9	192	2
NMTAP	9	192	3
NMTAP	9	288	1
NMTAP	9	288	4
NMTAP	10	0	6
NMTAP	10	48	6
NMTAP	10	96	4
NMTAP	10	192	4
NMTAP	10	192	5
NMTAP	10	288	3
NMTAP	10	288	6
NMTAP	11	0	5
NMTAP	11	48	5
NMTAP	11	96	3
NMTAP	11	144	3
NMTAP	11	192	4
NMTAP	11	240	4
NMTAP	11	288	2
NMTAP	12	0	1
NMTAP	12	48	1
NMTAP	12	96	7
NMTAP	12	144	7
NMTAP	12	192	0
NMTAP	12	240	0
NMTAP	12	288	6
NMTAP	13	0	6
NMTAP	13	0	7
NMTAP	13	96	0
NMTAP	13	96	4
NMTAP	13	192	0
NMTAP	13	192	1
NMTAP	13	288	3
NMTAP	13	288	7
NMTAP	14	0	6
NMTAP	14	48	5
NMTAP	14	96	4
NMTAP	14	192	1
NMTAP	14	240	2
NMTAP	14	288	3
NMTAP	15	0	4
NMHLD	15	0	5	96
NMTAP	15	96	7
NMHLD	15	192	2	96
NMTAP	15	192	3
NMSTR	15	288	0
NMSCL	15	288	0	96	96	5
NMSTR	16	96	3
NMSI_	16	96	3	96	96	0
NMSI_	16	96	3	96	96	6
EXHLD	17	0	7	288
NMTTP	17	96	7	E	0	M1
NMTTP	17	192	6	E	0	M1
NMTTP	17	288	5	E	0	M1
EXHLD	18	0	0	288
NMTTP	18	96	1	E	0	M1
NMTTP	18	192	2	E	0	M1
NMTTP	18	288	3	E	0	M1
NMTAP	19	0	5
NMTAP	19	96	4
NMSTR	19	96	5
NMSCR	19	96	5	96	96	0
NMTAP	19	288	1
NMTAP	20	0	2
NMSTR	20	96	2
NMSCL	20	96	2	96	96	7
NMTAP	20	96	3
NMTAP	20	288	6
EXHLD	21	0	4	288
NMTTP	21	96	7	E	0	M1
NMTTP	21	192	6	E	0	M1
NMTTP	21	288	5	E	0	M1
EXHLD	22	0	3	288
NMTTP	22	96	3	E	0	M1
NMTTP	22	192	2	E	0	M1
NMTTP	22	288	1	E	0	M1
NMTAP	23	0	2
NMTAP	23	0	7
NMTAP	23	96	1
NMTAP	23	144	1
NMTAP	23	192	7
NMTAP	23	240	7
NMSTR	23	288	0
NMSXL	23	288	0	96	192	0
NMSXR	23	288	0	96	192	0
NMTAP	24	288	0
NMTAP	24	288	1
NMTAP	24	336	2
BXTAP	25	0	3
BXTAP	25	0	5
NMTAP	25	96	6
NMTAP	25	96	7
NMTAP	25	144	5
NMSTR	25	192	2
NMSI_	25	192	2	96	48	7
NMSTR	25	192	4
NMSI_	25	192	4	96	48	7
NMTAP	26	48	0
NMTAP	26	48	6
NMTAP	26	96	0
NMTAP	26	96	6
NMSTR	26	192	5
NMSI_	26	192	5	96	48	0
NMSTR	26	192	7
NMSI_	26	192	7	96	48	3
NMHLD	27	0	1	96
NMHLD	27	96	3	96
NMTAP	27	192	4
NMSTR	27	288	4
NMSF_	27	288	4	96	96	0
NMTAP	28	192	2
NMTAP	28	192	6
NMTAP	28	288	1
NMTAP	28	288	7
NMTAP	28	336	6
BXTAP	29	0	4
BXTAP	29	0	5
NMTAP	29	96	0
NMTAP	29	96	6
NMTAP	29	144	1
NMSTR	29	192	2
NMSI_	29	192	2	96	48	7
NMSTR	29	192	3
NMSI_	29	192	3	96	48	6
NMTAP	30	48	0
NMTAP	30	48	5
NMTAP	30	96	0
NMTAP	30	96	5
NMSTR	30	192	1
NMSI_	30	192	1	96	48	4
NMSTR	30	192	4
NMSI_	30	192	4	96	48	7
NMTAP	31	0	5
NMTAP	31	0	6
NMTAP	31	96	0
NMTAP	31	96	7
NMTAP	31	192	1
NMTAP	31	192	2
NMTAP	31	288	3
NMTAP	31	288	4
NMTAP	32	0	2
NMTAP	32	48	4
NMSTR	32	96	1
NMSXL	32	96	1	96	192	0
NMSTR	32	96	5
NMSXL	32	96	5	96	192	4
BRTAP	33	96	2
BRTAP	33	96	6
NMSTR	33	192	1
NMSI_	33	192	1	96	48	4
NMSTR	33	192	5
NMSI_	33	192	5	96	48	0
NMTAP	34	48	2
NMTAP	34	48	6
NMTAP	34	96	2
NMTAP	34	96	6
NMTAP	34	192	1
NMTAP	34	192	3
NMTAP	34	288	0
NMTAP	34	288	6
NMHLD	35	0	5	96
NMHLD	35	96	7	96
NMTAP	35	192	0
NMSTR	35	288	0
BRSF_	35	288	0	96	96	4
BXTAP	36	192	2
BXTAP	36	192	6
NMTAP	36	288	4
NMTAP	36	288	5
NMTAP	36	336	6
BXTAP	37	0	1
BXTAP	37	0	7
NMTAP	37	96	2
NMTAP	37	96	3
NMTAP	37	144	1
NMSTR	37	192	0
NMSI_	37	192	0	96	48	4
NMSTR	37	192	6
NMSI_	37	192	6	96	48	2
NMTAP	38	48	1
NMTAP	38	48	5
NMTAP	38	96	1
NMTAP	38	96	5
NMSTR	38	192	2
BRSV_	38	192	2	96	48	7
NMSTR	38	192	6
NMSI_	38	192	6	96	48	3
NMTAP	39	0	0
NMTAP	39	0	4
NMTAP	39	96	1
NMTAP	39	96	3
NMTAP	39	192	5
NMTAP	39	192	6
NMSTR	39	288	0
NMSCL	39	288	0	96	288	1
NMSTR	39	288	1
NMSCR	39	288	1	96	288	0
BRTAP	41	0	0
BRTAP	41	0	7
NMTAP	41	96	6
NMTAP	41	144	6
NMTAP	41	192	7
NMTAP	41	288	0
NMTAP	41	288	5
NMTAP	42	0	2
NMTAP	42	0	7
NMTAP	42	96	1
NMTAP	42	144	1
NMTAP	42	192	0
NMTAP	42	288	2
NMTAP	42	288	7
NMTAP	43	0	0
NMTAP	43	0	1
NMTAP	43	96	2
NMTAP	43	96	3
NMTAP	43	192	4
NMTAP	43	192	5
NMTAP	43	288	6
NMTAP	43	288	7
NMTAP	44	0	0
NMTAP	44	0	1
NMTAP	44	96	2
NMTAP	44	144	2
NMTAP	44	192	3
NMTAP	44	240	3
NMTAP	44	288	1
NMTAP	45	0	0
NMTAP	45	0	7
NMTAP	45	96	7
NMTAP	45	144	6
NMTAP	45	192	5
NMTAP	45	288	0
NMTAP	45	336	1
NMTAP	46	0	2
NMTAP	46	96	3
NMTAP	46	96	5
NMTAP	46	192	4
NMTAP	46	288	2
NMTAP	46	288	3
NMTAP	47	0	0
NMTAP	47	0	1
NMTAP	47	96	6
NMTAP	47	96	7
NMTAP	47	144	6
NMTAP	47	144	7
NMTAP	47	192	0
NMTAP	47	192	5
NMTAP	47	288	2
NMTAP	47	288	7
NMTAP	48	0	1
NMTAP	48	48	0
NMTAP	48	96	7
NMTAP	48	144	6
NMSTR	48	192	0
NMSCR	48	192	0	96	96	3
NMSTR	48	192	7
NMSCL	48	192	7	96	96	4

T_REC_TAP	182
T_REC_BRK	4
T_REC_XTP	0
T_REC_BXX	8
T_REC_HLD	8
T_REC_XHO	4
T_REC_BHO	0
T_REC_BXH	0
T_REC_STR	32
T_REC_BST	0
T_REC_XST	0
T_REC_XBS	0
T_REC_TTP	12
T_REC_THO	0
T_REC_SLD	32
T_REC_BSL	2
T_REC_ALL	284
T_NUM_TAP	226
T_NUM_BRK	14
T_NUM_HLD	12
T_NUM_SLD	32
T_NUM_ALL	284
T_JUDGE_TAP	238
T_JUDGE_HLD	116
T_JUDGE_SLD	34
T_JUDGE_ALL	388
TTM_EACHPAIRS	69
TTM_SCR_TAP	113000
TTM_SCR_BRK	36400
TTM_SCR_HLD	12000
TTM_SCR_SLD	48000
TTM_SCR_ALL	209400
TTM_SCR_S	201800
TTM_SCR_SS	208000
TTM_RAT_ACV	10067

