VERSION	0.00.00	1.05.00
FES_MODE	0
BPM_DEF	118.000	118.000	118.000	118.000
MET_DEF	4	4
RESOLUTION	384
CLK_DEF	384
COMPATIBLE_CODE	MA2

BPM	0	0	118.000
MET	0	0	4	4

NMHLD	1	0	2	192
NMHLD	1	192	3	192
NMHLD	2	0	4	192
NMTAP	2	192	5
NMHLD	3	0	5	192
NMHLD	3	192	4	192
NMHLD	4	0	3	192
NMTAP	4	192	2
NMTAP	5	0	2
NMTAP	5	96	2
NMTAP	5	192	2
NMTAP	6	0	3
NMTAP	6	96	3
NMTAP	6	192	3
NMTAP	7	0	4
NMTAP	7	96	4
NMTAP	7	192	4
NMTAP	8	0	4
NMTAP	8	0	5
NMTAP	8	192	4
NMTAP	8	192	5
NMTAP	9	0	5
NMTAP	9	96	5
NMTAP	9	192	4
NMTAP	9	192	5
NMTAP	10	0	6
NMTAP	10	96	6
NMTAP	10	192	6
NMTAP	10	192	7
NMTAP	11	0	0
NMTAP	11	96	0
NMTAP	11	192	0
NMTAP	11	192	1
NMTAP	12	0	2
NMTAP	12	0	3
NMTAP	12	96	2
NMTAP	12	96	3
NMTAP	12	192	2
NMTAP	12	192	3
NMTAP	13	0	2
NMTAP	13	48	2
NMTAP	13	96	2
NMTAP	13	192	2
NMTAP	13	192	3
NMTAP	14	0	1
NMTAP	14	48	1
NMTAP	14	96	1
NMTAP	14	192	0
NMTAP	14	192	1
NMTAP	15	0	7
NMTAP	15	48	7
NMTAP	15	96	7
NMTAP	15	192	6
NMTAP	15	192	7
NMTAP	16	0	4
NMTAP	16	0	5
NMTAP	16	96	4
NMTAP	16	96	5
NMTAP	16	192	4
NMTAP	16	192	5
NMSTR	17	0	6
NMSI_	17	0	6	96	192	3
NMSTR	18	0	1
NMSI_	18	0	1	96	192	4
NMSTR	19	0	6
NMSI_	19	0	6	96	192	2
NMSTR	20	0	0
NMSI_	20	0	0	96	192	4
NMTTP	21	0	6	B	0	L1
NMTTP	21	96	5	B	0	L1
NMTTP	21	192	4	B	0	L1
NMTTP	22	0	1	B	0	L1
NMTTP	22	96	2	B	0	L1
NMTTP	22	192	3	B	0	L1
NMTTP	23	0	6	B	0	L1
NMTTP	23	96	5	B	0	L1
NMTTP	23	192	4	B	0	L1
NMTTP	23	288	3	B	0	L1
NMTTP	24	0	0	C	1	L1
BXTAP	25	0	5
NMTAP	25	48	5
NMTAP	25	96	5
NMTAP	25	192	6
NMTAP	25	288	6
NMTAP	26	0	7
NMTAP	26	48	7
NMTAP	26	96	7
NMTAP	26	192	0
NMTAP	26	192	1
NMTAP	27	0	2
NMTAP	27	48	2
NMTAP	27	96	2
NMTAP	27	192	1
NMTAP	27	288	1
NMTAP	28	0	0
NMTAP	28	48	0
NMTAP	28	96	0
NMTAP	28	192	6
NMTAP	28	192	7
BXTAP	29	0	6
NMTAP	29	48	6
NMTAP	29	96	6
NMTAP	29	192	5
NMTAP	29	288	5
NMTAP	30	0	4
NMTAP	30	48	4
NMTAP	30	96	4
NMTAP	30	192	2
NMTAP	30	192	3
NMTAP	31	0	1
NMTAP	31	48	1
NMTAP	31	96	1
NMTAP	31	192	2
NMTAP	31	288	2
NMTAP	32	0	3
NMTAP	32	48	3
NMTAP	32	96	3
NMTAP	32	192	4
NMTAP	32	192	5
NMTAP	33	0	5
NMTAP	33	48	5
BXTAP	33	96	5
NMTAP	33	192	6
NMTAP	33	192	7
NMTAP	33	288	6
NMTAP	33	288	7
NMTAP	34	0	0
NMTAP	34	48	0
NMTAP	34	96	0
NMTAP	34	192	0
NMTAP	34	192	1
NMTAP	35	0	2
NMTAP	35	48	2
NMTAP	35	96	2
NMTAP	35	192	0
NMTAP	35	192	1
NMTAP	35	288	0
NMTAP	35	288	1
NMTAP	36	0	7
NMTAP	36	48	7
NMTAP	36	96	7
NMTAP	36	192	6
NMTAP	36	192	7
BXTAP	37	0	6
NMTAP	37	48	6
NMTAP	37	96	6
NMTAP	37	192	4
NMTAP	37	192	5
NMTAP	37	288	4
NMTAP	37	288	5
NMTAP	38	0	3
NMTAP	38	48	3
NMTAP	38	96	3
NMTAP	38	192	2
NMTAP	38	192	3
NMTAP	39	0	1
NMTAP	39	48	1
NMTAP	39	96	1
NMTAP	39	192	2
NMTAP	39	192	3
NMTAP	39	288	2
NMTAP	39	288	3
NMTAP	40	0	4
NMTAP	40	48	4
NMTAP	40	96	4
NMTAP	40	192	4
NMTAP	40	192	5
BRTAP	41	0	6
NMTAP	41	96	6
NMTAP	41	192	6
NMTAP	41	288	6
NMTAP	41	288	7
NMTAP	42	0	5
NMTAP	42	96	5
NMTAP	42	192	5
NMTAP	42	288	4
NMTAP	42	288	5
NMTAP	43	0	3
NMTAP	43	96	3
NMTAP	43	192	3
NMTAP	43	288	2
NMTAP	43	288	3
NMTAP	44	0	0
NMTAP	44	0	1
NMTAP	44	96	0
NMTAP	44	96	1
NMTAP	44	192	2
NMTAP	44	192	7
NMTAP	45	0	1
NMTAP	45	96	1
NMTAP	45	192	1
NMTAP	45	288	0
NMTAP	45	288	1
NMTAP	46	0	2
NMTAP	46	96	2
NMTAP	46	192	2
NMTAP	46	288	2
NMTAP	46	288	3
NMTAP	47	0	4
NMTAP	47	96	4
NMTAP	47	192	4
NMTAP	47	288	4
NMTAP	47	288	5
NMTAP	48	0	6
NMTAP	48	0	7
NMTAP	48	96	6
NMTAP	48	96	7
NMHLD	48	192	0	168
NMHLD	48	192	5	168

T_REC_TAP	177
T_REC_BRK	1
T_REC_XTP	0
T_REC_BXX	4
T_REC_HLD	8
T_REC_XHO	0
T_REC_BHO	0
T_REC_BXH	0
T_REC_STR	4
T_REC_BST	0
T_REC_XST	0
T_REC_XBS	0
T_REC_TTP	11
T_REC_THO	0
T_REC_SLD	4
T_REC_BSL	0
T_REC_ALL	209
T_NUM_TAP	192
T_NUM_BRK	5
T_NUM_HLD	8
T_NUM_SLD	4
T_NUM_ALL	209
T_JUDGE_TAP	197
T_JUDGE_HLD	62
T_JUDGE_SLD	4
T_JUDGE_ALL	263
TTM_EACHPAIRS	42
TTM_SCR_TAP	96000
TTM_SCR_BRK	13000
TTM_SCR_HLD	8000
TTM_SCR_SLD	6000
TTM_SCR_ALL	123000
TTM_SCR_S	118850
TTM_SCR_SS	122500
TTM_RAT_ACV	10040

