VERSION	0.00.00	1.05.00
FES_MODE	0
BPM_DEF	118.000	118.000	118.000	118.000
MET_DEF	4	4
RESOLUTION	384
CLK_DEF	384
COMPATIBLE_CODE	MA2

BPM	0	0	118.000
MET	0	0	4	4

NMTAP	1	0	0
NMTAP	2	0	0
NMTAP	3	0	0
NMTAP	5	0	7
NMTAP	6	0	7
NMHLD	7	0	0	384
NMHLD	7	0	7	384
NMTAP	9	0	0
NMTAP	9	192	0
NMTAP	10	0	1
NMTAP	10	192	1
NMTAP	11	0	2
NMTAP	11	192	2
NMTAP	12	0	3
NMTAP	12	0	4
NMTAP	13	0	4
NMTAP	13	192	4
NMTAP	14	0	5
NMTAP	14	192	5
NMTAP	15	0	6
NMTAP	15	192	6
EXTAP	16	0	0
EXTAP	16	0	7
NMSTR	17	0	7
NMSI_	17	0	7	96	288	3
NMSTR	19	0	0
NMSI_	19	0	0	96	288	4
NMTTP	21	0	5	E	0	L1
NMTTP	22	0	4	E	0	L1
NMTTP	23	0	3	E	0	L1
NMTTP	24	0	0	C	1	L1
BRTAP	25	0	0
NMTAP	25	96	0
NMTAP	25	192	0
NMTAP	26	0	1
NMTAP	26	192	1
NMTAP	27	0	2
NMTAP	27	192	2
NMTAP	28	0	2
NMTAP	28	0	3
NMTAP	29	0	4
NMTAP	29	96	4
NMTAP	29	192	4
NMTAP	30	0	5
NMTAP	30	192	5
NMTAP	31	0	6
NMTAP	31	192	6
NMTAP	32	0	6
NMTAP	32	0	7
NMTAP	33	0	7
BXTAP	33	96	7
NMTAP	33	192	7
NMTAP	34	0	6
NMTAP	34	0	7
NMTAP	34	192	6
NMTAP	34	192	7
NMTAP	35	0	5
NMTAP	35	96	5
NMTAP	35	192	5
NMTAP	36	0	3
NMTAP	36	0	4
NMTAP	36	192	3
NMTAP	36	192	4
NMTAP	37	0	3
NMTAP	37	96	3
NMTAP	37	192	3
NMTAP	38	0	2
NMTAP	38	0	3
NMTAP	38	192	2
NMTAP	38	192	3
NMTAP	39	0	1
NMTAP	39	96	1
NMTAP	39	192	1
NMTAP	40	0	0
NMTAP	40	0	7
NMHLD	41	0	0	192
NMHLD	41	0	1	192
NMTAP	42	0	0
NMTAP	42	0	1
NMTAP	42	96	0
NMTAP	42	96	1
NMTAP	42	192	0
NMTAP	42	192	1
NMHLD	43	0	2	192
NMHLD	43	0	3	192
NMTAP	44	0	2
NMTAP	44	0	3
NMTAP	44	96	2
NMTAP	44	96	3
NMTAP	44	192	2
NMTAP	44	192	3
NMHLD	45	0	4	192
NMHLD	45	0	5	192
NMTAP	46	0	4
NMTAP	46	0	5
NMTAP	46	96	4
NMTAP	46	96	5
NMTAP	46	192	4
NMTAP	46	192	5
NMHLD	47	0	6	192
NMHLD	47	0	7	192
NMSTR	48	0	7
NMSI_	48	0	7	96	288	3

T_REC_TAP	79
T_REC_BRK	1
T_REC_XTP	2
T_REC_BXX	1
T_REC_HLD	10
T_REC_XHO	0
T_REC_BHO	0
T_REC_BXH	0
T_REC_STR	3
T_REC_BST	0
T_REC_XST	0
T_REC_XBS	0
T_REC_TTP	4
T_REC_THO	0
T_REC_SLD	3
T_REC_BSL	0
T_REC_ALL	103
T_NUM_TAP	88
T_NUM_BRK	2
T_NUM_HLD	10
T_NUM_SLD	3
T_NUM_ALL	103
T_JUDGE_TAP	90
T_JUDGE_HLD	96
T_JUDGE_SLD	3
T_JUDGE_ALL	189
TTM_EACHPAIRS	25
TTM_SCR_TAP	44000
TTM_SCR_BRK	5200
TTM_SCR_HLD	10000
TTM_SCR_SLD	4500
TTM_SCR_ALL	63700
TTM_SCR_S	61600
TTM_SCR_SS	63500
TTM_RAT_ACV	10031

