VERSION	0.00.00	1.05.00
FES_MODE	0
BPM_DEF	130.000	130.000	130.000	130.000
MET_DEF	4	4
RESOLUTION	384
CLK_DEF	384
COMPATIBLE_CODE	MA2

BPM	0	0	130.000
MET	0	0	4	4

NMSTR	2	0	3
NMSXR	2	0	3	96	192	4
NMSTR	2	288	7
NMSCL	2	288	7	96	48	4
NMSTR	3	0	7
NMSCR	3	0	7	96	48	2
NMSTR	3	96	7
NMSSR	3	96	7	96	96	3
NMSTR	4	0	1
NMSCR	4	0	1	96	48	3
NMSTR	4	0	4
NMSCR	4	0	4	96	48	6
NMTAP	4	96	1
NMTAP	4	96	4
NMSTR	4	192	3
NMSCL	4	192	3	96	48	1
NMSTR	4	192	6
NMSCL	4	192	6	96	48	4
NMTAP	4	288	3
NMTAP	4	288	6
NMSTR	5	0	1
NMSCR	5	0	1	96	48	3
NMSTR	5	0	4
NMSCR	5	0	4	96	48	6
NMTAP	5	96	1
NMTAP	5	96	4
NMSTR	5	192	3
NMSCL	5	192	3	96	48	1
NMSTR	5	192	6
NMSCL	5	192	6	96	48	4
NMTAP	5	288	3
NMTAP	5	288	6
NMSTR	6	0	1
NMSCR	6	0	1	96	48	3
NMSTR	6	0	4
NMSCR	6	0	4	96	48	6
NMTAP	6	96	1
NMSTR	6	96	4
NMSV_	6	96	4	96	48	2
CNSCL	6	240	2	0	96	6
NMSTR	7	96	6
NMSI_	7	96	6	96	48	2
NMSTR	7	96	7
NMSLR	7	96	7	96	96	5
CNSI_	7	240	2	0	48	4
NMSTR	8	0	3
NMSCL	8	0	3	96	48	1
NMSTR	8	0	6
NMSCL	8	0	6	96	48	4
NMTAP	8	96	3
NMTAP	8	96	6
NMSTR	8	192	1
NMSCR	8	192	1	96	48	3
NMSTR	8	192	4
NMSCR	8	192	4	96	48	6
NMTAP	8	288	1
NMSTR	8	288	4
BRSI_	8	288	4	96	48	1
BRSUL	8	288	4	96	48	0
NMSTR	9	0	4
NMSI_	9	0	4	96	48	6
CNSI_	9	144	6	0	48	2
CNSI_	9	192	2	0	48	0
NMSTR	9	288	7
NMSF_	9	288	7	96	48	3
NMSTR	10	96	7
NMSF_	10	96	7	96	48	3
NMSTR	10	288	0
NMSI_	10	288	0	96	48	4
NMTAP	10	288	6
NMSTR	11	0	7
NMSI_	11	0	7	96	48	3
NMTAP	11	48	6
NMSTR	11	96	0
NMSI_	11	96	0	96	48	4
NMTAP	11	144	1
NMSTR	11	192	7
NMSCL	11	192	7	96	72	2
NMTAP	11	240	6
BRHLD	11	288	1	144
NMTAP	12	48	3
NMTAP	12	96	3
NMSTR	12	192	2
NMSI_	12	192	2	96	48	0
NMSTR	12	192	4
NMSI_	12	192	4	96	48	0
NMTAP	12	240	3
NMSTR	13	0	3
NMSI_	13	0	3	96	48	7
NMSTR	13	0	5
NMSI_	13	0	5	96	48	7
NMTAP	13	48	4
NMSTR	13	192	0
NMSI_	13	192	0	96	48	3
NMSTR	13	192	6
NMSI_	13	192	6	96	48	3
NMSTR	13	288	0
NMSXL	13	288	0	96	144	3
NMTAP	13	288	6
NMSTR	14	0	5
NMSI_	14	0	5	96	48	7
NMSTR	14	192	0
NMSI_	14	192	0	96	48	2
NMSI_	14	192	0	96	48	4
NMTAP	14	240	1
NMTAP	14	240	7
NMSTR	15	0	7
NMSI_	15	0	7	96	48	3
NMSI_	15	0	7	96	48	5
NMTAP	15	48	0
NMTAP	15	48	6
BRTAP	15	192	0
BRTAP	15	288	2
BRTAP	15	288	5
BRTAP	15	336	1
BRTAP	15	336	6
BRSTR	16	0	0
NMSI_	16	0	0	96	48	4
BRTAP	16	0	4
NMSTR	16	192	3
NMSI_	16	192	3	96	48	7
NMSTR	16	192	5
NMSI_	16	192	5	96	48	7
NMTAP	16	240	4
NMSTR	17	0	2
NMSI_	17	0	2	96	48	0
NMSTR	17	0	4
NMSI_	17	0	4	96	48	0
NMTAP	17	48	3
NMSTR	17	192	1
NMSCR	17	192	1	96	48	4
NMSTR	17	192	5
NMSCR	17	192	5	96	48	0
NMSTR	17	288	1
NMSV_	17	288	1	96	96	7
NMSTR	17	288	5
NMSV_	17	288	5	96	96	3
NMSTR	18	192	1
NMSCR	18	192	1	96	48	4
NMSTR	18	192	7
NMSCL	18	192	7	96	48	4
NMTAP	18	288	1
NMTAP	18	288	7
NMSTR	19	0	0
NMSCR	19	0	0	96	48	3
NMSTR	19	0	6
NMSCL	19	0	6	96	48	3
NMTAP	19	96	0
NMSTR	19	96	6
NMSXR	19	96	6	96	144	2
NMSTR	19	192	1
NMSI_	19	192	1	96	48	7
NMHLD	20	0	0	240
NMTAP	20	240	2
NMSTR	20	288	2
NMSCL	20	288	2	96	144	6
NMHLD	21	0	2	192
NMTAP	21	240	5
NMSTR	21	288	5
NMSCR	21	288	5	96	144	1
NMHLD	22	0	5	192
NMTAP	22	240	2
NMSTR	22	288	2
NMSCR	22	288	2	96	96	5
CNSI_	23	96	5	0	96	0
CNSCL	23	192	0	0	48	6
CNSUL	23	240	6	0	96	1
NMHLD	24	0	7	48
NMHLD	24	96	7	48
NMHLD	24	192	7	48
NMTAP	24	240	5
NMSTR	24	288	5
NMSCR	24	288	5	96	144	1
NMHLD	25	0	4	48
NMHLD	25	96	4	48
NMHLD	25	192	4	48
NMTAP	25	240	2
NMSTR	25	288	2
NMSCL	25	288	2	96	144	6
NMHLD	26	0	3	48
NMHLD	26	96	3	48
NMTAP	26	192	4
NMTAP	26	240	4
NMTAP	26	288	3
NMTAP	26	288	5
NMTAP	26	336	3
NMTAP	26	336	5
NMTTP	27	0	4	B	0	M1
NMSTR	27	192	0
BRSI_	27	192	0	96	48	3
BRSCR	27	192	0	96	48	3
BRTAP	27	288	0
NMSTR	28	0	1
NMSCR	28	0	1	96	48	4
NMSTR	28	0	4
NMSCR	28	0	4	96	48	7
NMTAP	28	96	1
NMSTR	28	96	4
NMSUL	28	96	4	96	96	3
NMTAP	28	192	4
NMTAP	28	192	5
NMTTP	28	288	7	E	1	M1
NMTTP	28	288	7	A	0	M1
NMTTP	28	288	7	D	0	M1
NMSTR	29	0	1
NMSCR	29	0	1	96	48	4
NMSTR	29	0	4
NMSCR	29	0	4	96	48	7
NMTAP	29	96	1
NMSTR	29	96	4
NMSUL	29	96	4	96	96	3
NMTAP	29	192	4
NMTAP	29	192	5
NMTTP	29	288	7	E	1	M1
NMTTP	29	288	7	A	0	M1
NMTTP	29	288	7	D	0	M1
NMSTR	30	0	1
NMSCR	30	0	1	96	48	4
NMSTR	30	0	4
NMSCR	30	0	4	96	48	7
NMTAP	30	96	1
NMSTR	30	96	4
NMSUL	30	96	4	96	96	3
NMTAP	30	192	4
NMTAP	30	192	5
NMTTP	30	288	7	E	1	M1
NMTTP	30	288	7	A	0	M1
NMTTP	30	288	7	D	0	M1
NMSTR	31	0	1
NMSCR	31	0	1	96	48	4
NMSTR	31	0	5
NMSCR	31	0	5	96	48	0
NMTAP	31	96	1
NMTAP	31	96	5
NMSTR	31	192	3
NMSI_	31	192	3	96	48	0
NMSTR	31	192	7
NMSI_	31	192	7	96	48	4
NMTAP	31	288	3
NMTAP	31	288	7
NMSTR	32	0	1
NMSCR	32	0	1	96	48	4
NMSTR	32	0	4
NMSCR	32	0	4	96	48	7
NMTAP	32	96	1
NMSTR	32	96	4
NMSUL	32	96	4	96	96	3
NMTAP	32	192	4
NMTAP	32	192	5
NMTTP	32	288	7	E	1	M1
NMTTP	32	288	7	A	0	M1
NMTTP	32	288	7	D	0	M1
NMSTR	33	0	1
NMSCR	33	0	1	96	48	4
NMSTR	33	0	4
NMSCR	33	0	4	96	48	7
NMTAP	33	96	1
NMSTR	33	96	4
NMSUL	33	96	4	96	96	3
NMTAP	33	192	4
NMTAP	33	192	5
NMTTP	33	288	7	E	1	M1
NMTTP	33	288	7	A	0	M1
NMTTP	33	288	7	D	0	M1
NMSTR	34	0	1
NMSCR	34	0	1	96	48	4
NMSTR	34	0	4
NMSCR	34	0	4	96	48	7
NMTAP	34	96	1
NMSTR	34	96	4
NMSUL	34	96	4	96	96	3
NMTAP	34	192	4
NMTAP	34	192	5
NMTTP	34	288	7	E	1	M1
NMTTP	34	288	7	A	0	M1
NMTTP	34	288	7	D	0	M1
NMSTR	35	0	1
NMSCL	35	0	1	96	48	6
NMSTR	35	0	5
NMSCL	35	0	5	96	48	2
NMTAP	35	96	1
NMTAP	35	96	5
NMSTR	35	192	3
NMSI_	35	192	3	96	48	6
NMSTR	35	192	7
NMSI_	35	192	7	96	48	2
NMTAP	35	288	3
NMTAP	35	288	7
NMSTR	36	0	1
NMSI_	36	0	1	96	24	3
NMSTR	36	48	1
NMSI_	36	48	1	96	48	7
NMSTR	36	96	1
NMSXL	36	96	1	96	96	5
NMTAP	36	288	7
EXTAP	36	336	7
NMSTR	37	0	6
NMSI_	37	0	6	96	24	4
NMSTR	37	48	6
NMSI_	37	48	6	96	48	0
NMSTR	37	96	6
NMSXR	37	96	6	96	96	2
NMTAP	37	288	0
EXTAP	37	336	0
NMSTR	38	0	1
NMSCR	38	0	1	96	24	3
NMSTR	38	48	1
NMSCL	38	48	1	96	48	7
NMSTR	38	96	1
NMSXL	38	96	1	96	96	5
NMSTR	38	288	7
NMSUL	38	288	7	96	48	2
NMSV_	38	288	7	96	48	1
EXTAP	38	336	7
NMSTR	39	96	0
NMSUR	39	96	0	96	48	5
NMSV_	39	96	0	96	48	6
NMTAP	39	144	0
NMTAP	39	288	7
NMTAP	39	336	7
NMSTR	40	0	6
NMSI_	40	0	6	96	48	0
NMSTR	40	48	5
NMSI_	40	48	5	96	48	3
NMSTR	40	96	6
NMSXR	40	96	6	96	96	2
NMTAP	40	288	0
EXTAP	40	336	0
NMSTR	41	0	1
NMSI_	41	0	1	96	48	7
NMSTR	41	48	2
NMSI_	41	48	2	96	48	4
NMSTR	41	96	1
NMSXL	41	96	1	96	96	5
NMTAP	41	288	7
EXTAP	41	336	7
NMSTR	42	0	6
NMSI_	42	0	6	96	48	0
NMSTR	42	48	5
NMSI_	42	48	5	96	48	3
NMSTR	42	96	6
NMSXR	42	96	6	96	96	2
NMSTR	42	288	0
NMSCL	42	288	0	96	96	4
NMSTR	43	0	4
NMSCL	43	0	4	96	96	0
NMSTR	43	96	0
NMSCL	43	96	0	96	96	4
NMSTR	43	192	4
NMSCL	43	192	4	96	96	0
NMSTR	43	288	0
BRSF_	43	288	0	96	96	4
NMSTR	44	288	6
NMSI_	44	288	6	96	96	1
NMSTR	45	0	1
NMSI_	45	0	1	96	96	5
NMSTR	45	96	5
NMSI_	45	96	5	96	96	2
NMTAP	45	192	2
NMSTR	45	288	1
NMSI_	45	288	1	96	96	6
NMSTR	46	0	6
NMSI_	46	0	6	96	96	2
NMSTR	46	96	2
NMSI_	46	96	2	96	96	5
NMTAP	46	192	5
NMSTR	46	288	7
NMSI_	46	288	7	96	96	4
NMSTR	47	0	4
NMSI_	47	0	4	96	96	0
NMSTR	47	96	0
NMSI_	47	96	0	96	96	3
NMTAP	47	192	3
NMTAP	47	288	4
NMSTR	48	0	1
NMSI_	48	0	1	96	48	3
NMTAP	48	96	1
NMSTR	48	96	5
NMSI_	48	96	5	96	48	7
NMSTR	48	192	3
NMSI_	48	192	3	96	48	5
NMTAP	48	192	5
NMTAP	48	288	3
NMSTR	48	288	7
NMSI_	48	288	7	96	48	1
NMSTR	49	0	4
NMSI_	49	0	4	96	48	2
NMTAP	49	0	7
NMSTR	49	96	0
NMSI_	49	96	0	96	48	6
NMTAP	49	96	4
NMTAP	49	192	0
NMSTR	49	192	2
NMSI_	49	192	2	96	48	0
NMTAP	49	288	2
NMSTR	49	288	6
NMSI_	49	288	6	96	48	4
NMSTR	50	0	1
NMSI_	50	0	1	96	48	3
NMTAP	50	0	6
NMTAP	50	96	1
NMSTR	50	96	5
NMSI_	50	96	5	96	48	7
NMSTR	50	192	3
NMSI_	50	192	3	96	48	5
NMTAP	50	192	5
NMTAP	50	288	3
NMSTR	50	288	7
NMSI_	50	288	7	96	96	1
EXTAP	51	0	4
CNSUR	51	96	1	0	96	2
CNSI_	51	192	2	0	96	4
NMTAP	52	0	1
NMTAP	52	0	5
NMTAP	52	48	3
NMTAP	52	96	2
NMTAP	52	96	6
NMTAP	52	144	4
NMSTR	52	192	1
NMSCR	52	192	1	96	48	3
NMSTR	52	192	6
NMSCL	52	192	6	96	48	4
NMTAP	52	240	0
NMTAP	52	240	7
NMTAP	53	0	1
NMTAP	53	0	5
NMTAP	53	48	3
NMTAP	53	96	2
NMTAP	53	96	6
NMTAP	53	144	4
NMSTR	53	192	1
NMSCR	53	192	1	96	48	3
NMSTR	53	192	6
NMSCL	53	192	6	96	48	4
NMTAP	53	240	0
NMTAP	53	240	7
NMTAP	54	0	1
NMTAP	54	0	5
NMTAP	54	48	3
NMTAP	54	96	2
NMTAP	54	96	6
NMTAP	54	144	4
NMSTR	54	192	1
NMSCR	54	192	1	96	48	3
NMSTR	54	192	6
NMSCL	54	192	6	96	48	4
NMTAP	54	240	0
NMTAP	54	240	7
NMHLD	55	0	1	96
NMHLD	55	0	5	96
BRHLD	55	192	2	48
BRHLD	55	192	6	48
BRTAP	55	288	2
BRTAP	55	288	6
NMSTR	56	0	1
NMSCR	56	0	1	96	48	4
NMSTR	56	0	4
NMSCR	56	0	4	96	48	7
NMTAP	56	48	0
NMTAP	56	96	1
NMSTR	56	96	4
NMSUR	56	96	4	96	96	6
NMSXR	56	96	4	96	96	6
NMTTP	56	288	6	A	1	M1
NMTTP	56	288	6	D	0	M1
NMTTP	56	288	7	D	0	M1
NMSTR	57	0	1
NMSCR	57	0	1	96	48	4
NMSTR	57	0	4
NMSCR	57	0	4	96	48	7
NMTAP	57	48	0
NMTAP	57	96	1
NMSTR	57	96	4
NMSUR	57	96	4	96	96	6
NMSXR	57	96	4	96	96	6
NMTTP	57	288	6	A	1	M1
NMTTP	57	288	6	D	0	M1
NMTTP	57	288	7	D	0	M1
NMSTR	58	0	1
NMSCR	58	0	1	96	48	4
NMSTR	58	0	4
NMSCR	58	0	4	96	48	7
NMTAP	58	48	0
NMTAP	58	96	1
NMSTR	58	96	4
NMSUR	58	96	4	96	96	6
NMSXR	58	96	4	96	96	6
NMTTP	58	288	6	A	1	M1
NMTTP	58	288	6	D	0	M1
NMTTP	58	288	7	D	0	M1
NMSTR	59	0	0
NMSI_	59	0	0	96	48	4
NMSTR	59	96	0
NMSXL	59	96	0	96	48	2
NMSXR	59	96	0	96	48	6
BRHLD	59	288	1	48
BRHLD	59	288	7	48
NMSTR	60	0	2
NMSI_	60	0	2	96	48	0
NMSTR	60	48	3
NMSI_	60	48	3	96	48	7
NMSTR	60	96	4
NMSXR	60	96	4	96	96	0
NMTAP	60	288	6
EXTAP	60	336	6
NMSTR	61	0	5
NMSI_	61	0	5	96	48	7
NMSTR	61	48	4
NMSI_	61	48	4	96	48	0
NMSTR	61	96	3
NMSXL	61	96	3	96	96	7
NMTAP	61	288	1
EXTAP	61	336	1
NMSTR	62	0	2
NMSI_	62	0	2	96	48	0
NMSTR	62	48	3
NMSI_	62	48	3	96	48	7
NMSTR	62	96	4
NMSXR	62	96	4	96	96	0
NMSTR	62	288	6
NMSCR	62	288	6	96	48	1
NMSUL	62	288	6	96	48	2
EXTAP	62	336	6
NMSTR	63	96	1
NMSCL	63	96	1	96	48	6
NMSUR	63	96	1	96	48	5
NMTAP	63	144	1
NMTAP	63	288	7
NMTAP	63	336	7
NMSTR	64	0	2
NMSI_	64	0	2	96	48	5
NMSTR	64	48	4
NMSI_	64	48	4	96	48	7
NMSTR	64	96	6
NMSXR	64	96	6	96	96	1
NMTAP	64	288	0
NMTAP	64	336	0
NMSTR	65	0	5
NMSI_	65	0	5	96	48	2
NMSTR	65	48	3
NMSI_	65	48	3	96	48	0
NMSTR	65	96	1
NMSXL	65	96	1	96	96	6
NMTAP	65	288	7
NMTAP	65	336	7
NMSTR	66	0	2
NMSI_	66	0	2	96	48	5
NMSTR	66	48	4
NMSI_	66	48	4	96	48	7
NMSTR	66	96	6
NMSXR	66	96	6	96	96	1
NMTAP	66	288	0
NMTAP	66	336	0
NMSTR	67	0	7
NMSCL	67	0	7	96	48	3
NMSCR	67	0	7	96	48	3
BRTAP	67	96	7
BRHLD	67	192	1	96
BRHLD	67	192	5	96
NMSTR	68	0	4
NMSCR	68	0	4	96	288	2
NMTTP	68	96	3	B	0	M1
NMTTP	68	192	1	B	0	M1
NMTTP	68	288	7	B	0	M1
CNSLL	69	0	2	0	192	6
NMTTP	69	0	5	B	0	M1
NMTTP	69	96	7	E	0	M1
NMTTP	69	192	0	E	0	M1
CNSI_	69	192	6	0	96	4
NMTTP	69	288	2	E	0	M1
NMSTR	70	0	3
NMSCL	70	0	3	96	288	5
NMTTP	70	96	4	B	0	M1
NMTTP	70	192	6	B	0	M1
NMTTP	70	288	0	B	0	M1
NMTTP	71	0	2	B	0	M1
CNSLR	71	0	5	0	192	1
NMTTP	71	96	1	E	0	M1
NMTTP	71	192	0	E	0	M1
CNSI_	71	192	1	0	96	3
NMTTP	71	288	6	E	0	M1
NMSTR	72	0	7
NMSCL	72	0	7	96	288	1
NMTTP	72	96	0	B	0	M1
NMTTP	72	192	2	B	0	M1
NMTTP	72	288	4	B	0	M1
CNSLR	73	0	1	0	192	5
NMTTP	73	0	6	B	0	M1
NMTTP	73	96	5	E	0	M1
NMTTP	73	192	4	E	0	M1
CNSI_	73	192	5	0	96	7
NMTTP	73	288	2	E	0	M1
NMSTR	74	0	0
NMSCR	74	0	0	96	288	6
NMTTP	74	96	7	B	0	M1
NMTTP	74	192	5	B	0	M1
NMTTP	74	288	3	B	0	M1
NMTTP	75	0	1	B	0	M1
CNSLL	75	0	6	0	192	2
NMTTP	75	96	3	E	0	M1
CNSI_	75	192	2	0	96	0
NMTTP	75	192	4	E	0	M1
NMTTP	75	288	6	E	0	M1
NMSTR	76	0	7
NMSUL	76	0	7	96	96	2
NMTAP	76	96	2
NMSTR	76	192	1
NMSLR	76	192	1	96	96	7
NMTAP	76	288	4
NMTAP	77	0	5
NMSTR	77	96	0
NMSI_	77	96	0	96	48	4
NMSTR	77	96	6
NMSI_	77	96	6	96	48	1
CNSI_	77	240	1	0	48	3
EXSTR	77	288	4
NMSV_	77	288	4	96	48	1
NMSV_	77	288	4	96	48	5
NMTAP	78	96	2
NMTAP	78	96	6
NMTAP	78	192	1
NMTAP	78	192	5
NMSTR	78	288	7
NMSCL	78	288	7	96	96	1
NMTAP	78	336	7
NMTTP	79	0	0	C	0	M1

T_REC_TAP	138
T_REC_BRK	10
T_REC_XTP	9
T_REC_BXX	0
T_REC_HLD	13
T_REC_XHO	0
T_REC_BHO	7
T_REC_BXH	0
T_REC_STR	178
T_REC_BST	1
T_REC_XST	1
T_REC_XBS	0
T_REC_TTP	57
T_REC_THO	0
T_REC_SLD	189
T_REC_BSL	5
T_REC_ALL	608
T_NUM_TAP	383
T_NUM_BRK	23
T_NUM_HLD	13
T_NUM_SLD	189
T_NUM_ALL	608
T_JUDGE_TAP	394
T_JUDGE_HLD	36
T_JUDGE_SLD	194
T_JUDGE_ALL	624
TTM_EACHPAIRS	98
TTM_SCR_TAP	191500
TTM_SCR_BRK	59800
TTM_SCR_HLD	13000
TTM_SCR_SLD	283500
TTM_SCR_ALL	547800
TTM_SCR_S	529150
TTM_SCR_SS	545500
TTM_RAT_ACV	10042

