VERSION	0.00.00	1.05.00
FES_MODE	0
BPM_DEF	130.000	130.000	130.000	130.000
MET_DEF	4	4
RESOLUTION	384
CLK_DEF	384
COMPATIBLE_CODE	MA2

BPM	0	0	130.000
MET	0	0	4	4

EXTAP	1	192	3
EXHLD	1	192	4	672
NMTTP	2	288	4	E	0	M1
NMTAP	3	0	2
NMTAP	3	48	2
NMTAP	3	96	2
NMTAP	3	192	1
NMTAP	3	192	3
NMTAP	3	288	0
NMTAP	3	288	4
EXTAP	4	0	1
NMHLD	4	0	3	192
NMTAP	4	192	2
NMTAP	4	240	2
NMTAP	4	288	2
NMTAP	4	288	4
NMHLD	5	0	1	192
NMTAP	5	0	3
NMTAP	5	192	2
NMTAP	5	240	2
NMTAP	5	288	0
NMTAP	5	288	2
NMTAP	6	0	1
NMHLD	6	0	3	192
NMTAP	6	192	2
NMTAP	6	240	2
NMSTR	6	288	2
NMSUR	6	288	2	96	192	4
NMHLD	6	288	4	96
NMTAP	7	288	3
NMTAP	7	288	5
NMHLD	8	0	4	192
NMTAP	8	0	6
NMTAP	8	192	5
NMTAP	8	240	5
NMTAP	8	288	3
NMTAP	8	288	5
BXHLD	9	0	6	96
BXHLD	9	96	4	96
NMTAP	9	192	5
NMTAP	9	240	5
NMTAP	9	288	3
NMTAP	9	288	5
NMHLD	10	0	4	192
NMTAP	10	0	6
NMTAP	10	192	5
NMTAP	10	240	4
NMSTR	10	288	3
NMSXL	10	288	3	96	288	1
NMHLD	10	288	6	96
BRTAP	11	288	7
NMTAP	12	0	1
NMTAP	12	48	1
NMTAP	12	96	0
NMTAP	12	96	2
NMTAP	12	192	2
NMTAP	12	240	2
NMTAP	12	288	1
NMSTR	12	288	3
NMSUR	12	288	3	96	96	7
NMSTR	13	96	2
NMSCL	13	96	2	96	96	0
EXTAP	13	288	7
NMTAP	14	0	6
NMTAP	14	48	6
NMTAP	14	96	5
NMHLD	14	96	7	96
NMTAP	14	192	4
NMTAP	14	240	4
NMSTR	14	288	0
NMSI_	14	288	0	96	96	3
CNSI_	15	96	3	0	96	6
BRTAP	15	288	0
BRTAP	15	288	7
NMTAP	16	0	6
NMTAP	16	48	6
NMTAP	16	96	7
NMTAP	16	192	5
NMTAP	16	240	5
NMSTR	16	288	4
NMSUL	16	288	4	96	96	0
NMTAP	16	288	6
NMSTR	17	96	5
NMSCR	17	96	5	96	96	7
EXTAP	17	288	0
NMTAP	18	0	1
NMTAP	18	48	1
NMHLD	18	96	0	96
NMTAP	18	96	2
NMTAP	18	192	3
NMTAP	18	240	3
NMTAP	18	288	7
NMTAP	18	336	7
NMTAP	19	0	0
NMTAP	19	0	6
NMTAP	19	48	0
NMTAP	19	48	6
NMSTR	19	96	0
NMSCR	19	96	0	96	96	3
NMSTR	19	96	6
NMSCL	19	96	6	96	96	3
NMHLD	20	0	1	384
NMTAP	20	0	4
NMTTP	20	192	2	B	0	M1
NMHLD	21	0	3	384
NMTTP	21	192	4	E	0	M1
NMHLD	22	0	4	384
NMTTP	22	192	5	B	0	M1
NMHLD	23	0	6	768
NMTTP	23	192	3	B	0	M1
NMTTP	23	192	4	B	0	M1
NMTTP	24	0	3	E	0	M1
NMTTP	24	96	4	E	0	M1
NMTTP	24	192	5	E	0	M1
NMTTP	24	288	6	E	0	M1
NMTTP	25	0	7	E	0	M1
NMTTP	25	96	0	E	0	M1
NMTTP	25	192	0	C	0	M1
EXTAP	25	288	0
EXTAP	25	288	7
NMTAP	26	0	0
NMTAP	26	0	1
NMTAP	26	96	1
NMTAP	26	96	2
NMTAP	26	192	3
NMTAP	26	240	3
NMTAP	26	288	5
NMTAP	26	336	5
NMTTP	27	0	0	C	0	M1
NMTAP	27	192	7
NMTAP	27	240	7
BRTAP	27	288	0
BRTAP	27	288	6
NMHLD	28	0	1	48
NMHLD	28	0	3	48
NMHLD	28	96	4	48
NMHLD	28	96	6	48
NMHLD	28	192	3	48
NMHLD	28	192	4	48
EXTAP	28	288	0
EXTAP	28	288	7
NMHLD	29	0	1	48
NMHLD	29	0	3	48
NMHLD	29	96	4	48
NMHLD	29	96	6	48
NMHLD	29	192	3	48
NMHLD	29	192	4	48
EXTAP	29	288	0
EXTAP	29	288	7
NMHLD	30	0	1	48
NMHLD	30	0	3	48
NMHLD	30	96	4	48
NMHLD	30	96	6	48
NMHLD	30	192	3	48
NMHLD	30	192	4	48
EXTAP	30	288	0
EXTAP	30	288	7
NMTAP	31	0	7
NMTAP	31	48	6
NMTAP	31	96	0
NMTAP	31	144	1
NMTAP	31	192	7
NMTAP	31	240	6
BRTAP	31	288	0
BRTAP	31	288	5
NMHLD	32	0	1	48
NMHLD	32	0	3	48
NMHLD	32	96	4	48
NMHLD	32	96	6	48
NMHLD	32	192	3	48
NMHLD	32	192	4	48
EXTAP	32	288	0
EXTAP	32	288	7
NMHLD	33	0	1	48
NMHLD	33	0	3	48
NMHLD	33	96	4	48
NMHLD	33	96	6	48
NMHLD	33	192	3	48
NMHLD	33	192	4	48
EXTAP	33	288	0
EXTAP	33	288	7
NMHLD	34	0	1	48
NMHLD	34	0	3	48
NMHLD	34	96	4	48
NMHLD	34	96	6	48
NMHLD	34	192	3	48
NMHLD	34	192	4	48
EXTAP	34	288	0
EXSTR	34	288	7
NMSCR	34	288	7	96	144	5
NMTAP	35	192	7
NMTAP	35	240	7
BRTAP	35	288	0
BRTAP	35	288	6
NMTAP	36	0	1
NMTAP	36	48	1
NMTAP	36	96	7
NMTAP	36	192	5
NMTAP	36	240	5
NMHLD	36	288	4	48
NMHLD	36	288	6	48
NMTAP	37	0	1
NMTAP	37	48	1
NMTAP	37	96	7
NMTAP	37	192	5
NMTAP	37	240	5
NMHLD	37	288	4	48
NMHLD	37	288	6	48
NMTAP	38	0	1
NMTAP	38	48	1
NMTAP	38	96	7
NMTAP	38	192	5
NMTAP	38	240	5
NMHLD	38	288	4	48
NMHLD	38	288	6	48
EXSTR	39	0	6
NMSI_	39	0	6	96	48	4
EXSTR	39	0	7
NMSI_	39	0	7	96	48	2
EXSTR	39	192	0
NMSI_	39	192	0	96	48	5
EXSTR	39	192	1
NMSI_	39	192	1	96	48	3
NMTAP	40	0	6
NMTAP	40	48	6
NMTAP	40	96	0
NMTAP	40	192	2
NMTAP	40	240	2
NMHLD	40	288	1	48
NMHLD	40	288	3	48
NMTAP	41	0	6
NMTAP	41	48	6
NMTAP	41	96	0
NMTAP	41	192	2
NMTAP	41	240	2
NMHLD	41	288	1	48
NMHLD	41	288	3	48
NMTAP	42	0	6
NMTAP	42	48	6
NMTAP	42	96	0
NMTAP	42	192	2
NMTAP	42	240	2
NMHLD	42	288	1	48
NMHLD	42	288	3	48
EXHLD	43	0	0	96
NMHLD	43	96	2	96
NMHLD	43	192	4	96
NMTAP	43	288	6
BRSTR	44	0	3
NMSUR	44	0	3	96	288	4
BRTAP	44	0	7
CNSCR	45	0	4	0	288	2
NMSTR	46	0	4
NMSUL	46	0	4	96	288	3
CNSCL	47	0	3	0	288	5
EXTAP	47	288	0
NMTAP	48	0	4
NMTAP	48	96	5
NMTAP	48	96	7
NMTAP	48	192	6
NMTAP	48	240	6
NMTAP	48	288	1
NMTAP	48	288	7
NMTAP	49	0	3
NMTAP	49	96	0
NMTAP	49	96	2
NMTAP	49	192	1
NMTAP	49	240	1
NMTAP	49	288	0
NMTAP	49	288	6
NMTAP	50	0	4
NMTAP	50	96	5
NMTAP	50	96	7
NMTAP	50	192	6
NMTAP	50	240	6
NMSTR	50	288	0
NMSXL	50	288	0	96	192	3
NMSTR	50	288	7
NMSXR	50	288	7	96	192	4
BRTAP	51	288	2
BRTAP	51	288	5
NMTTP	52	0	2	E	0	M1
NMTTP	52	0	5	E	0	M1
NMTTP	52	96	3	E	0	M1
NMTTP	52	96	6	E	0	M1
NMTHO	52	192	0	96	C	0	M1
NMTTP	53	0	2	E	0	M1
NMTTP	53	0	5	E	0	M1
NMTTP	53	96	3	E	0	M1
NMTTP	53	96	6	E	0	M1
NMTHO	53	192	0	96	C	0	M1
NMTTP	54	0	2	E	0	M1
NMTTP	54	0	5	E	0	M1
NMTTP	54	96	3	E	0	M1
NMTTP	54	96	6	E	0	M1
NMTHO	54	192	0	96	C	0	M1
NMTAP	55	0	1
NMHLD	55	0	6	288
BRTAP	55	288	0
NMTAP	56	0	0
NMSTR	56	0	1
NMSCR	56	0	1	96	48	4
NMSUR	56	0	1	96	48	5
NMTAP	56	192	6
NMTAP	56	240	6
EXTAP	56	288	5
EXTAP	56	288	7
NMTAP	57	0	0
NMSTR	57	0	1
NMSCR	57	0	1	96	48	4
NMSUR	57	0	1	96	48	5
NMTAP	57	192	6
NMTAP	57	240	6
EXTAP	57	288	5
EXTAP	57	288	7
NMTAP	58	0	0
NMHLD	58	0	1	192
NMTAP	58	192	7
NMTAP	58	240	7
EXHLD	58	288	0	384
EXSTR	58	288	6
NMSCL	58	288	6	96	48	4
CNSI_	59	48	4	0	96	2
BXTAP	59	288	7
NMTAP	60	0	6
NMTAP	60	48	6
NMTAP	60	96	5
NMTAP	60	96	7
NMTAP	60	192	3
NMTAP	60	240	3
NMHLD	60	288	2	48
NMHLD	60	288	4	48
NMTAP	61	0	6
NMTAP	61	48	6
NMTAP	61	96	5
NMTAP	61	96	7
NMTAP	61	192	3
NMTAP	61	240	3
NMHLD	61	288	2	48
NMHLD	61	288	4	48
NMTAP	62	0	6
NMTAP	62	48	6
NMTAP	62	96	5
NMTAP	62	96	7
NMTAP	62	192	2
NMTAP	62	240	2
NMHLD	62	288	1	48
NMHLD	62	288	3	48
NMSTR	63	0	2
NMSCL	63	0	2	96	48	0
NMSTR	63	0	3
NMSI_	63	0	3	96	48	6
NMSTR	63	192	4
NMSI_	63	192	4	96	48	2
NMSTR	63	192	5
NMSCR	63	192	5	96	48	0
NMTAP	64	0	1
NMTAP	64	48	1
NMTAP	64	96	0
NMTAP	64	96	2
NMTAP	64	192	4
NMTAP	64	240	4
NMHLD	64	288	3	48
NMHLD	64	288	5	48
NMTAP	65	0	1
NMTAP	65	48	1
NMTAP	65	96	0
NMTAP	65	96	2
NMTAP	65	192	4
NMTAP	65	240	4
NMHLD	65	288	3	48
NMHLD	65	288	5	48
NMTAP	66	0	1
NMTAP	66	48	1
NMTAP	66	96	0
NMTAP	66	96	2
NMTAP	66	192	5
NMTAP	66	240	5
NMHLD	66	288	4	48
NMHLD	66	288	6	48
EXHLD	67	0	2	96
NMHLD	67	96	0	96
NMHLD	67	192	7	96
NMTAP	67	288	6
BRTAP	68	0	0
BRHLD	68	0	5	672
NMTTP	68	192	7	E	0	M1
NMTTP	68	288	6	E	0	M1
NMTTP	69	0	5	E	0	M1
NMTTP	69	96	0	C	0	M1
NMTTP	69	192	6	E	0	M1
NMTTP	69	288	0	C	0	M1
NMHLD	70	0	1	192
NMTAP	70	96	0
NMHLD	70	192	6	192
NMTAP	70	288	7
NMTAP	71	0	7
NMSTR	71	96	0
NMSF_	71	96	0	96	96	4
NMTAP	71	96	5
NMHLD	72	0	2	672
NMTAP	72	0	6
NMTTP	72	192	4	E	0	M1
NMTTP	72	288	3	E	0	M1
NMTTP	73	0	2	E	0	M1
NMTTP	73	96	0	C	0	M1
NMTTP	73	192	1	E	0	M1
NMTTP	73	288	0	C	0	M1
NMSTR	74	0	7
NMSCL	74	0	7	96	96	4
NMSTR	74	192	1
NMSCR	74	192	1	96	96	4
NMSTR	75	0	6
NMSV_	75	0	6	96	96	5
CNSI_	75	192	5	0	48	3
CNSI_	75	240	3	0	48	1
BRSTR	75	288	0
NMSI_	75	288	0	96	48	4
NMHLD	77	0	4	96
NMHLD	77	192	4	96
NMTAP	78	0	4
NMTAP	78	96	4
NMTAP	78	192	4
NMSTR	78	288	5
NMSCL	78	288	5	96	96	2
NMTTP	79	0	2	E	0	M1

T_REC_TAP	186
T_REC_BRK	14
T_REC_XTP	22
T_REC_BXX	1
T_REC_HLD	84
T_REC_XHO	4
T_REC_BHO	1
T_REC_BXH	2
T_REC_STR	23
T_REC_BST	2
T_REC_XST	6
T_REC_XBS	0
T_REC_TTP	39
T_REC_THO	3
T_REC_SLD	33
T_REC_BSL	0
T_REC_ALL	420
T_NUM_TAP	276
T_NUM_BRK	20
T_NUM_HLD	91
T_NUM_SLD	33
T_NUM_ALL	420
T_JUDGE_TAP	293
T_JUDGE_HLD	222
T_JUDGE_SLD	33
T_JUDGE_ALL	548
TTM_EACHPAIRS	95
TTM_SCR_TAP	138000
TTM_SCR_BRK	52000
TTM_SCR_HLD	91000
TTM_SCR_SLD	49500
TTM_SCR_ALL	330500
TTM_SCR_S	318650
TTM_SCR_SS	328500
TTM_RAT_ACV	10060

