VERSION	0.00.00	1.05.00
FES_MODE	0
BPM_DEF	130.000	130.000	130.000	130.000
MET_DEF	4	4
RESOLUTION	384
CLK_DEF	384
COMPATIBLE_CODE	MA2

BPM	0	0	130.000
MET	0	0	4	4

NMHLD	4	0	5	192
NMHLD	4	192	4	192
NMHLD	5	0	3	192
NMTAP	5	192	2
NMHLD	6	0	2	192
NMHLD	6	192	3	192
NMHLD	7	0	4	192
NMTAP	7	192	5
NMHLD	8	0	6	192
NMHLD	8	192	5	192
NMHLD	9	0	4	192
NMTAP	9	192	3
NMHLD	10	0	1	192
NMHLD	10	192	2	192
NMHLD	11	0	3	192
NMTAP	11	192	4
NMTAP	12	0	3
NMTAP	12	96	3
NMTAP	12	192	2
NMTAP	13	0	1
NMTAP	13	96	1
NMTAP	13	192	0
NMTAP	14	0	7
NMTAP	14	96	7
NMTAP	14	192	6
NMTAP	15	0	5
NMTAP	15	96	5
NMTAP	15	192	4
NMTAP	15	192	5
NMTAP	16	0	4
NMTAP	16	96	4
NMTAP	16	192	5
NMTAP	17	0	6
NMTAP	17	96	6
NMTAP	17	192	7
NMTAP	18	0	0
NMTAP	18	96	0
NMTAP	18	192	1
NMTAP	19	0	2
NMTAP	19	96	2
NMTAP	19	192	2
NMTAP	19	192	3
NMSTR	20	0	2
NMSI_	20	0	2	96	192	5
NMSTR	21	0	6
NMSI_	21	0	6	96	192	3
NMSTR	22	0	1
NMSI_	22	0	1	96	192	4
NMSTR	23	0	6
NMSI_	23	0	6	96	192	2
NMSTR	24	0	0
NMSI_	24	0	0	96	192	4
NMSTR	25	0	5
NMSI_	25	0	5	96	192	0
NMSTR	26	0	1
NMSI_	26	0	1	96	192	4
NMTAP	27	0	5
NMTAP	27	192	4
NMTAP	27	192	5
NMTAP	28	0	5
NMTAP	28	96	5
NMTAP	28	192	6
NMTAP	28	288	6
NMTAP	29	0	7
NMTAP	29	96	7
NMTAP	29	192	0
NMTAP	29	192	1
NMTAP	30	0	2
NMTAP	30	96	2
NMTAP	30	192	1
NMTAP	30	288	1
NMTAP	31	0	0
NMTAP	31	96	0
NMTAP	31	192	6
NMTAP	31	192	7
NMTAP	32	0	6
NMTAP	32	96	6
NMTAP	32	192	5
NMTAP	32	288	5
NMTAP	33	0	4
NMTAP	33	96	4
NMTAP	33	192	2
NMTAP	33	192	3
NMTAP	34	0	1
NMTAP	34	96	1
NMTAP	34	192	2
NMTAP	34	288	2
NMTAP	35	0	3
NMTAP	35	96	3
NMTAP	35	192	4
NMTAP	35	192	5
NMTAP	36	0	6
NMTAP	36	96	6
NMTAP	36	192	6
EXTAP	36	288	6
EXTAP	36	288	7
NMTAP	37	0	5
NMTAP	37	96	5
NMTAP	37	192	5
EXTAP	37	288	4
EXTAP	37	288	5
NMTAP	38	0	3
NMTAP	38	96	3
NMTAP	38	192	3
EXTAP	38	288	2
EXTAP	38	288	3
NMTAP	39	0	1
NMTAP	39	96	1
NMTAP	39	192	0
NMTAP	39	192	1
NMTAP	40	0	1
NMTAP	40	96	1
NMTAP	40	192	1
EXTAP	40	288	0
EXTAP	40	288	1
NMTAP	41	0	2
NMTAP	41	96	2
NMTAP	41	192	2
EXTAP	41	288	2
EXTAP	41	288	3
NMTAP	42	0	4
NMTAP	42	96	4
NMTAP	42	192	4
EXTAP	42	288	4
EXTAP	42	288	5
NMTAP	43	0	6
NMTAP	43	96	6
NMTAP	43	192	6
NMTAP	43	192	7
NMTTP	44	0	6	B	0	L1
NMTTP	44	96	5	B	0	L1
NMTTP	44	192	4	B	0	L1
NMTTP	45	0	1	B	0	L1
NMTTP	45	96	2	B	0	L1
NMTTP	45	192	3	B	0	L1
NMTTP	46	0	6	B	0	L1
NMTTP	46	96	5	B	0	L1
NMTTP	46	192	4	B	0	L1
NMTTP	46	288	3	B	0	L1
NMTTP	47	0	2	B	0	L1
NMTTP	47	96	1	B	0	L1
NMTTP	47	192	0	C	0	L1
NMTTP	48	0	0	B	0	L1
NMTTP	48	96	1	B	0	L1
NMTTP	48	192	2	B	0	L1
NMTTP	48	192	3	B	0	L1
NMTTP	49	0	7	B	0	L1
NMTTP	49	96	6	B	0	L1
NMTTP	49	192	4	B	0	L1
NMTTP	49	192	5	B	0	L1
NMTTP	50	0	1	B	0	L1
NMTTP	50	96	2	B	0	L1
NMTTP	50	192	3	B	0	L1
NMTTP	50	288	4	B	0	L1
NMTTP	51	0	5	B	0	L1
NMTTP	51	96	6	B	0	L1
NMTTP	51	192	0	C	0	L1
NMHLD	52	0	1	192
NMTAP	52	192	0
NMTAP	53	0	1
NMTAP	53	96	1
NMTAP	53	192	0
NMTAP	53	192	1
NMHLD	54	0	2	192
NMTAP	54	192	3
NMTAP	55	0	2
NMTAP	55	96	2
NMTAP	55	192	2
NMTAP	55	192	3
NMHLD	56	0	5	192
NMTAP	56	192	4
NMTAP	57	0	5
NMTAP	57	96	5
NMTAP	57	192	4
NMTAP	57	192	5
NMHLD	58	0	6	192
NMTAP	58	192	7
NMTAP	59	0	6
NMTAP	59	96	6
NMTAP	59	192	6
NMTAP	59	192	7
NMTAP	60	0	6
NMTAP	60	96	6
NMTAP	60	192	6
BXTAP	60	288	6
BXTAP	60	288	7
NMTAP	61	0	5
NMTAP	61	96	5
NMTAP	61	192	5
BXTAP	61	288	4
BXTAP	61	288	5
NMTAP	62	0	3
NMTAP	62	96	3
NMTAP	62	192	3
BXTAP	62	288	2
BXTAP	62	288	3
NMTAP	63	0	1
NMTAP	63	96	1
NMTAP	63	192	0
NMTAP	63	192	1
NMTAP	64	0	1
NMTAP	64	96	1
NMTAP	64	192	1
BXTAP	64	288	0
BXTAP	64	288	1
NMTAP	65	0	2
NMTAP	65	96	2
NMTAP	65	192	2
BXTAP	65	288	2
BXTAP	65	288	3
NMTAP	66	0	4
NMTAP	66	96	4
NMTAP	66	192	4
BXTAP	66	288	4
BXTAP	66	288	5
NMTAP	67	0	6
NMTAP	67	96	6
BRTAP	67	192	6
BRTAP	67	192	7
NMTAP	68	0	6
NMTAP	68	0	7
NMTAP	68	96	6
NMTAP	68	96	7
NMTAP	68	192	0
NMTAP	68	192	5
NMTAP	69	0	4
NMTAP	69	0	5
NMTAP	69	96	4
NMTAP	69	96	5
NMTAP	69	192	3
NMTAP	69	192	6
NMTAP	70	0	2
NMTAP	70	0	3
NMTAP	70	96	2
NMTAP	70	96	3
NMTAP	70	192	1
NMTAP	70	192	4
NMTAP	71	0	0
NMTAP	71	0	1
NMTAP	71	96	0
NMTAP	71	96	1
NMTAP	71	192	2
NMTAP	71	192	7
NMTAP	72	0	0
NMTAP	72	0	1
NMTAP	72	96	0
NMTAP	72	96	1
NMTAP	72	192	2
NMTAP	72	192	7
NMTAP	73	0	2
NMTAP	73	0	3
NMTAP	73	96	2
NMTAP	73	96	3
NMTAP	73	192	1
NMTAP	73	192	4
NMTAP	74	0	4
NMTAP	74	0	5
NMTAP	74	96	4
NMTAP	74	96	5
NMTAP	74	192	3
NMTAP	74	192	6
NMTAP	75	0	6
NMTAP	75	0	7
NMTAP	75	96	6
NMTAP	75	96	7
NMTAP	75	192	0
NMTAP	75	192	5
NMHLD	76	0	6	192
NMTAP	76	192	7
NMHLD	77	0	1	192
NMTAP	77	192	0
NMHLD	78	0	7	192
NMTAP	78	192	0
EXTAP	79	0	0
EXTAP	79	0	7

T_REC_TAP	186
T_REC_BRK	2
T_REC_XTP	14
T_REC_BXX	12
T_REC_HLD	19
T_REC_XHO	0
T_REC_BHO	0
T_REC_BXH	0
T_REC_STR	7
T_REC_BST	0
T_REC_XST	0
T_REC_XBS	0
T_REC_TTP	28
T_REC_THO	0
T_REC_SLD	7
T_REC_BSL	0
T_REC_ALL	275
T_NUM_TAP	235
T_NUM_BRK	14
T_NUM_HLD	19
T_NUM_SLD	7
T_NUM_ALL	275
T_JUDGE_TAP	249
T_JUDGE_HLD	76
T_JUDGE_SLD	7
T_JUDGE_ALL	332
TTM_EACHPAIRS	52
TTM_SCR_TAP	117500
TTM_SCR_BRK	36400
TTM_SCR_HLD	19000
TTM_SCR_SLD	10500
TTM_SCR_ALL	183400
TTM_SCR_S	176550
TTM_SCR_SS	182000
TTM_RAT_ACV	10076

