VERSION	0.00.00	1.05.00
FES_MODE	0
BPM_DEF	130.000	130.000	130.000	130.000
MET_DEF	4	4
RESOLUTION	384
CLK_DEF	384
COMPATIBLE_CODE	MA2

BPM	0	0	130.000
MET	0	0	4	4

NMTAP	4	0	7
NMTAP	4	192	7
NMTAP	5	0	6
NMTAP	6	0	5
NMTAP	6	192	5
NMTAP	7	0	4
NMTAP	8	0	3
NMTAP	8	192	3
NMTAP	9	0	2
NMTAP	10	0	1
NMTAP	10	192	1
NMTAP	11	0	0
NMTAP	11	0	7
EXTAP	12	0	0
NMTAP	12	192	0
NMTAP	13	0	1
NMTAP	13	192	1
NMTAP	14	0	2
NMTAP	14	192	2
EXTAP	15	0	3
EXTAP	15	0	4
EXTAP	16	0	4
NMTAP	16	192	4
NMTAP	17	0	5
NMTAP	17	192	5
NMTAP	18	0	6
NMTAP	18	192	6
EXTAP	19	0	0
EXTAP	19	0	7
NMHLD	20	0	6	384
NMHLD	20	0	7	384
NMHLD	22	0	4	384
NMHLD	22	0	5	384
NMHLD	24	0	2	384
NMHLD	24	0	3	384
NMHLD	26	0	0	384
NMHLD	26	0	1	384
BRTAP	28	0	0
NMTAP	28	96	0
NMTAP	28	192	0
NMTAP	29	0	1
NMTAP	29	192	1
NMTAP	30	0	2
NMTAP	30	96	2
NMTAP	30	192	2
NMTAP	31	0	2
NMTAP	31	0	3
NMTAP	32	0	4
NMTAP	32	96	4
NMTAP	32	192	4
NMTAP	33	0	5
NMTAP	33	192	5
NMTAP	34	0	6
NMTAP	34	96	6
NMTAP	34	192	6
EXTAP	35	0	6
EXTAP	35	0	7
BRTAP	36	0	7
NMTAP	36	96	7
NMTAP	36	192	7
NMTAP	37	0	6
NMTAP	37	0	7
NMTAP	37	192	6
NMTAP	37	192	7
NMTAP	38	0	5
NMTAP	38	96	5
NMTAP	38	192	5
NMTAP	39	0	3
NMTAP	39	0	4
NMTAP	39	192	3
NMTAP	39	192	4
NMTAP	40	0	3
NMTAP	40	96	3
NMTAP	40	192	3
NMTAP	41	0	2
NMTAP	41	0	3
NMTAP	41	192	2
NMTAP	41	192	3
NMTAP	42	0	1
NMTAP	42	96	1
NMTAP	42	192	1
NMTAP	43	0	0
NMTAP	43	0	7
NMTAP	43	192	0
NMTAP	43	192	7
NMSTR	44	0	0
NMSI_	44	0	0	96	288	4
NMSTR	46	0	7
NMSI_	46	0	7	96	288	3
NMSTR	48	0	1
NMSI_	48	0	1	96	288	5
NMSTR	50	0	6
NMSI_	50	0	6	96	288	3
NMTTP	52	0	4	E	0	L1
NMTTP	53	0	3	B	0	L1
NMTTP	53	0	4	B	0	L1
NMTTP	54	0	2	B	0	L1
NMTTP	54	0	5	B	0	L1
NMTTP	55	0	0	C	1	L1
NMTAP	56	0	7
NMTAP	56	96	7
NMTAP	56	192	6
NMTAP	56	192	7
NMTAP	57	0	0
NMTAP	57	96	0
NMTAP	57	192	0
NMTAP	57	192	1
NMTAP	58	0	7
NMTAP	58	96	7
NMTAP	58	192	0
NMTAP	58	192	7
EXTAP	59	0	0
EXTAP	59	0	7
EXTAP	59	192	0
EXTAP	59	192	7
BRTAP	60	0	7
NMTAP	60	96	7
NMTAP	60	192	7
NMTAP	61	0	6
NMTAP	61	96	6
NMTAP	61	192	6
NMTAP	61	192	7
NMTAP	62	0	5
NMTAP	62	96	5
NMTAP	62	192	5
NMTAP	63	0	4
NMTAP	63	96	4
NMTAP	63	192	3
NMTAP	63	192	4
NMTAP	64	0	3
NMTAP	64	96	3
NMTAP	64	192	3
NMTAP	65	0	2
NMTAP	65	96	2
NMTAP	65	192	2
NMTAP	65	192	3
NMTAP	66	0	1
NMTAP	66	96	1
NMTAP	66	192	1
NMTAP	67	0	0
NMTAP	67	96	0
NMTAP	67	192	0
NMTAP	67	192	7
NMHLD	68	0	0	192
NMTAP	69	0	1
NMTAP	69	96	1
NMTAP	69	192	1
NMHLD	70	0	2	192
NMTAP	71	0	3
NMTAP	71	0	4
NMTAP	71	96	3
NMTAP	71	96	4
NMTAP	71	192	3
NMTAP	71	192	4
NMHLD	72	0	4	192
NMTAP	73	0	5
NMTAP	73	96	5
NMTAP	73	192	5
NMHLD	74	0	6	192
BRTAP	75	0	0
BRTAP	75	0	7
NMTTP	76	0	0	B	0	L1
NMTTP	76	0	7	B	0	L1
NMTTP	77	0	1	B	0	L1
NMTTP	77	0	6	B	0	L1
NMTHO	78	0	0	384	C	0	L1

T_REC_TAP	118
T_REC_BRK	5
T_REC_XTP	12
T_REC_BXX	0
T_REC_HLD	12
T_REC_XHO	0
T_REC_BHO	0
T_REC_BXH	0
T_REC_STR	4
T_REC_BST	0
T_REC_XST	0
T_REC_XBS	0
T_REC_TTP	10
T_REC_THO	1
T_REC_SLD	4
T_REC_BSL	0
T_REC_ALL	166
T_NUM_TAP	144
T_NUM_BRK	5
T_NUM_HLD	13
T_NUM_SLD	4
T_NUM_ALL	166
T_JUDGE_TAP	149
T_JUDGE_HLD	88
T_JUDGE_SLD	4
T_JUDGE_ALL	241
TTM_EACHPAIRS	30
TTM_SCR_TAP	72000
TTM_SCR_BRK	13000
TTM_SCR_HLD	13000
TTM_SCR_SLD	6000
TTM_SCR_ALL	104000
TTM_SCR_S	100400
TTM_SCR_SS	103500
TTM_RAT_ACV	10048

