VERSION	0.00.00	1.05.00
FES_MODE	0
BPM_DEF	220.000	220.000	220.000	220.000
MET_DEF	4	4
RESOLUTION	384
CLK_DEF	384
COMPATIBLE_CODE	MA2

BPM	0	0	220.000
MET	0	0	4	4

NMHLD	2	0	2	192
NMTAP	2	0	3
NMTAP	2	192	3
NMHLD	2	256	2	128
NMTAP	3	0	3
NMTAP	3	192	3
NMTAP	3	192	4
NMTAP	4	0	4
NMHLD	4	0	5	192
NMTAP	4	192	4
NMHLD	4	256	5	128
NMTAP	5	0	4
NMTAP	5	192	3
NMTAP	5	192	4
NMHLD	6	0	2	192
NMTAP	6	0	3
NMTAP	6	192	3
NMHLD	6	256	2	128
NMTAP	7	0	3
NMTAP	7	192	3
NMTAP	7	192	4
NMTAP	8	0	4
NMTAP	8	0	5
NMTAP	8	96	2
NMTAP	8	96	3
NMTAP	8	160	2
NMTAP	8	160	3
NMTAP	8	256	3
NMTAP	8	256	4
NMTAP	8	352	2
NMTAP	8	368	3
NMTAP	9	0	2
NMTTP	9	96	5	B	0	M1
NMTAP	9	192	3
NMTAP	9	192	4
NMTTP	9	288	2	B	0	M1
EXTAP	10	0	6
NMTAP	10	64	6
NMTAP	10	96	7
NMTAP	10	160	7
NMTAP	10	192	4
NMTAP	10	256	4
NMTAP	10	288	3
NMTAP	10	352	3
NMTAP	11	0	0
NMTAP	11	64	0
NMTAP	11	96	1
NMTAP	11	160	1
NMTAP	11	192	3
NMTAP	11	256	3
NMTAP	11	288	2
NMTAP	11	352	2
NMTAP	12	0	3
NMTAP	12	64	3
NMTAP	12	96	4
NMTAP	12	160	4
NMTAP	12	192	5
NMTAP	12	256	5
NMTAP	12	288	6
NMTAP	12	352	6
NMTAP	13	0	7
NMTAP	13	64	7
NMTAP	13	96	0
NMTAP	13	160	0
NMTAP	13	192	1
NMTAP	13	256	1
NMTAP	13	288	2
NMTAP	13	352	2
NMSTR	14	0	3
NMSCR	14	0	3	96	96	6
NMSTR	14	96	6
NMSUL	14	96	6	96	96	2
NMTAP	14	192	7
NMTAP	14	288	0
NMSTR	15	0	1
NMSI_	15	0	1	96	96	6
NMHLD	15	0	7	96
NMHLD	15	192	5	192
CNSI_	15	192	6	0	96	2
NMSTR	16	0	3
NMSCR	16	0	3	96	96	6
NMSTR	16	96	6
NMSUL	16	96	6	96	96	2
NMTAP	16	192	1
NMTAP	16	288	0
NMSTR	17	0	1
NMSI_	17	0	1	96	48	5
NMTAP	17	0	7
NMSTR	17	96	6
NMSI_	17	96	6	96	48	2
NMTAP	17	192	4
NMTAP	17	288	0
EXTAP	18	0	1
NMTAP	18	64	1
NMTAP	18	96	0
NMTAP	18	160	0
NMTAP	18	192	3
NMTAP	18	256	3
NMTAP	18	288	4
NMTAP	18	352	4
NMTAP	19	0	7
NMTAP	19	64	7
NMTAP	19	96	6
NMTAP	19	160	6
NMTAP	19	192	4
NMTAP	19	256	4
NMTAP	19	288	5
NMTAP	19	352	5
NMTAP	20	0	4
NMTAP	20	64	4
NMTAP	20	96	3
NMTAP	20	160	3
NMTAP	20	192	2
NMTAP	20	256	2
NMTAP	20	288	1
NMTAP	20	352	1
NMTAP	21	0	0
NMTAP	21	64	0
NMTAP	21	96	7
NMTAP	21	160	7
NMTAP	21	192	6
NMTAP	21	256	6
NMTAP	21	288	5
NMTAP	21	352	5
NMSTR	22	0	4
NMSCL	22	0	4	96	96	1
NMSTR	22	96	1
NMSUR	22	96	1	96	96	5
NMTAP	22	192	0
NMTAP	22	288	7
NMHLD	23	0	0	96
NMSTR	23	0	6
NMSI_	23	0	6	96	96	1
CNSI_	23	192	1	0	96	5
NMHLD	23	192	2	192
NMSTR	24	0	4
NMSCL	24	0	4	96	96	1
NMSTR	24	96	1
NMSUR	24	96	1	96	96	5
NMTAP	24	192	6
NMTAP	24	288	7
NMTAP	25	0	0
NMTAP	25	0	6
NMSTR	25	96	1
NMSLL	25	96	1	96	192	3
NMSTR	25	96	5
NMSLR	25	96	5	96	192	3
NMHLD	26	96	5	1152
NMTTP	26	288	5	E	0	M1
NMTTP	27	96	3	E	0	M1
NMTTP	27	288	0	C	0	M1
NMTTP	28	96	7	E	0	M1
NMTTP	28	288	3	E	0	M1
NMTTP	29	96	5	E	0	M1
NMTAP	29	288	3
NMTAP	29	288	5
NMHLD	30	0	2	672
NMTAP	30	0	6
NMTTP	30	96	7	E	0	M1
NMTTP	30	288	3	E	0	M1
NMTTP	31	96	6	E	0	M1
NMTTP	31	288	4	E	0	M1
NMTAP	32	0	2
NMTAP	32	64	3
NMTAP	32	128	4
NMTAP	32	192	5
NMTAP	32	256	6
NMTAP	32	320	7
NMTAP	33	0	0
NMTAP	33	0	1
NMTAP	33	64	2
NMTAP	33	128	3
NMTAP	33	192	4
NMTAP	33	192	5
NMTAP	33	256	6
NMTAP	33	320	7
NMTAP	34	0	0
NMTAP	34	96	0
NMTTP	34	96	4	B	0	M1
NMTAP	34	192	0
NMTAP	34	288	0
NMTTP	34	288	3	B	0	M1
NMTAP	35	0	0
NMTAP	35	96	0
NMTTP	35	96	2	B	0	M1
NMTAP	35	192	0
NMTAP	35	288	0
NMTTP	35	288	1	B	0	M1
NMTAP	36	0	0
NMTAP	36	96	0
NMTTP	36	96	7	B	0	M1
NMTAP	36	192	0
NMTAP	36	288	0
NMTTP	36	288	6	B	0	M1
NMTAP	37	0	0
NMTAP	37	96	0
NMTTP	37	96	5	B	0	M1
NMTAP	37	192	0
NMTAP	37	288	0
NMTTP	37	288	4	B	0	M1
NMTAP	38	0	1
NMTAP	38	96	1
NMTTP	38	96	3	B	0	M1
NMTAP	38	192	1
NMTAP	38	288	1
NMTTP	38	288	2	B	0	M1
NMTAP	39	0	1
NMTTP	39	96	0	B	0	M1
NMTAP	39	96	1
NMTAP	39	192	1
NMTAP	39	288	1
NMTTP	39	288	7	B	0	M1
NMHLD	40	0	2	192
BXSTR	40	192	0
BRSF_	40	192	0	96	192	4
NMTAP	41	288	2
NMTAP	41	320	3
NMTAP	41	352	2
NMTAP	42	0	4
EXTAP	42	96	0
EXTAP	42	96	6
NMTAP	42	192	1
NMTAP	42	192	7
NMTAP	42	256	1
NMTAP	42	256	7
NMTAP	42	352	2
NMTAP	43	0	3
NMTAP	43	96	4
NMTAP	43	96	5
NMTAP	43	160	4
NMTAP	43	160	5
NMTAP	43	256	6
NMTAP	43	288	7
NMSTR	44	0	0
NMSI_	44	0	0	96	48	4
NMTAP	44	0	4
NMTAP	44	96	0
NMSTR	44	96	6
NMSI_	44	96	6	96	48	2
NMSTR	44	192	1
NMSI_	44	192	1	96	48	4
NMTAP	44	192	6
NMTAP	44	288	1
NMSTR	44	288	5
NMSXL	44	288	5	96	192	0
NMTAP	45	0	3
NMTAP	45	0	5
NMTAP	45	96	2
NMTAP	45	192	1
NMSTR	45	288	2
NMSCR	45	288	2	96	64	5
NMTAP	45	288	7
NMTAP	45	352	0
NMTAP	46	0	0
NMSTR	46	96	7
NMSCR	46	96	7	96	64	2
NMTAP	46	160	5
NMTAP	46	192	5
NMSTR	46	288	4
NMSCR	46	288	4	96	64	7
NMTAP	46	352	2
NMTAP	47	0	2
NMSTR	47	96	1
NMSCR	47	96	1	96	64	4
NMTAP	47	160	7
NMTAP	47	192	7
NMTTP	47	288	5	B	0	M1
NMTAP	48	0	2
NMTAP	48	0	3
NMTAP	48	96	3
NMTAP	48	160	3
NMTAP	48	192	1
NMTAP	48	256	1
NMHLD	48	288	2	96
BRTAP	49	0	0
BRTAP	49	96	1
NMTAP	49	96	3
BRTAP	49	192	2
NMTAP	49	192	4
BRTAP	49	288	3
NMTAP	49	288	5
NMTAP	50	0	3
NMTAP	50	0	4
EXTAP	50	96	1
EXTAP	50	96	7
NMTAP	50	192	0
NMTAP	50	192	6
NMTAP	50	256	0
NMTAP	50	256	6
NMTAP	50	352	5
NMTAP	51	0	4
NMTAP	51	96	2
NMTAP	51	96	3
NMTAP	51	160	2
NMTAP	51	160	3
NMTAP	51	256	1
NMTAP	51	288	0
NMTAP	52	0	3
NMSTR	52	0	7
NMSI_	52	0	7	96	48	3
NMSTR	52	96	1
NMSI_	52	96	1	96	48	5
NMTAP	52	96	7
NMTAP	52	192	1
NMSTR	52	192	6
NMSI_	52	192	6	96	48	3
NMSTR	52	288	2
NMSXR	52	288	2	96	192	7
NMTAP	52	288	6
NMTAP	53	0	2
NMTAP	53	0	4
NMTAP	53	96	5
NMTAP	53	192	6
NMTAP	53	288	0
NMSTR	53	288	5
NMSCL	53	288	5	96	64	2
NMTAP	53	352	7
NMTAP	54	0	7
NMSTR	54	96	0
NMSCL	54	96	0	96	64	5
NMTAP	54	160	2
NMTAP	54	192	2
NMSTR	54	288	3
NMSCL	54	288	3	96	64	0
NMTAP	54	352	5
NMTAP	55	0	5
NMSTR	55	96	6
NMSCL	55	96	6	96	64	3
NMTAP	55	160	0
NMTAP	55	192	0
NMTTP	55	288	2	B	0	M1
NMTAP	56	0	5
NMTAP	56	64	5
NMTAP	56	96	4
NMTAP	56	160	4
NMTAP	56	192	3
NMTTP	56	256	1	B	0	M1
NMTTP	56	256	2	B	0	M1
NMTTP	56	256	2	E	0	M1
NMTAP	56	352	7
BXTAP	57	0	0
BXTAP	57	0	6
BXTAP	57	96	4
BXTAP	57	96	5
BRTAP	57	192	0
BRTAP	57	192	2
NMHLD	58	0	3	1344
NMSTR	58	192	0
NMSCL	58	192	0	96	480	4
CNSUL	60	0	4	0	192	1
CNSUL	60	192	1	0	384	5
NMHLD	62	0	4	1344
NMSTR	62	192	7
NMSCR	62	192	7	96	480	3
CNSUR	64	0	3	0	192	6
NMTAP	65	0	7
NMTAP	65	192	0
NMHLD	66	0	1	384
NMTTP	66	192	3	B	0	M1
NMTTP	66	192	3	E	0	M1
NMHLD	67	0	6	384
NMTTP	67	192	4	B	0	M1
NMTTP	67	192	5	E	0	M1
NMHLD	68	0	2	384
NMTTP	68	192	4	E	0	M1
NMTTP	68	192	4	D	0	M1
NMHLD	69	0	5	1152
NMTTP	69	192	0	C	0	M1
NMSTR	70	0	7
NMSV_	70	0	7	96	192	2
NMTAP	71	0	1
NMTAP	71	192	0
EXSTR	72	0	7
NMSI_	72	0	7	96	64	1
EXSTR	72	160	6
NMSI_	72	160	6	96	64	2
EXSTR	72	288	5
BRSCL	72	288	5	96	288	6
NMHLD	73	0	7	288
NMTAP	74	0	4
NMTAP	74	0	5
NMTAP	74	96	1
NMTAP	74	96	3
NMTAP	74	160	2
NMHLD	74	160	4	128
NMTAP	74	256	5
NMTAP	74	288	5
NMTAP	74	352	7
NMTAP	75	0	7
NMTAP	75	64	0
NMTAP	75	64	5
NMTAP	75	96	0
NMTAP	75	96	5
NMTAP	75	160	1
NMTAP	75	192	1
NMTAP	75	224	3
NMTAP	75	256	2
NMTAP	75	288	6
NMTAP	75	320	4
NMTAP	75	352	5
BRSTR	76	0	0
NMSCR	76	0	0	96	96	3
CNSV_	76	192	3	0	480	5
NMTAP	77	0	5
NMTAP	77	192	6
NMSTR	78	0	7
NMSCR	78	0	7	96	192	2
CNSV_	78	288	2	0	288	4
NMTAP	79	0	4
NMTAP	79	96	3
NMTAP	79	192	2
NMHLD	80	0	3	384
NMTAP	80	0	4
NMTAP	80	96	2
NMTAP	80	288	2
NMHLD	81	0	4	384
NMTAP	81	96	5
NMTAP	81	288	5
NMTAP	82	0	1
NMTAP	82	96	3
NMTAP	82	160	3
NMTAP	82	192	1
NMTAP	82	256	1
NMHLD	82	288	2	96
BRTAP	83	0	0
BRTAP	83	96	1
NMTAP	83	96	3
BRTAP	83	192	2
NMTAP	83	192	4
BRTAP	83	288	3
NMTAP	83	288	5
NMSTR	84	0	4
NMSI_	84	0	4	96	48	7
NMSTR	84	0	6
NMSI_	84	0	6	96	48	3
EXTAP	84	96	4
EXTAP	84	96	6
NMTAP	84	192	0
NMTAP	84	192	2
NMTAP	84	256	0
NMTAP	84	256	2
NMTAP	84	352	3
NMTAP	85	0	3
NMTAP	85	96	4
NMTAP	85	96	6
NMTAP	85	160	4
NMTAP	85	160	6
NMTAP	85	256	7
NMTAP	85	288	7
NMHLD	86	0	6	96
NMTAP	86	96	5
NMHLD	86	192	4	96
NMTAP	86	288	3
NMHLD	87	0	2	96
NMTAP	87	96	1
NMTAP	87	192	0
NMTAP	87	192	1
NMTAP	87	288	0
NMTAP	87	288	7
NMTAP	87	352	6
NMSTR	88	0	6
NMSCL	88	0	6	96	64	3
NMTAP	88	96	7
NMTAP	88	160	7
NMSTR	88	192	7
NMSV_	88	192	7	96	64	2
NMTAP	88	288	0
NMTAP	88	352	0
NMSTR	89	0	0
NMSCL	89	0	0	96	64	5
NMTAP	89	96	1
NMTAP	89	160	1
NMTAP	89	192	1
NMTTP	89	288	0	B	0	M1
NMTAP	90	0	6
NMTAP	90	64	6
NMTAP	90	96	4
NMTAP	90	160	4
NMTAP	90	192	5
NMTTP	90	256	2	B	0	M1
NMTTP	90	256	3	B	0	M1
NMTTP	90	256	3	E	0	M1
NMTAP	90	352	6
BXTAP	91	0	5
BXTAP	91	0	7
BXTAP	91	96	0
BXTAP	91	96	1
BRTAP	91	192	1
BRTAP	91	192	6
NMTAP	91	288	2
NMTAP	91	352	2
NMTAP	92	0	3
NMSTR	92	0	4
NMSI_	92	0	4	96	64	0
EXTAP	92	96	4
EXTAP	92	96	5
NMTAP	92	192	6
NMTAP	92	256	6
NMTAP	92	352	7
NMTAP	93	0	0
NMTAP	93	96	1
NMTAP	93	96	3
NMTAP	93	160	1
NMTAP	93	160	3
NMTAP	93	256	0
NMSTR	93	288	7
NMSUL	93	288	7	96	96	2
NMSTR	94	0	2
NMSCL	94	0	2	96	96	7
NMSTR	94	96	7
NMSCL	94	96	7	96	96	4
NMSTR	94	192	4
NMSCL	94	192	4	96	96	1
NMTAP	94	288	1
NMSTR	95	0	7
NMSI_	95	0	7	96	48	2
NMSI_	95	0	7	96	48	4
NMTAP	95	96	7
NMTAP	95	192	1
NMTAP	95	192	3
NMTAP	95	288	0
NMSTR	95	288	3
NMSCR	95	288	3	96	64	6
NMTAP	95	352	1
NMTAP	96	0	1
NMSTR	96	96	0
NMSCR	96	96	0	96	64	3
NMTAP	96	160	6
NMTAP	96	192	6
NMSTR	96	288	5
NMSCR	96	288	5	96	64	0
NMTAP	96	352	3
NMTAP	97	0	3
NMSTR	97	96	2
NMSCR	97	96	2	96	64	5
NMTAP	97	160	0
NMTAP	97	192	0
NMTAP	97	288	7
NMTAP	97	352	6
NMTAP	98	0	6
NMTAP	98	96	5
NMTAP	98	160	3
NMTAP	98	160	4
NMTAP	98	256	1
NMTAP	98	256	3
NMTAP	98	288	1
NMTAP	98	288	3
NMTAP	99	0	0
NMTAP	99	32	3
NMTAP	99	64	2
NMTAP	99	96	6
NMTAP	99	128	4
NMTAP	99	160	5
NMSTR	99	192	0
NMSI_	99	192	0	96	64	4
EXTAP	99	288	0
BRTAP	99	288	4
NMTAP	99	352	3
NMSTR	100	0	3
NMSI_	100	0	3	96	64	7
EXTAP	100	96	2
EXTAP	100	96	3
NMTAP	100	192	1
NMSTR	100	256	0
NMSCL	100	256	0	96	64	4
NMTAP	100	256	2
NMTAP	100	352	1
NMTAP	101	0	1
NMTAP	101	96	3
NMTAP	101	96	7
NMTAP	101	160	3
NMSTR	101	160	7
NMSCR	101	160	7	96	64	3
NMTAP	101	256	6
NMTAP	101	288	6
NMTAP	102	0	0
NMTAP	102	0	4
NMSTR	102	64	0
NMSCL	102	64	0	96	64	4
NMTAP	102	64	4
NMTAP	102	160	1
NMTAP	102	192	1
NMTAP	102	288	3
NMTAP	102	288	7
NMTAP	102	352	3
NMSTR	102	352	7
NMSCR	102	352	7	96	64	3
NMTAP	103	64	4
NMTAP	103	96	4
NMTAP	103	192	5
NMSTR	103	288	4
NMSCL	103	288	4	96	64	1
NMTAP	103	288	7
NMTAP	103	352	6
NMTAP	104	0	6
NMSTR	104	96	7
NMSCL	104	96	7	96	64	4
NMTAP	104	160	1
NMTAP	104	192	1
NMSTR	104	288	2
NMSCL	104	288	2	96	64	7
NMTAP	104	352	4
NMTAP	105	0	4
NMSTR	105	96	5
NMSCL	105	96	5	96	64	2
NMTAP	105	160	7
NMTAP	105	192	7
NMTTP	105	288	1	E	0	M1
NMTAP	106	0	5
NMTAP	106	64	5
NMTAP	106	96	4
NMTAP	106	160	4
NMTAP	106	192	3
NMTTP	106	256	1	B	0	M1
NMTTP	106	256	2	B	0	M1
NMTTP	106	256	2	E	0	M1
NMTAP	106	352	7
BXTAP	107	0	0
BXTAP	107	0	6
BXSTR	107	96	4
NMSCL	107	96	4	96	192	5
BXTAP	107	96	5
BRTAP	107	192	1
EXTAP	107	192	4
NMHLD	108	0	2	480
NMTTP	108	96	1	E	0	M1
NMTTP	108	288	0	C	0	M1
NMTTP	109	96	5	E	0	M1
NMHLD	109	288	6	576
NMTTP	110	96	7	E	0	M1
NMTTP	110	288	0	C	0	M1
NMTTP	111	96	3	E	0	M1
NMHLD	111	288	0	576
NMTTP	112	96	1	E	0	M1
NMTTP	112	288	0	C	0	M1
NMTTP	113	96	5	E	0	M1
NMHLD	113	288	6	288
NMTTP	114	0	0	E	0	M1
NMTTP	114	96	0	C	0	M1
NMTTP	114	192	3	B	0	M1
NMTTP	114	192	4	B	0	M1
NMTTP	114	192	4	E	0	M1
NMTAP	115	0	6
NMTAP	115	0	7
NMTAP	115	96	0
NMTAP	115	96	7
NMTAP	115	192	0
NMTAP	115	192	1

T_REC_TAP	381
T_REC_BRK	14
T_REC_XTP	14
T_REC_BXX	11
T_REC_HLD	32
T_REC_XHO	0
T_REC_BHO	0
T_REC_BXH	0
T_REC_STR	59
T_REC_BST	1
T_REC_XST	3
T_REC_XBS	2
T_REC_TTP	58
T_REC_THO	0
T_REC_SLD	64
T_REC_BSL	2
T_REC_ALL	641
T_NUM_TAP	515
T_NUM_BRK	30
T_NUM_HLD	32
T_NUM_SLD	64
T_NUM_ALL	641
T_JUDGE_TAP	543
T_JUDGE_HLD	254
T_JUDGE_SLD	66
T_JUDGE_ALL	863
TTM_EACHPAIRS	95
TTM_SCR_TAP	257500
TTM_SCR_BRK	78000
TTM_SCR_HLD	32000
TTM_SCR_SLD	96000
TTM_SCR_ALL	463500
TTM_SCR_S	446700
TTM_SCR_SS	460500
TTM_RAT_ACV	10065

