VERSION	0.00.00	1.05.00
FES_MODE	0
BPM_DEF	220.000	220.000	220.000	220.000
MET_DEF	4	4
RESOLUTION	384
CLK_DEF	384
COMPATIBLE_CODE	MA2

BPM	0	0	220.000
MET	0	0	4	4

NMHLD	2	0	2	384
NMTAP	3	0	3
NMTAP	3	192	2
NMTAP	3	192	3
NMHLD	4	0	1	384
NMTAP	5	0	3
NMTAP	5	192	2
NMTAP	5	192	4
NMHLD	6	0	5	384
NMTAP	7	0	4
NMTAP	7	192	4
NMTAP	7	192	5
NMTAP	8	0	6
NMTAP	8	192	6
NMTAP	9	0	6
NMTAP	9	0	7
EXTAP	9	192	1
EXTAP	9	192	5
NMTAP	10	0	6
NMTAP	10	96	6
NMTAP	10	192	0
NMTAP	11	0	2
NMTAP	11	96	2
NMTAP	11	192	0
NMTAP	12	0	6
NMTAP	12	96	6
NMTAP	12	192	4
NMTAP	12	288	4
NMTAP	13	0	3
NMTAP	13	96	3
NMTAP	13	192	1
NMTAP	14	0	1
NMTAP	14	96	1
NMTAP	14	192	7
NMTAP	15	0	5
NMTAP	15	96	5
NMTAP	15	192	7
NMTAP	16	0	1
NMTAP	16	96	1
NMTAP	16	192	3
NMTAP	16	288	3
NMTAP	17	0	4
NMTAP	17	96	4
NMTAP	17	192	6
NMTAP	18	0	5
NMTAP	18	96	5
NMTAP	18	192	4
NMTAP	18	192	5
NMTAP	19	0	2
NMTAP	19	96	2
NMTAP	19	192	2
NMTAP	19	192	3
NMTAP	20	0	2
NMTAP	20	96	3
NMTAP	20	192	4
NMTAP	20	288	5
NMTAP	21	0	6
NMTAP	21	96	7
NMTAP	21	192	0
NMTAP	21	192	6
NMTAP	22	0	5
NMTAP	22	96	5
NMTAP	22	192	4
NMTAP	22	192	6
NMTAP	23	0	2
NMTAP	23	96	2
NMTAP	23	192	1
NMTAP	23	192	3
NMTAP	24	0	2
NMTAP	24	96	2
NMTAP	24	192	0
NMTAP	24	288	0
NMTAP	25	0	7
NMTAP	25	96	7
NMTAP	25	192	0
NMTAP	25	192	6
NMSTR	26	0	1
NMSCR	26	0	1	96	240	4
NMTAP	27	192	4
NMTAP	27	192	5
NMSTR	28	0	6
NMSCL	28	0	6	96	240	3
NMTAP	29	192	2
NMTAP	29	192	3
NMSTR	30	0	1
NMSLR	30	0	1	96	288	5
NMTAP	31	192	4
NMTAP	31	192	6
NMHLD	32	0	5	192
NMHLD	32	192	4	192
NMHLD	33	0	3	192
NMTAP	33	192	2
NMSTR	34	0	2
NMSLR	34	0	2	96	288	7
NMHLD	34	0	4	576
NMTAP	35	192	0
NMHLD	36	0	1	576
NMSTR	36	0	7
NMSLR	36	0	7	96	288	3
NMTAP	37	192	3
NMSTR	38	0	2
NMSCL	38	0	2	96	240	7
NMSTR	39	0	6
NMSCL	39	0	6	96	240	3
NMHLD	40	0	2	384
BRTAP	41	0	7
NMTAP	41	288	0
NMTAP	41	288	1
NMSTR	42	0	0
NMSI_	42	0	0	96	96	4
NMSTR	42	0	1
NMSI_	42	0	1	96	96	3
NMTAP	42	288	6
NMTAP	42	288	7
NMSTR	43	0	6
NMSI_	43	0	6	96	96	4
NMSTR	43	0	7
NMSI_	43	0	7	96	96	3
NMTAP	43	288	0
NMTAP	43	288	1
NMSTR	44	0	0
NMSI_	44	0	0	96	96	4
NMSTR	44	0	1
NMSI_	44	0	1	96	96	3
NMTAP	44	288	6
NMTAP	44	288	7
NMTAP	45	0	6
NMTAP	45	0	7
NMTAP	45	192	1
NMTAP	45	192	5
NMHLD	46	0	2	96
NMHLD	46	0	3	96
NMHLD	46	192	0	96
NMHLD	46	192	1	96
NMHLD	47	0	6	96
NMHLD	47	0	7	96
BRTAP	47	192	4
BRTAP	47	192	5
NMTAP	48	0	4
NMTAP	48	0	5
NMTAP	48	96	6
NMTAP	48	192	1
NMTAP	48	192	7
NMTAP	49	0	1
NMTAP	49	96	1
NMTAP	49	192	0
NMTAP	49	288	0
NMSTR	50	0	6
NMSI_	50	0	6	96	96	3
NMSTR	50	0	7
NMSI_	50	0	7	96	96	3
NMTAP	50	288	0
NMTAP	50	288	1
NMSTR	51	0	0
NMSI_	51	0	0	96	96	4
NMSTR	51	0	1
NMSI_	51	0	1	96	96	4
NMTAP	51	288	6
NMTAP	51	288	7
NMSTR	52	0	6
NMSI_	52	0	6	96	96	3
NMSTR	52	0	7
NMSI_	52	0	7	96	96	3
NMTAP	52	288	0
NMTAP	52	288	1
NMTAP	53	0	0
NMTAP	53	0	1
NMTAP	53	192	2
NMTAP	53	192	6
NMHLD	54	0	4	96
NMHLD	54	0	5	96
NMHLD	54	192	6	96
NMHLD	54	192	7	96
NMHLD	55	0	0	96
NMHLD	55	0	1	96
BRTAP	55	192	2
BRTAP	55	192	3
NMTAP	56	0	5
NMTAP	56	96	4
NMTAP	56	192	3
NMTAP	56	288	2
NMTAP	57	0	1
NMTAP	57	0	6
NMTAP	57	96	1
NMTAP	57	96	6
BRTAP	57	192	1
BRTAP	57	192	6
NMSTR	58	0	0
NMSCR	58	0	0	96	480	5
NMSTR	60	0	7
NMSCL	60	0	7	96	480	2
NMSTR	62	0	1
NMSCR	62	0	1	96	264	4
CNSUL	62	360	4	0	216	7
NMSTR	64	0	6
NMSCL	64	0	6	96	264	3
CNSUR	64	360	3	0	216	0
NMTAP	66	0	1
NMHLD	66	96	1	144
NMHLD	66	240	0	144
NMTAP	67	0	1
NMTAP	67	192	2
NMTAP	67	192	7
NMTAP	68	0	5
NMHLD	68	96	5	144
NMHLD	68	240	4	144
NMTAP	69	0	6
NMTAP	69	192	3
NMTAP	69	192	7
NMTAP	70	0	6
NMHLD	70	96	6	144
NMHLD	70	240	7	144
NMTAP	71	0	5
NMTAP	71	192	2
NMTAP	71	192	4
EXTAP	72	0	0
EXTAP	72	0	1
EXTAP	72	160	2
EXTAP	72	160	7
EXSTR	72	288	3
NMSXR	72	288	3	96	768	5
EXSTR	72	288	6
NMSXL	72	288	6	96	768	4
EXTAP	75	192	3
EXTAP	75	192	6
NMHLD	76	0	5	576
NMTAP	77	0	4
NMTAP	77	192	3
NMHLD	78	0	2	576
NMTAP	79	0	3
NMTAP	79	192	4
NMHLD	80	0	5	384
NMTAP	81	0	4
NMTAP	81	192	3
NMTAP	81	192	4
NMTAP	82	0	1
NMTAP	82	0	3
NMTAP	82	96	1
NMTAP	82	96	3
NMTAP	82	192	1
NMTAP	82	192	3
BXTAP	83	0	4
BRTAP	83	0	6
EXTAP	83	96	4
NMTAP	83	96	6
EXTAP	83	192	4
NMTAP	83	192	6
NMTAP	83	288	4
NMTAP	83	288	5
NMTAP	84	0	4
NMSTR	84	0	5
NMSI_	84	0	5	96	96	0
NMTAP	84	288	2
NMTAP	84	288	3
NMSTR	85	0	2
NMSI_	85	0	2	96	96	7
NMTAP	85	0	3
NMTAP	85	288	4
NMTAP	85	288	5
NMTAP	86	0	4
NMSTR	86	0	5
NMSI_	86	0	5	96	96	0
NMTAP	86	288	2
NMTAP	86	288	3
NMTAP	87	0	2
NMTAP	87	0	3
NMTAP	87	192	1
NMTAP	87	192	4
NMHLD	88	0	1	192
NMHLD	88	192	3	192
NMHLD	89	0	4	192
NMTAP	89	192	6
NMTAP	90	0	6
NMTAP	90	0	7
NMTAP	90	96	5
NMTAP	90	192	2
NMTAP	90	192	4
NMTAP	91	0	3
NMTAP	91	96	3
NMTAP	91	192	5
NMTAP	91	288	5
NMSTR	92	0	4
NMSI_	92	0	4	96	96	0
NMSTR	92	0	5
NMSI_	92	0	5	96	96	0
NMTAP	92	288	2
NMTAP	92	288	3
NMSTR	93	0	2
NMSI_	93	0	2	96	96	7
NMSTR	93	0	3
NMSI_	93	0	3	96	96	7
NMTAP	93	288	4
NMTAP	93	288	5
NMSTR	94	0	4
NMSI_	94	0	4	96	96	0
NMSTR	94	0	5
NMSI_	94	0	5	96	96	0
NMTAP	94	288	2
NMTAP	94	288	3
NMTAP	95	0	2
NMTAP	95	0	3
NMTAP	95	192	1
NMTAP	95	192	4
NMHLD	96	0	2	96
NMHLD	96	0	3	96
NMHLD	96	192	6	96
NMHLD	96	192	7	96
NMHLD	97	0	4	96
NMHLD	97	0	5	96
BRTAP	97	192	0
BRTAP	97	192	1
NMTAP	98	0	2
NMTAP	98	0	3
NMTAP	98	96	1
NMTAP	98	96	4
NMTAP	98	192	0
NMTAP	98	192	5
NMTAP	99	0	6
NMTAP	99	96	6
NMTAP	99	192	7
NMTAP	99	288	7
NMSTR	100	0	0
NMSI_	100	0	0	96	96	4
NMSTR	100	0	1
NMSI_	100	0	1	96	96	5
NMTAP	100	288	6
NMTAP	100	288	7
NMSTR	101	0	6
NMSI_	101	0	6	96	96	2
NMSTR	101	0	7
NMSI_	101	0	7	96	96	3
NMTAP	101	288	0
NMTAP	101	288	1
NMSTR	102	0	0
NMSCL	102	0	0	96	96	5
NMSTR	102	0	1
NMSCR	102	0	1	96	96	4
NMTAP	102	288	6
NMTAP	102	288	7
NMTAP	103	0	6
NMTAP	103	0	7
NMTAP	103	192	0
NMTAP	103	192	5
NMHLD	104	0	6	96
NMHLD	104	0	7	96
NMHLD	104	192	2	96
NMHLD	104	192	3	96
NMHLD	105	0	4	96
NMHLD	105	0	5	96
BRTAP	105	192	0
BRTAP	105	192	2
NMTAP	106	0	1
NMTAP	106	96	0
NMTAP	106	96	2
NMTAP	106	192	6
NMTAP	106	288	5
NMTAP	106	288	7
NMTAP	107	0	3
NMTAP	107	96	2
NMTAP	107	96	4
BRTAP	107	192	1
BRTAP	107	192	5
NMHLD	108	0	2	576
NMSTR	108	0	6
NMSUL	108	0	6	96	480	3
NMHLD	110	0	1	576
NMSTR	110	0	4
NMSXR	110	0	4	96	480	0
NMSTR	112	0	2
NMSXL	112	0	2	96	480	5
NMHLD	112	0	7	576
NMTAP	114	0	6
NMTAP	114	96	6
NMTAP	114	192	4
NMTAP	115	0	1
NMTAP	115	96	1
NMTAP	115	192	3

T_REC_TAP	216
T_REC_BRK	14
T_REC_XTP	10
T_REC_BXX	1
T_REC_HLD	48
T_REC_XHO	0
T_REC_BHO	0
T_REC_BXH	0
T_REC_STR	41
T_REC_BST	0
T_REC_XST	2
T_REC_XBS	0
T_REC_TTP	0
T_REC_THO	0
T_REC_SLD	43
T_REC_BSL	0
T_REC_ALL	375
T_NUM_TAP	269
T_NUM_BRK	15
T_NUM_HLD	48
T_NUM_SLD	43
T_NUM_ALL	375
T_JUDGE_TAP	284
T_JUDGE_HLD	214
T_JUDGE_SLD	43
T_JUDGE_ALL	541
TTM_EACHPAIRS	105
TTM_SCR_TAP	134500
TTM_SCR_BRK	39000
TTM_SCR_HLD	48000
TTM_SCR_SLD	64500
TTM_SCR_ALL	286000
TTM_SCR_S	276000
TTM_SCR_SS	284500
TTM_RAT_ACV	10052

