VERSION	0.00.00	1.05.00
FES_MODE	0
BPM_DEF	220.000	220.000	220.000	220.000
MET_DEF	4	4
RESOLUTION	384
CLK_DEF	384
COMPATIBLE_CODE	MA2

BPM	0	0	220.000
MET	0	0	4	4

NMTAP	10	0	4
NMTAP	10	96	4
NMTAP	10	192	4
NMTAP	11	0	5
NMTAP	11	96	5
NMTAP	11	192	5
NMTAP	12	0	6
NMTAP	12	96	6
NMTAP	12	192	6
NMTAP	13	0	0
NMTAP	13	0	7
NMTAP	13	192	0
NMTAP	13	192	7
NMTAP	14	0	0
NMTAP	14	96	0
NMTAP	14	192	0
NMTAP	15	0	1
NMTAP	15	96	1
NMTAP	15	192	1
NMTAP	16	0	2
NMTAP	16	96	2
NMTAP	16	192	2
NMTAP	17	0	3
NMTAP	17	0	4
NMTAP	17	192	3
NMTAP	17	192	4
NMTAP	18	0	3
NMTAP	18	96	3
NMTAP	18	192	2
NMTAP	19	0	1
NMTAP	19	96	1
NMTAP	19	192	0
NMTAP	20	0	7
NMTAP	20	96	7
NMTAP	20	192	6
NMTAP	21	0	4
NMTAP	21	0	5
NMTAP	21	192	4
NMTAP	21	192	5
NMTAP	22	0	4
NMTAP	22	96	4
NMTAP	22	192	5
NMTAP	23	0	6
NMTAP	23	96	6
NMTAP	23	192	7
NMTAP	24	0	0
NMTAP	24	96	0
NMTAP	24	192	1
NMTAP	25	0	2
NMTAP	25	0	3
NMTAP	25	192	2
NMTAP	25	192	3
NMSTR	26	0	1
NMSI_	26	0	1	96	288	4
NMTAP	27	192	5
NMSTR	28	0	6
NMSI_	28	0	6	96	288	3
NMTAP	29	192	2
NMSTR	30	0	1
NMSI_	30	0	1	96	288	5
NMTAP	31	192	6
NMSTR	32	0	7
NMSI_	32	0	7	96	288	3
NMTAP	33	192	2
NMTAP	33	192	3
NMHLD	34	0	2	384
NMHLD	35	0	3	384
NMHLD	36	0	4	384
NMTAP	37	0	5
NMHLD	38	0	5	384
NMHLD	39	0	4	384
NMTAP	40	0	3
EXTAP	41	192	5
EXTAP	41	288	5
EXTAP	42	0	6
EXTAP	42	96	6
EXTAP	42	192	7
EXTAP	42	288	7
EXTAP	43	0	0
EXTAP	43	96	0
EXTAP	43	192	0
EXTAP	43	192	1
NMTAP	44	0	1
NMTAP	44	96	1
NMTAP	44	192	0
NMTAP	44	288	0
NMTAP	45	0	7
NMTAP	45	96	7
NMTAP	45	192	6
NMTAP	45	192	7
NMTAP	46	0	6
NMTAP	46	96	6
NMTAP	46	192	5
NMTAP	46	288	5
NMTAP	47	0	4
NMTAP	47	96	4
NMTAP	47	192	2
NMTAP	47	192	3
NMTAP	48	0	1
NMTAP	48	96	1
NMTAP	48	192	2
NMTAP	48	288	2
EXTAP	49	0	3
EXTAP	49	96	3
BXTAP	49	192	4
BXTAP	49	192	5
NMTAP	50	0	5
NMTAP	50	96	5
NMTAP	50	192	6
NMTAP	50	288	6
NMTAP	51	0	7
NMTAP	51	96	7
NMTAP	51	192	0
NMTAP	51	192	1
NMTAP	52	0	2
NMTAP	52	96	2
NMTAP	52	192	1
NMTAP	52	288	1
NMTAP	53	0	0
NMTAP	53	96	0
NMTAP	53	192	6
NMTAP	53	192	7
NMTAP	54	0	6
NMTAP	54	96	6
NMTAP	54	192	5
NMTAP	54	288	5
NMTAP	55	0	4
NMTAP	55	96	4
NMTAP	55	192	2
NMTAP	55	192	3
NMTAP	56	0	1
NMTAP	56	96	1
NMTAP	56	192	2
NMTAP	56	288	2
NMTAP	57	0	3
NMTAP	57	96	3
NMTAP	57	192	4
NMTAP	57	192	5
NMTTP	58	0	6	B	0	L1
NMTTP	58	192	5	B	0	L1
NMTTP	59	0	4	B	0	L1
NMTTP	60	0	1	B	0	L1
NMTTP	60	192	2	B	0	L1
NMTTP	61	0	3	B	0	L1
NMTTP	62	0	6	B	0	L1
NMTTP	62	192	5	B	0	L1
NMTTP	63	0	4	B	0	L1
NMTTP	63	192	3	B	0	L1
NMTTP	64	0	2	B	0	L1
NMTTP	64	192	1	B	0	L1
NMTTP	65	0	0	C	0	L1
NMTAP	66	0	6
NMTAP	66	96	6
NMTAP	66	192	6
NMTAP	67	0	5
NMTAP	67	96	5
NMTAP	67	192	5
NMTAP	68	0	4
NMTAP	68	96	4
NMTAP	68	192	4
NMTAP	69	0	2
NMTAP	69	0	3
NMTAP	69	192	2
NMTAP	69	192	3
NMTAP	70	0	1
NMTAP	70	96	1
NMTAP	70	192	1
NMTAP	71	0	2
NMTAP	71	96	2
NMTAP	71	192	2
NMTAP	72	0	3
NMTAP	72	96	3
NMTAP	72	192	3
NMTAP	73	0	4
NMTAP	73	0	5
NMTAP	73	192	4
NMTAP	73	192	5
NMTAP	74	0	2
NMTAP	74	0	3
NMTAP	74	192	2
NMTAP	74	192	3
NMHLD	75	0	3	192
NMHLD	75	0	4	192
NMHLD	76	0	5	192
NMTAP	76	192	4
NMTAP	77	0	4
NMTAP	77	0	5
NMTAP	77	192	4
NMTAP	77	192	5
NMHLD	78	0	6	192
NMTAP	78	192	7
NMTAP	79	0	6
NMTAP	79	0	7
NMTAP	79	192	6
NMTAP	79	192	7
NMHLD	80	0	1	192
NMTAP	80	192	0
NMTAP	81	0	0
NMTAP	81	0	1
NMTAP	81	192	0
NMTAP	81	192	1
NMHLD	82	0	2	192
NMTAP	82	192	3
NMTAP	83	0	2
NMTAP	83	0	3
NMTAP	83	192	2
NMTAP	83	192	3
NMTAP	84	0	1
NMTAP	84	96	1
NMTAP	84	192	0
NMTAP	84	192	1
NMTAP	85	0	2
NMTAP	85	96	2
NMTAP	85	192	2
NMTAP	85	192	3
NMTAP	86	0	4
NMTAP	86	96	4
NMTAP	86	192	4
NMTAP	86	192	5
NMTAP	87	0	6
NMTAP	87	0	7
NMTAP	87	96	6
NMTAP	87	96	7
NMTAP	87	192	6
NMTAP	87	192	7
NMTAP	88	0	6
NMTAP	88	96	6
NMTAP	88	192	6
NMTAP	88	192	7
NMTAP	89	0	5
NMTAP	89	96	5
NMTAP	89	192	4
NMTAP	89	192	5
NMTAP	90	0	3
NMTAP	90	96	3
NMTAP	90	192	2
NMTAP	90	192	3
NMTAP	91	0	0
NMTAP	91	0	1
NMTAP	91	96	0
NMTAP	91	96	1
NMTAP	91	192	0
NMTAP	91	192	1
NMTAP	92	0	2
NMTAP	92	96	2
NMTAP	92	192	1
NMTAP	92	288	1
NMTAP	93	0	0
NMTAP	93	96	0
NMTAP	93	192	6
NMTAP	93	192	7
NMTAP	93	288	6
NMTAP	93	288	7
NMTAP	94	0	5
NMTAP	94	96	5
NMTAP	94	192	6
NMTAP	94	288	6
NMTAP	95	0	7
NMTAP	95	96	7
NMTAP	95	192	0
NMTAP	95	192	1
NMTAP	96	0	1
NMTAP	96	96	1
NMTAP	96	192	2
NMTAP	96	288	2
NMTAP	97	0	3
NMTAP	97	96	3
NMTAP	97	192	4
NMTAP	97	192	5
NMTAP	97	288	4
NMTAP	97	288	5
NMTAP	98	0	6
NMTAP	98	96	6
NMTAP	98	192	5
NMTAP	98	288	5
NMTAP	99	0	4
NMTAP	99	96	4
NMTAP	99	192	2
NMTAP	99	192	3
NMTAP	100	0	2
NMTAP	100	96	2
NMTAP	100	192	0
NMTAP	100	192	1
NMTAP	100	288	0
NMTAP	100	288	1
NMTAP	101	0	7
NMTAP	101	96	7
NMTAP	101	192	6
NMTAP	101	192	7
NMTAP	102	0	5
NMTAP	102	96	5
NMTAP	102	192	6
NMTAP	102	192	7
NMTAP	102	288	6
NMTAP	102	288	7
NMTAP	103	0	0
NMTAP	103	96	0
NMTAP	103	192	0
NMTAP	103	192	1
NMTAP	104	0	1
NMTAP	104	96	1
NMTAP	104	192	2
NMTAP	104	192	3
NMTAP	104	288	2
NMTAP	104	288	3
NMTAP	105	0	4
NMTAP	105	96	4
NMTAP	105	192	4
NMTAP	105	192	5
NMTAP	106	0	6
NMTAP	106	96	6
NMTAP	106	192	4
NMTAP	106	192	5
NMTAP	106	288	4
NMTAP	106	288	5
NMTAP	107	0	3
NMTAP	107	96	3
BRTAP	107	192	2
BRTAP	107	192	3
EXSTR	108	0	1
NMSCR	108	0	1	96	480	4
NMSTR	110	0	5
NMSCR	110	0	5	96	480	0
NMSTR	112	0	1
NMSUR	112	0	1	96	480	5
NMTAP	114	0	6
NMTAP	114	192	6
NMTAP	114	192	7
NMTAP	115	0	0
NMTAP	115	192	0
NMTAP	115	192	7

T_REC_TAP	277
T_REC_BRK	2
T_REC_XTP	12
T_REC_BXX	2
T_REC_HLD	11
T_REC_XHO	0
T_REC_BHO	0
T_REC_BXH	0
T_REC_STR	6
T_REC_BST	0
T_REC_XST	1
T_REC_XBS	0
T_REC_TTP	13
T_REC_THO	0
T_REC_SLD	7
T_REC_BSL	0
T_REC_ALL	331
T_NUM_TAP	309
T_NUM_BRK	4
T_NUM_HLD	11
T_NUM_SLD	7
T_NUM_ALL	331
T_JUDGE_TAP	313
T_JUDGE_HLD	64
T_JUDGE_SLD	7
T_JUDGE_ALL	384
TTM_EACHPAIRS	64
TTM_SCR_TAP	154500
TTM_SCR_BRK	10400
TTM_SCR_HLD	11000
TTM_SCR_SLD	10500
TTM_SCR_ALL	186400
TTM_SCR_S	180450
TTM_SCR_SS	186000
TTM_RAT_ACV	10021

