VERSION	0.00.00	1.05.00
FES_MODE	0
BPM_DEF	220.000	220.000	220.000	220.000
MET_DEF	4	4
RESOLUTION	384
CLK_DEF	384
COMPATIBLE_CODE	MA2

BPM	0	0	220.000
MET	0	0	4	4

NMTAP	2	0	0
NMTAP	3	0	0
NMTAP	4	0	0
NMTAP	5	0	0
NMTAP	6	0	7
NMTAP	7	0	7
NMTAP	8	0	7
EXTAP	9	0	0
EXTAP	9	0	7
NMTAP	10	0	0
NMTAP	10	192	0
NMTAP	11	0	1
NMTAP	12	0	2
NMTAP	12	192	2
NMTAP	13	0	3
NMTAP	14	0	4
NMTAP	14	192	4
NMTAP	15	0	5
NMTAP	16	0	6
NMTAP	16	192	6
NMTAP	17	0	6
NMTAP	17	0	7
NMTAP	18	0	7
NMTAP	18	192	7
NMTAP	19	0	6
NMTAP	20	0	5
NMTAP	20	192	5
NMTAP	21	0	4
NMTAP	22	0	3
NMTAP	22	192	3
NMTAP	23	0	2
NMTAP	24	0	1
NMTAP	24	192	1
NMTAP	25	0	0
NMTAP	25	0	1
NMHLD	26	0	0	384
NMHLD	26	0	1	384
NMHLD	28	0	2	384
NMHLD	28	0	3	384
NMHLD	30	0	4	384
NMHLD	30	0	5	384
NMHLD	32	0	6	384
NMHLD	32	0	7	384
NMTTP	34	0	7	B	0	L1
NMTTP	35	0	0	B	0	L1
NMTTP	36	0	6	B	0	L1
NMTTP	37	0	1	B	0	L1
NMTTP	38	0	5	B	0	L1
NMTTP	39	0	2	B	0	L1
NMTTP	40	0	0	C	1	L1
BXTAP	42	0	7
NMTAP	42	192	7
NMTAP	43	0	6
NMTAP	43	192	6
NMTAP	44	0	5
NMTAP	44	192	5
NMTAP	45	0	4
NMTAP	45	0	5
NMTAP	46	0	3
NMTAP	46	192	3
NMTAP	47	0	2
NMTAP	47	192	2
NMTAP	48	0	1
NMTAP	48	192	1
NMTAP	49	0	0
NMTAP	49	0	1
NMTAP	50	0	0
NMTAP	50	192	0
NMTAP	51	0	1
NMTAP	51	192	1
NMTAP	52	0	2
NMTAP	52	192	2
NMTAP	53	0	3
NMTAP	53	0	4
NMTAP	54	0	4
NMTAP	54	192	4
NMTAP	55	0	5
NMTAP	55	192	5
NMTAP	56	0	6
NMTAP	56	192	6
BRTAP	57	0	0
BRTAP	57	0	7
NMSTR	58	0	7
NMSI_	58	0	7	96	288	3
NMSTR	60	0	0
NMSI_	60	0	0	96	288	4
NMSTR	62	0	6
NMSI_	62	0	6	96	288	2
NMSTR	64	0	1
NMSI_	64	0	1	96	288	5
NMHLD	66	0	6	384
NMHLD	66	0	7	384
NMHLD	68	0	4	384
NMHLD	68	0	5	384
NMHLD	70	0	2	384
NMHLD	70	0	3	384
NMHLD	72	0	0	384
NMHLD	72	0	1	384
NMHLD	74	0	0	384
NMHLD	74	0	7	384
NMTAP	76	0	6
NMTAP	76	192	6
NMTAP	77	0	6
NMTAP	77	0	7
NMTAP	78	0	1
NMTAP	78	192	1
NMTAP	79	0	0
NMTAP	79	0	1
NMTAP	80	0	6
NMTAP	80	192	6
NMTAP	81	0	0
NMTAP	81	0	7
NMTAP	82	0	1
NMTAP	82	192	1
NMTAP	83	0	0
NMTAP	83	0	7
BXTAP	84	0	0
NMTAP	84	192	0
NMTAP	85	0	1
NMTAP	85	192	1
NMTAP	86	0	2
NMTAP	86	192	2
NMTAP	87	0	3
NMTAP	87	192	3
NMTAP	88	0	4
NMTAP	88	192	4
NMTAP	89	0	5
NMTAP	89	192	5
NMTAP	90	0	6
NMTAP	90	192	6
NMTAP	91	0	0
NMTAP	91	0	7
NMTAP	92	0	7
NMTAP	92	192	7
NMTAP	93	0	6
NMTAP	93	0	7
NMTAP	93	192	6
NMTAP	93	192	7
NMTAP	94	0	5
NMTAP	94	192	5
NMTAP	95	0	4
NMTAP	95	0	5
NMTAP	95	192	4
NMTAP	95	192	5
NMTAP	96	0	3
NMTAP	96	192	3
NMTAP	97	0	2
NMTAP	97	0	3
NMTAP	97	192	2
NMTAP	97	192	3
NMTAP	98	0	1
NMTAP	98	192	1
NMTAP	99	0	0
NMTAP	99	0	1
NMTAP	100	0	0
NMTAP	100	192	0
NMTAP	101	0	0
NMTAP	101	0	1
NMTAP	101	192	0
NMTAP	101	192	1
NMTAP	102	0	2
NMTAP	102	192	2
NMTAP	103	0	3
NMTAP	103	0	4
NMTAP	103	192	3
NMTAP	103	192	4
NMTAP	104	0	4
NMTAP	104	192	4
NMTAP	105	0	4
NMTAP	105	0	5
NMTAP	105	192	4
NMTAP	105	192	5
NMTAP	106	0	6
NMTAP	106	192	6
BRTAP	107	0	0
BRTAP	107	0	7
NMTTP	108	0	0	E	0	L1
NMTTP	109	0	0	B	0	L1
NMTTP	109	0	7	B	0	L1
NMTTP	110	0	1	B	0	L1
NMTTP	110	0	6	B	0	L1
NMTTP	111	0	2	B	0	L1
NMTTP	111	0	5	B	0	L1
NMTTP	112	0	3	B	0	L1
NMTTP	112	0	4	B	0	L1
NMTTP	113	0	4	E	0	L1
NMTTP	114	0	3	B	0	L1
NMTTP	114	0	4	B	0	L1
NMTHO	115	0	0	384	C	0	L1

T_REC_TAP	135
T_REC_BRK	4
T_REC_XTP	2
T_REC_BXX	2
T_REC_HLD	18
T_REC_XHO	0
T_REC_BHO	0
T_REC_BXH	0
T_REC_STR	4
T_REC_BST	0
T_REC_XST	0
T_REC_XBS	0
T_REC_TTP	19
T_REC_THO	1
T_REC_SLD	4
T_REC_BSL	0
T_REC_ALL	189
T_NUM_TAP	160
T_NUM_BRK	6
T_NUM_HLD	19
T_NUM_SLD	4
T_NUM_ALL	189
T_JUDGE_TAP	166
T_JUDGE_HLD	152
T_JUDGE_SLD	4
T_JUDGE_ALL	322
TTM_EACHPAIRS	35
TTM_SCR_TAP	80000
TTM_SCR_BRK	15600
TTM_SCR_HLD	19000
TTM_SCR_SLD	6000
TTM_SCR_ALL	120600
TTM_SCR_S	116400
TTM_SCR_SS	120000
TTM_RAT_ACV	10050

