VERSION	0.00.00	1.05.00
FES_MODE	0
BPM_DEF	180.000	180.000	180.000	180.000
MET_DEF	4	4
RESOLUTION	384
CLK_DEF	384
COMPATIBLE_CODE	MA2

BPM	0	0	180.000
MET	0	0	4	4
MET	15	0	4	3
MET	15	288	4	4

NMSTR	1	0	0
NMSV_	1	0	0	96	288	3
NMSTR	1	0	7
NMSI_	1	0	7	96	288	4
NMTAP	2	192	2
NMTAP	2	192	6
NMTAP	2	288	1
NMTAP	2	288	7
NMSTR	3	0	1
NMSV_	3	0	1	96	288	4
NMSTR	3	0	7
NMSV_	3	0	7	96	288	4
NMTAP	4	192	2
NMTAP	4	192	6
NMTAP	4	288	1
NMTAP	4	288	5
NMSTR	5	0	0
NMSI_	5	0	0	96	144	3
NMSTR	5	0	4
NMSI_	5	0	4	96	144	7
CNSI_	5	240	3	0	144	7
CNSI_	5	240	7	0	144	3
NMTAP	6	192	1
NMTAP	6	192	5
NMTAP	6	288	2
NMTAP	6	288	6
NMSTR	7	0	3
NMSI_	7	0	3	96	144	0
NMSV_	7	0	3	96	288	5
NMTAP	7	0	7
CNSI_	7	240	0	0	144	5
EXTAP	8	192	3
NMTTP	8	192	4	B	0	M1
NMTTP	8	208	5	B	0	M1
NMTTP	8	224	6	E	0	M1
NMTTP	8	240	6	A	0	M1
NMTAP	9	48	5
NMTAP	9	96	4
NMTAP	9	144	2
NMTAP	9	192	1
NMHLD	9	240	1	48
NMTAP	9	288	3
NMHLD	9	336	3	48
NMTAP	10	0	4
NMHLD	10	48	4	48
NMTAP	10	96	6
NMHLD	10	144	6	48
NMTAP	10	192	7
NMTAP	10	240	0
NMTAP	10	288	1
NMTAP	10	336	1
NMTAP	10	336	7
NMTAP	11	48	2
NMTAP	11	96	3
NMTAP	11	144	5
NMTAP	11	192	6
NMHLD	11	240	6	48
NMTAP	11	288	4
NMHLD	11	336	4	48
NMTAP	12	0	3
NMHLD	12	48	3	48
NMTAP	12	96	1
NMHLD	12	144	1	48
NMTAP	12	192	0
NMTAP	12	240	7
NMTAP	12	288	6
NMTAP	12	336	0
NMTAP	12	336	6
NMTAP	13	48	6
NMTAP	13	96	7
NMTAP	13	144	1
NMTAP	13	192	2
NMHLD	13	240	2	48
NMTAP	13	288	0
NMHLD	13	336	0	48
NMTAP	14	0	7
NMHLD	14	48	7	48
NMTAP	14	96	5
NMHLD	14	144	5	48
NMTAP	14	192	4
NMTAP	14	240	3
NMTAP	14	288	2
NMTAP	14	336	2
NMTAP	14	336	4
NMTTP	15	48	1	A	0	M1
NMTTP	15	96	2	B	0	M1
NMTTP	15	144	4	E	0	M1
NMTTP	15	192	6	E	0	M1
NMTTP	15	240	4	A	0	M1
NMTTP	15	336	0	E	0	M1
NMTTP	16	0	0	C	0	M1
NMTTP	16	48	4	E	0	M1
BXTAP	16	144	1
BXTAP	16	144	6
BXTAP	16	192	1
BXTAP	16	192	6
NMTAP	16	288	5
NMTAP	16	336	6
NMTAP	17	0	1
NMTAP	17	0	7
NMSTR	17	96	2
NMSI_	17	96	2	96	48	4
NMTAP	17	192	5
NMTAP	17	240	5
NMTAP	17	336	6
NMTAP	18	0	5
NMTAP	18	48	2
NMTAP	18	48	4
NMTAP	18	144	1
NMTAP	18	192	0
NMTAP	18	240	7
NMTAP	18	288	6
NMTAP	18	288	7
NMTAP	19	0	4
NMTAP	19	0	6
NMTAP	19	96	3
NMTAP	19	96	4
NMTAP	19	144	2
NMTAP	19	192	1
NMTAP	19	192	3
NMSTR	19	288	1
NMSCR	19	288	1	96	48	4
NMTAP	20	0	7
NMTAP	20	48	7
NMTAP	20	144	6
NMTAP	20	192	3
NMSTR	20	192	5
NMSI_	20	192	5	96	48	1
NMTAP	20	288	3
EXTAP	20	288	5
NMSTR	20	336	2
NMSI_	20	336	2	96	48	6
EXTAP	21	48	2
NMTAP	21	48	6
NMSTR	21	96	7
BRSI_	21	96	7	96	48	4
BRHLD	21	192	0	288
BRTAP	21	192	7
NMTTP	22	96	2	B	0	M1
NMTTP	22	144	4	E	0	M1
NMTTP	22	192	4	A	0	M1
NMTAP	22	288	5
NMHLD	23	0	5	576
NMTAP	23	96	4
NMTAP	23	192	4
NMTAP	23	288	3
NMTAP	24	0	3
NMTAP	24	96	4
NMTAP	24	192	4
NMTAP	24	288	6
NMTAP	24	288	7
NMTAP	25	0	0
NMTAP	25	0	1
NMTAP	25	96	2
NMTAP	25	96	3
NMTAP	25	192	4
NMTAP	25	192	5
NMSTR	25	288	6
NMSCR	25	288	6	96	96	0
NMSTR	26	0	0
NMSCR	26	0	0	96	96	2
NMTAP	26	96	2
NMHLD	26	288	0	384
NMTAP	27	0	3
NMTAP	27	96	4
NMTAP	27	192	6
NMTAP	27	288	7
NMTAP	28	0	0
NMTAP	28	0	1
NMTAP	28	96	2
NMTAP	28	96	3
NMSTR	28	192	4
NMSI_	28	192	4	96	48	2
NMTAP	28	192	5
EXTAP	28	288	6
CNSI_	28	336	2	0	96	5
EXTAP	29	0	5
CNSI_	29	48	5	0	96	1
EXSTR	29	96	4
NMSF_	29	96	4	96	96	0
NMTAP	30	96	4
NMTAP	30	144	4
NMTAP	30	192	3
NMTAP	30	192	5
NMTAP	30	288	1
NMTAP	30	336	0
NMTAP	30	336	7
NMTAP	31	0	6
NMTAP	31	48	5
NMTAP	31	96	4
NMTAP	31	96	5
NMTAP	31	192	6
NMSTR	31	240	6
NMSCR	31	240	6	96	48	1
NMTAP	31	336	1
NMTAP	32	48	2
NMTAP	32	96	3
NMTAP	32	96	4
NMTAP	32	144	5
NMTAP	32	192	6
NMTAP	32	240	0
NMTAP	32	288	1
NMHLD	32	288	7	96
NMTAP	33	0	3
NMTAP	33	48	3
NMSTR	33	96	2
NMSCL	33	96	2	96	48	7
NMTAP	33	192	4
NMTAP	33	240	4
NMSTR	33	288	5
NMSCR	33	288	5	96	48	0
NMTAP	34	0	3
NMTAP	34	48	3
NMSTR	34	96	3
NMSI_	34	96	3	96	48	7
NMTAP	34	192	7
NMTAP	34	288	0
NMTAP	34	288	5
NMTAP	35	0	6
NMTAP	35	0	7
NMTAP	35	48	5
NMTAP	35	96	3
NMTAP	35	96	4
NMTAP	35	144	2
NMTAP	35	192	0
NMTAP	35	192	1
NMTAP	35	240	2
NMTAP	35	240	7
NMSTR	35	336	3
NMSI_	35	336	3	96	48	7
NMTAP	36	48	3
NMSTR	36	48	6
NMSI_	36	48	6	96	48	2
NMSTR	36	144	2
NMSCL	36	144	2	96	192	5
NMSUL	36	144	2	96	192	5
NMTAP	36	144	6
NMTAP	37	192	3
NMTAP	37	192	4
NMSTR	37	288	3
NMSI_	37	288	3	96	48	1
NMSTR	37	288	4
NMSI_	37	288	4	96	48	6
EXTAP	38	96	1
EXTAP	38	96	6
NMTAP	38	144	0
NMTAP	38	168	7
NMTAP	38	192	0
NMTAP	38	216	7
NMTAP	38	240	0
BRSTR	38	288	2
NMSUR	38	288	2	96	144	4
NMTAP	39	48	7
NMSTR	39	96	7
NMSI_	39	96	7	96	48	3
EXTAP	39	192	7
NMSTR	39	288	2
NMSUR	39	288	2	96	144	4
NMTAP	40	48	7
NMSTR	40	96	7
NMSI_	40	96	7	96	48	3
EXTAP	40	192	7
NMSTR	40	288	2
NMSUR	40	288	2	96	144	4
NMTAP	41	48	7
NMSTR	41	96	7
NMSI_	41	96	7	96	48	3
EXTAP	41	192	7
NMSTR	41	288	4
NMSF_	41	288	4	96	96	0
BRTAP	42	192	2
BRTAP	42	192	6
NMTAP	42	288	0
NMTAP	42	288	1
NMTAP	43	0	5
NMTAP	43	48	5
NMTAP	43	96	3
NMTAP	43	96	4
NMTAP	43	144	2
NMTAP	43	192	1
NMTAP	43	192	3
NMTAP	43	288	0
NMTAP	43	288	7
NMTAP	44	0	2
NMTAP	44	48	2
NMTAP	44	96	3
NMTAP	44	96	4
NMTAP	44	144	5
NMTAP	44	192	4
NMTAP	44	192	6
NMTAP	44	288	0
NMTAP	44	288	7
NMTAP	45	0	0
NMTAP	45	0	7
NMTAP	45	48	1
NMTAP	45	48	6
NMTAP	45	96	2
NMTAP	45	96	5
NMSTR	45	144	3
NMSI_	45	144	3	96	48	0
NMSTR	45	144	4
NMSI_	45	144	4	96	48	7
NMTAP	45	192	2
NMTAP	45	192	5
BRTAP	45	240	3
BRTAP	45	240	4
NMTAP	46	96	0
NMTAP	46	96	6
NMTTP	46	192	2	D	1	M1
BRTAP	46	192	7
NMTTP	46	200	2	A	0	M1
NMTTP	46	208	3	D	0	M1
NMTTP	46	216	3	A	0	M1
NMTTP	46	224	4	D	0	M1
NMTTP	46	232	4	A	0	M1
NMTTP	46	240	5	D	0	M1
NMHLD	46	288	6	96
NMTAP	47	0	7
NMTAP	47	96	5
NMSTR	47	96	7
NMSCR	47	96	7	96	96	4
NMTAP	47	192	4
EXTAP	47	192	7
NMSTR	47	288	5
NMSF_	47	288	5	96	48	1
NMTAP	48	96	3
NMTAP	48	96	7
NMSTR	48	192	0
NMSI_	48	192	0	96	48	5
NMTAP	48	192	2
NMSTR	48	288	0
NMSI_	48	288	0	96	48	3
NMSTR	49	0	0
NMSI_	49	0	0	96	48	4
NMSTR	49	96	0
NMSCL	49	96	0	96	96	3
EXTAP	49	192	0
NMTAP	50	0	0
NMTAP	50	0	1
BRTAP	50	48	0
BRTAP	50	48	1
NMHLD	50	192	6	192
NMTAP	50	192	7
NMTAP	50	288	0
NMTAP	51	0	7
NMTAP	51	96	4
NMTAP	51	96	5
NMTAP	51	144	2
NMTAP	51	144	3
NMTAP	51	192	0
NMHLD	51	192	1	192
NMTAP	51	288	7
NMTAP	52	0	0
NMTAP	52	96	2
NMTAP	52	96	3
NMTAP	52	144	4
NMTAP	52	144	5
NMTAP	52	192	6
NMTAP	52	192	7
NMTAP	52	288	5
NMTAP	52	336	3
NMTAP	52	336	4
NMTAP	53	0	2
NMTAP	53	0	3
NMTAP	53	48	1
NMTAP	53	72	0
NMTAP	53	96	2
NMTAP	53	144	6
NMTAP	53	168	7
EXSTR	53	192	4
NMSCL	53	192	4	96	48	1
NMSCR	53	192	4	96	48	7
BXSTR	53	288	4
NMSF_	53	288	4	96	48	0
BXTAP	54	0	4
BRTAP	54	96	2
BRTAP	54	96	6
NMTAP	54	192	2
NMTAP	54	216	3
NMTAP	54	240	2
NMTAP	54	264	3
NMTAP	54	288	0
NMTAP	54	288	4
NMTAP	55	0	0
NMTAP	55	0	7
NMSTR	55	96	4
NMSLL	55	96	4	96	96	7
NMTAP	55	96	5
NMTAP	55	192	6
NMTAP	55	288	6
NMTAP	56	0	0
NMTAP	56	0	5
NMTAP	56	48	0
NMTAP	56	48	5
NMTAP	56	96	1
NMTAP	56	96	4
NMSTR	56	192	3
NMSI_	56	192	3	96	48	0
NMSTR	56	288	3
NMSI_	56	288	3	96	48	6
NMSTR	57	0	3
NMSI_	57	0	3	96	48	7
NMSTR	57	96	3
NMSXL	57	96	3	96	192	0
EXTAP	57	192	3
NMTAP	58	0	7
NMTAP	58	48	7
NMTAP	58	144	0
NMTAP	58	144	6
NMTAP	58	192	0
NMTAP	58	192	6
NMHLD	58	288	4	96
NMHLD	58	288	5	96
NMTAP	59	48	4
NMTAP	59	48	5
NMTAP	59	96	4
NMSTR	59	96	5
NMSI_	59	96	5	96	48	2
NMTAP	59	192	5
NMHLD	59	288	1	96
NMSTR	60	0	3
NMSI_	60	0	3	96	48	0
NMTAP	60	96	1
NMTAP	60	96	3
NMHLD	60	288	2	96
NMHLD	60	288	3	96
NMTAP	61	48	2
NMTAP	61	48	3
NMSTR	61	96	2
NMSXR	61	96	2	96	192	4
NMTAP	61	96	3
NMTAP	61	192	2
NMTAP	62	0	6
NMTAP	62	48	6
NMTAP	62	96	3
NMTAP	62	96	5
NMSTR	62	192	6
NMSI_	62	192	6	96	48	3
NMTAP	62	192	7
BRTAP	62	288	0
BRTAP	62	288	6
NMSTR	62	336	2
NMSI_	62	336	2	96	48	5
BRTAP	63	48	2
BRTAP	63	48	4
NMSTR	63	96	7
BRSCR	63	96	7	96	96	4
BRTAP	63	192	4
BRTAP	63	192	7
NMTAP	64	48	5
NMTAP	64	72	5
EXTAP	64	96	4
NMTAP	64	144	3
NMTAP	64	144	6
NMTAP	64	192	3
NMTAP	64	192	6
NMHLD	64	288	5	48
NMHLD	64	336	4	48
NMHLD	65	0	3	48
NMHLD	65	48	2	48
NMHLD	65	96	1	48
NMSTR	65	144	0
NMSCR	65	144	0	96	48	3
NMTAP	65	240	0
NMTAP	65	240	4
NMTAP	65	256	5
NMTAP	65	272	6
EXSTR	65	288	7
NMSXL	65	288	7	96	576	4
NMSTR	67	192	3
BRSI_	67	192	3	96	96	0

T_REC_TAP	265
T_REC_BRK	16
T_REC_XTP	14
T_REC_BXX	5
T_REC_HLD	28
T_REC_XHO	0
T_REC_BHO	1
T_REC_BXH	0
T_REC_STR	51
T_REC_BST	1
T_REC_XST	3
T_REC_XBS	1
T_REC_TTP	22
T_REC_THO	0
T_REC_SLD	56
T_REC_BSL	3
T_REC_ALL	466
T_NUM_TAP	355
T_NUM_BRK	27
T_NUM_HLD	28
T_NUM_SLD	56
T_NUM_ALL	466
T_JUDGE_TAP	378
T_JUDGE_HLD	65
T_JUDGE_SLD	59
T_JUDGE_ALL	502
TTM_EACHPAIRS	101
TTM_SCR_TAP	177500
TTM_SCR_BRK	70200
TTM_SCR_HLD	28000
TTM_SCR_SLD	84000
TTM_SCR_ALL	359700
TTM_SCR_S	346300
TTM_SCR_SS	357000
TTM_RAT_ACV	10075

