VERSION	0.00.00	1.05.00
FES_MODE	0
BPM_DEF	180.000	180.000	180.000	180.000
MET_DEF	4	4
RESOLUTION	384
CLK_DEF	384
COMPATIBLE_CODE	MA2

BPM	0	0	180.000
MET	0	0	4	4
MET	15	0	4	3
MET	15	288	4	4

NMTTP	1	0	2	B	0	M1
NMTTP	1	96	1	E	0	M1
NMTTP	1	288	5	B	0	M1
NMTTP	2	0	7	E	0	M1
NMTTP	2	192	0	C	0	M1
NMTTP	2	288	4	E	0	M1
NMTTP	3	0	5	E	0	M1
NMTTP	3	96	6	B	0	M1
NMTAP	3	288	1
NMTAP	4	0	2
NMSTR	4	96	3
NMSCL	4	96	3	96	144	0
NMTTP	5	0	5	B	0	M1
NMTTP	5	96	7	E	0	M1
NMTTP	5	288	2	B	0	M1
NMTTP	6	0	1	E	0	M1
NMTTP	6	192	0	C	0	M1
NMTTP	6	288	4	E	0	M1
NMTTP	7	0	3	E	0	M1
NMTTP	7	96	1	B	0	M1
NMTAP	7	288	4
NMTAP	8	0	5
NMSTR	8	96	4
NMSI_	8	96	4	96	96	1
NMHLD	8	96	5	96
EXTAP	9	0	1
EXTAP	9	48	1
NMTAP	9	96	3
NMTAP	9	144	3
NMHLD	9	192	2	96
NMHLD	9	288	0	96
NMHLD	10	0	7	96
NMHLD	10	96	5	96
NMTAP	10	192	3
NMTAP	10	288	4
NMTAP	10	288	5
NMTAP	11	0	6
NMTAP	11	48	6
NMTAP	11	96	4
NMTAP	11	144	4
NMHLD	11	192	5	96
NMHLD	11	288	7	96
NMHLD	12	0	0	96
NMHLD	12	96	2	96
NMTAP	12	192	4
NMTAP	12	288	2
NMTAP	12	288	3
NMTAP	13	0	1
NMTAP	13	48	1
NMTAP	13	96	3
NMTAP	13	144	3
NMHLD	13	192	2	96
NMHLD	13	288	0	96
NMHLD	14	0	7	96
NMHLD	14	96	5	96
NMTAP	14	192	3
NMTAP	14	240	3
NMTAP	14	288	4
NMTTP	15	0	6	E	0	M1
NMTTP	15	96	5	E	0	M1
NMTTP	15	288	3	E	0	M1
NMTTP	16	0	2	E	0	M1
EXTAP	16	144	0
EXTAP	16	144	7
EXTAP	16	192	0
EXTAP	16	192	7
NMHLD	16	288	1	96
NMTAP	17	0	3
NMHLD	17	96	5	96
NMTAP	17	192	4
NMTAP	17	240	4
NMTAP	17	336	6
NMTAP	17	336	7
NMTAP	18	48	0
NMTAP	18	48	1
NMTAP	18	144	2
NMTAP	18	144	3
NMTAP	18	192	2
NMTAP	18	192	3
NMHLD	18	288	1	96
NMHLD	19	0	3	96
NMHLD	19	96	4	96
NMTAP	19	192	6
NMTAP	19	288	0
NMTAP	19	288	7
NMTAP	20	0	6
NMHLD	20	48	6	96
NMTAP	20	144	4
NMTAP	20	192	4
NMTAP	20	288	2
NMTAP	20	288	4
NMTAP	20	336	2
NMTAP	20	336	4
NMTAP	21	48	3
NMTAP	21	48	5
NMSTR	21	96	3
NMSUR	21	96	3	96	288	4
NMHLD	21	96	5	384
NMTAP	22	288	7
NMSTR	23	0	0
NMSLL	23	0	0	96	288	4
NMSLR	23	0	0	96	288	4
NMTAP	24	192	4
NMSTR	24	288	5
NMSCL	24	288	5	96	96	2
NMTAP	25	192	0
NMHLD	25	240	0	96
NMTAP	25	336	2
NMTAP	26	48	4
NMTAP	26	240	6
NMHLD	26	288	6	96
NMTAP	27	0	4
NMTAP	27	96	2
NMTAP	27	192	0
NMSTR	27	240	0
NMSCL	27	240	0	96	144	4
NMTAP	28	240	1
NMHLD	28	288	1	96
NMTAP	29	0	3
NMTAP	29	96	5
NMTAP	29	192	7
NMSTR	29	240	7
NMSCR	29	240	7	96	144	3
NMTAP	30	288	1
NMTAP	31	0	1
NMTAP	31	0	3
NMTAP	31	96	5
NMTAP	31	144	5
NMTAP	31	192	4
NMTAP	31	192	5
NMTAP	31	288	6
NMTAP	32	0	4
NMTAP	32	0	6
NMTAP	32	96	2
NMTAP	32	144	2
NMTAP	32	192	2
NMTAP	32	192	3
NMTAP	32	288	1
NMTAP	33	0	0
NMTAP	33	0	1
NMTAP	33	96	6
NMTAP	33	144	6
NMTAP	33	192	6
NMTAP	33	192	7
NMTAP	33	288	5
NMTAP	34	0	6
NMTAP	34	0	7
NMTAP	34	96	1
NMTAP	34	144	1
NMTAP	34	192	0
NMTAP	34	192	1
NMTAP	34	288	2
NMTAP	35	0	3
NMTAP	35	0	4
NMTAP	35	96	5
NMTAP	35	144	5
NMTAP	35	192	4
NMTAP	35	192	5
NMTAP	35	288	2
NMTAP	36	0	2
NMTAP	36	0	3
NMTAP	36	96	1
NMTAP	36	144	1
NMSTR	36	192	0
NMSCR	36	192	0	96	240	5
NMTAP	36	192	1
NMHLD	37	288	1	96
NMHLD	37	288	6	96
NMTAP	38	96	2
NMTAP	38	96	5
EXTAP	38	144	3
EXTAP	38	168	4
EXTAP	38	192	3
BXTAP	38	288	1
BXTAP	38	288	7
NMTAP	39	48	2
NMTAP	39	48	6
NMTAP	39	96	2
NMTAP	39	96	6
NMSTR	39	288	0
NMSCR	39	288	0	96	96	3
NMSTR	40	96	7
NMSCL	40	96	7	96	96	4
NMTAP	40	288	2
NMTAP	41	48	1
NMTAP	41	48	3
NMTAP	41	96	1
NMTAP	41	96	3
NMTAP	41	192	5
NMSTR	41	288	6
NMSI_	41	288	6	96	96	3
NMSTR	42	96	2
NMSI_	42	96	2	96	96	7
NMTAP	42	288	6
NMTAP	43	0	4
NMTAP	43	0	6
NMTAP	43	96	1
NMTAP	43	192	1
NMTAP	43	192	3
NMTAP	43	288	4
NMTAP	44	0	5
NMTAP	44	0	7
NMTAP	44	96	3
NMTAP	44	192	0
NMTAP	44	192	2
BRSTR	44	288	7
NMSI_	44	288	7	96	96	2
CNSI_	45	96	2	0	96	6
CNSI_	45	192	6	0	96	3
NMHLD	46	96	1	96
NMSTR	46	96	5
BRSI_	46	96	5	96	48	2
EXTAP	46	288	0
NMTAP	47	0	6
NMTAP	47	0	7
NMSTR	47	96	4
NMSUR	47	96	4	96	96	1
NMSTR	47	96	5
NMSCR	47	96	5	96	96	0
EXTAP	48	0	2
EXTAP	48	0	3
NMTAP	48	96	1
NMTAP	48	96	4
NMTAP	48	192	4
NMTAP	48	192	5
NMTAP	48	288	6
NMTAP	48	288	7
NMTAP	49	0	0
NMTAP	49	0	1
NMSTR	49	96	2
NMSCL	49	96	2	96	96	7
NMSTR	49	96	3
NMSCR	49	96	3	96	96	6
EXTAP	50	0	0
EXTAP	50	0	5
EXTAP	50	48	0
EXTAP	50	48	5
NMTAP	50	192	1
NMTAP	50	192	3
NMTAP	50	288	3
NMTAP	50	288	4
NMTAP	51	0	4
NMTAP	51	0	6
NMSTR	51	96	6
NMSCL	51	96	6	96	96	3
NMSTR	51	96	7
NMSV_	51	96	7	96	96	2
NMTAP	52	0	1
NMTAP	52	48	1
NMTAP	52	96	3
NMTAP	52	192	6
NMTAP	52	240	6
NMTAP	52	288	4
NMTAP	53	0	0
NMTAP	53	0	7
NMTAP	53	96	1
NMTAP	53	96	3
BXHLD	53	192	6	96
BXTAP	53	288	4
BXTAP	54	0	1
BXTAP	54	0	3
BXTAP	54	96	0
BXTAP	54	96	7
NMTAP	54	192	0
NMTAP	54	192	1
NMTAP	54	288	2
NMTAP	54	288	3
NMTAP	55	0	4
NMTAP	55	0	5
NMSTR	55	96	6
NMSCL	55	96	6	96	96	3
NMSTR	55	96	7
NMSUL	55	96	7	96	96	2
EXTAP	56	0	0
EXTAP	56	0	1
EXTAP	56	48	0
EXTAP	56	48	1
NMTAP	56	192	6
NMTAP	56	192	7
NMTAP	56	288	4
NMTAP	56	288	5
NMTAP	57	0	3
NMSTR	57	96	2
NMSCL	57	96	2	96	96	7
NMSTR	57	96	6
NMSCL	57	96	6	96	96	3
EXTAP	58	0	0
EXTAP	58	0	4
EXTAP	58	48	0
EXTAP	58	48	4
NMTAP	58	144	2
NMTAP	58	144	6
NMTAP	58	192	2
NMTAP	58	192	6
BRSTR	58	288	7
NMSCL	58	288	7	96	144	3
NMTAP	59	192	1
NMSTR	59	288	0
NMSCR	59	288	0	96	144	4
NMTAP	60	192	7
NMTAP	60	288	6
NMSTR	61	0	4
BRSF_	61	0	4	96	144	0
NMTAP	61	0	5
EXTAP	62	0	1
EXTAP	62	0	7
EXHLD	62	48	1	144
EXHLD	62	48	7	144
NMTAP	62	288	3
NMTAP	62	288	5
NMTAP	62	336	3
NMTAP	62	336	5
NMTAP	63	48	2
NMTAP	63	48	4
NMTAP	63	96	2
NMSTR	63	96	4
NMSI_	63	96	4	96	96	0
EXSTR	64	0	0
NMSCR	64	0	0	96	96	3
EXSTR	64	0	7
NMSCL	64	0	7	96	96	4
NMTAP	64	336	2
NMTAP	65	0	3
NMTAP	65	48	4
NMTAP	65	96	3
NMTAP	65	144	4
BRTAP	65	240	2
BRSTR	65	240	5
NMSCR	65	240	5	96	528	2
BXTAP	67	288	0

T_REC_TAP	181
T_REC_BRK	1
T_REC_XTP	26
T_REC_BXX	8
T_REC_HLD	26
T_REC_XHO	2
T_REC_BHO	0
T_REC_BXH	1
T_REC_STR	26
T_REC_BST	3
T_REC_XST	2
T_REC_XBS	0
T_REC_TTP	20
T_REC_THO	0
T_REC_SLD	30
T_REC_BSL	2
T_REC_ALL	328
T_NUM_TAP	255
T_NUM_BRK	15
T_NUM_HLD	28
T_NUM_SLD	30
T_NUM_ALL	328
T_JUDGE_TAP	267
T_JUDGE_HLD	66
T_JUDGE_SLD	32
T_JUDGE_ALL	365
TTM_EACHPAIRS	78
TTM_SCR_TAP	127500
TTM_SCR_BRK	39000
TTM_SCR_HLD	28000
TTM_SCR_SLD	45000
TTM_SCR_ALL	239500
TTM_SCR_S	230900
TTM_SCR_SS	238000
TTM_RAT_ACV	10063

