VERSION	0.00.00	1.05.00
FES_MODE	0
BPM_DEF	180.000	180.000	180.000	180.000
MET_DEF	4	4
RESOLUTION	384
CLK_DEF	384
COMPATIBLE_CODE	MA2

BPM	0	0	180.000
MET	0	0	4	4
MET	15	0	4	3
MET	15	288	4	4

NMSTR	1	0	1
NMSI_	1	0	1	96	288	4
NMSTR	3	0	6
NMSI_	3	0	6	96	288	3
NMSTR	5	0	1
NMSI_	5	0	1	96	288	5
NMSTR	7	0	7
NMSI_	7	0	7	96	288	3
NMTAP	9	0	1
NMTAP	9	96	1
NMTAP	9	192	1
NMTAP	10	0	2
NMTAP	10	96	2
NMTAP	10	192	2
NMTAP	11	0	3
NMTAP	11	96	3
NMTAP	11	192	3
NMTAP	12	0	4
NMTAP	12	96	4
NMTAP	12	192	4
NMTAP	13	0	5
NMTAP	13	96	5
NMTAP	13	192	5
NMTAP	14	0	6
NMTAP	14	96	6
NMTAP	14	192	6
NMHLD	15	0	0	288
NMHLD	15	0	7	288
NMTAP	16	288	7
NMTAP	17	0	7
NMTAP	17	96	6
NMTAP	17	288	5
NMTAP	18	0	5
NMTAP	18	96	4
NMTAP	18	288	3
NMTAP	19	0	3
NMTAP	19	96	2
NMTAP	19	288	1
NMTAP	20	0	1
NMTAP	20	96	0
NMTAP	20	96	1
NMTAP	20	288	6
NMTAP	21	0	6
NMTAP	21	96	6
NMTAP	21	96	7
NMTAP	21	288	0
NMTAP	21	288	7
NMTAP	22	0	0
NMTAP	22	0	7
NMTAP	22	96	0
NMTAP	22	96	7
NMHLD	22	288	1	192
NMHLD	23	96	0	192
NMHLD	23	288	7	192
NMTAP	24	96	6
NMHLD	24	288	6	192
NMHLD	25	96	7	192
NMHLD	25	288	0	192
NMTAP	26	96	1
NMHLD	26	288	2	192
NMHLD	27	96	3	192
NMHLD	27	288	4	192
NMTAP	28	96	5
NMHLD	28	288	5	192
NMHLD	29	96	4	192
NMHLD	29	288	3	192
NMTAP	30	96	2
NMTAP	30	288	2
NMTAP	31	0	2
NMTAP	31	96	2
NMTAP	31	96	3
NMTAP	31	288	1
NMTAP	32	0	1
NMTAP	32	96	0
NMTAP	32	96	1
NMTAP	32	288	7
NMTAP	33	0	7
NMTAP	33	96	6
NMTAP	33	96	7
NMTAP	33	288	4
NMTAP	33	288	5
NMTAP	34	0	4
NMTAP	34	0	5
BXTAP	34	96	4
BXTAP	34	96	5
NMTAP	34	288	5
NMTAP	35	0	5
NMTAP	35	96	4
NMTAP	35	96	5
NMTAP	35	288	6
NMTAP	36	0	6
NMTAP	36	96	6
NMTAP	36	96	7
NMTAP	36	288	0
NMTAP	37	0	0
NMTAP	37	96	0
NMTAP	37	96	1
NMTAP	37	288	2
NMTAP	37	288	3
NMTAP	38	0	2
NMTAP	38	0	3
NMTAP	38	96	2
NMTAP	38	96	3
NMSTR	38	288	2
NMSI_	38	288	2	96	192	5
NMSTR	39	288	6
NMSI_	39	288	6	96	192	3
NMSTR	40	288	1
NMSI_	40	288	1	96	192	5
NMSTR	41	288	7
NMSI_	41	288	7	96	192	3
NMTTP	42	288	1	B	0	L1
NMTTP	43	0	2	B	0	L1
NMTTP	43	96	3	B	0	L1
NMTTP	43	288	6	B	0	L1
NMTTP	44	0	5	B	0	L1
NMTTP	44	96	4	B	0	L1
NMTTP	44	288	1	B	0	L1
NMTTP	45	0	2	B	0	L1
NMTTP	45	96	3	B	0	L1
NMTTP	45	192	4	B	0	L1
NMTTP	45	288	0	C	1	L1
NMTAP	46	288	6
NMTAP	47	0	6
NMTAP	47	96	7
NMTAP	47	192	7
NMTAP	47	288	0
NMTAP	48	0	0
NMTAP	48	96	0
NMTAP	48	96	1
NMTAP	48	288	2
NMTAP	49	0	2
NMTAP	49	96	1
NMTAP	49	192	1
NMTAP	49	288	0
NMTAP	50	0	0
NMTAP	50	96	6
NMTAP	50	96	7
NMTAP	50	288	6
NMTAP	51	0	6
NMTAP	51	96	5
NMTAP	51	192	5
NMTAP	51	288	4
NMTAP	52	0	4
NMTAP	52	96	2
NMTAP	52	96	3
NMTAP	52	288	1
NMTAP	53	0	1
NMTAP	53	96	2
NMTAP	53	192	2
NMTAP	53	288	3
NMTAP	54	0	3
BRTAP	54	96	4
BRTAP	54	96	5
NMTAP	54	288	5
NMTAP	55	0	5
NMTAP	55	96	6
NMTAP	55	96	7
NMTAP	55	192	6
NMTAP	55	192	7
NMTAP	55	288	0
NMTAP	56	0	0
NMTAP	56	96	0
NMTAP	56	96	1
NMTAP	56	288	2
NMTAP	57	0	2
NMTAP	57	96	0
NMTAP	57	96	1
NMTAP	57	192	0
NMTAP	57	192	1
NMTAP	57	288	7
NMTAP	58	0	7
NMTAP	58	96	6
NMTAP	58	96	7
NMTAP	58	288	6
NMTAP	59	0	6
NMTAP	59	96	4
NMTAP	59	96	5
NMTAP	59	192	4
NMTAP	59	192	5
NMTAP	59	288	3
NMTAP	60	0	3
NMTAP	60	96	2
NMTAP	60	96	3
NMTAP	60	288	1
NMTAP	61	0	1
NMTAP	61	96	2
NMTAP	61	96	3
NMTAP	61	192	2
NMTAP	61	192	3
NMTAP	61	288	4
NMTAP	62	0	4
NMTAP	62	96	4
NMTAP	62	96	5
NMTAP	62	288	3
NMTAP	63	0	2
NMTAP	63	96	1
NMTAP	63	192	0
NMTAP	63	288	7
NMTAP	64	0	6
NMTAP	64	96	5
NMTAP	64	192	4
NMTAP	64	288	3
NMTAP	64	288	4
NMTAP	65	0	3
NMTAP	65	0	4
NMHLD	65	96	2	144
NMHLD	65	96	5	144

T_REC_TAP	161
T_REC_BRK	2
T_REC_XTP	0
T_REC_BXX	2
T_REC_HLD	16
T_REC_XHO	0
T_REC_BHO	0
T_REC_BXH	0
T_REC_STR	8
T_REC_BST	0
T_REC_XST	0
T_REC_XBS	0
T_REC_TTP	11
T_REC_THO	0
T_REC_SLD	8
T_REC_BSL	0
T_REC_ALL	208
T_NUM_TAP	180
T_NUM_BRK	4
T_NUM_HLD	16
T_NUM_SLD	8
T_NUM_ALL	208
T_JUDGE_TAP	184
T_JUDGE_HLD	66
T_JUDGE_SLD	8
T_JUDGE_ALL	258
TTM_EACHPAIRS	37
TTM_SCR_TAP	90000
TTM_SCR_BRK	10400
TTM_SCR_HLD	16000
TTM_SCR_SLD	12000
TTM_SCR_ALL	128400
TTM_SCR_S	124200
TTM_SCR_SS	128000
TTM_RAT_ACV	10031

