VERSION	0.00.00	1.05.00
FES_MODE	0
BPM_DEF	180.000	180.000	180.000	180.000
MET_DEF	4	4
RESOLUTION	384
CLK_DEF	384
COMPATIBLE_CODE	MA2

BPM	0	0	180.000
MET	0	0	4	4
MET	15	0	4	3
MET	15	288	4	4

NMTAP	5	0	0
NMTAP	6	0	0
NMTAP	7	0	7
NMTAP	8	0	0
NMTAP	8	0	7
NMHLD	9	0	6	384
NMHLD	9	0	7	384
NMHLD	11	0	4	384
NMHLD	11	0	5	384
NMHLD	13	0	2	384
NMHLD	13	0	3	384
NMHLD	15	0	0	288
NMHLD	15	0	1	288
EXSTR	16	288	0
NMSI_	16	288	0	96	288	3
NMSTR	18	288	4
NMSI_	18	288	4	96	288	7
NMHLD	20	288	0	288
NMHLD	20	288	7	288
NMTAP	22	288	0
NMTAP	23	96	0
NMTAP	23	288	1
NMTAP	24	96	1
NMTAP	24	288	2
NMTAP	25	96	2
EXTAP	25	288	2
EXTAP	25	288	3
NMTAP	26	288	4
NMTAP	27	96	4
NMTAP	27	288	5
NMTAP	28	96	5
NMTAP	28	288	6
NMTAP	29	96	6
EXTAP	29	288	6
EXTAP	29	288	7
NMTAP	30	288	7
NMTAP	31	96	7
NMTAP	31	288	6
NMTAP	32	96	6
NMTAP	32	288	5
NMTAP	33	96	5
NMTAP	33	288	3
NMTAP	33	288	4
NMTAP	34	288	3
NMTAP	35	96	3
NMTAP	35	288	2
NMTAP	36	96	2
NMTAP	36	288	1
NMTAP	37	96	1
BRTAP	37	288	0
BRTAP	37	288	7
NMTTP	38	288	0	B	0	L1
NMTTP	39	288	7	B	0	L1
NMTTP	40	288	1	B	0	L1
NMTTP	41	288	6	B	0	L1
NMTTP	42	288	2	B	0	L1
NMTTP	43	288	5	B	0	L1
NMTHO	44	288	0	336	C	1	L1
BXTAP	46	288	0
EXTAP	47	0	0
EXTAP	47	96	0
NMTAP	47	288	1
NMTAP	48	96	1
NMTAP	48	288	2
NMTAP	49	0	2
NMTAP	49	96	2
EXTAP	49	288	2
EXTAP	49	288	3
NMTAP	50	288	4
NMTAP	51	0	4
NMTAP	51	96	4
NMTAP	51	288	5
NMTAP	52	96	5
NMTAP	52	288	6
NMTAP	53	0	6
NMTAP	53	96	6
NMTAP	53	288	6
NMTAP	53	288	7
NMTAP	54	288	7
NMTAP	55	0	7
NMTAP	55	96	7
NMTAP	55	288	6
NMTAP	56	0	6
NMTAP	56	96	6
NMTAP	56	288	5
NMTAP	57	0	5
NMTAP	57	96	5
EXTAP	57	288	4
EXTAP	57	288	5
EXTAP	58	96	4
EXTAP	58	96	5
NMTAP	58	288	3
NMTAP	59	0	3
NMTAP	59	96	3
NMTAP	59	288	2
NMTAP	60	0	2
NMTAP	60	96	2
NMTAP	60	288	1
NMTAP	61	0	1
NMTAP	61	96	1
EXTAP	61	288	0
EXTAP	61	288	1
EXTAP	62	96	0
EXTAP	62	96	1
NMTAP	62	288	7
NMTAP	63	0	7
NMTAP	63	96	7
NMTAP	63	288	0
NMTAP	64	0	0
NMTAP	64	96	0
EXHLD	64	288	1	336
EXHLD	64	288	6	336

T_REC_TAP	70
T_REC_BRK	2
T_REC_XTP	16
T_REC_BXX	1
T_REC_HLD	10
T_REC_XHO	2
T_REC_BHO	0
T_REC_BXH	0
T_REC_STR	1
T_REC_BST	0
T_REC_XST	1
T_REC_XBS	0
T_REC_TTP	6
T_REC_THO	1
T_REC_SLD	2
T_REC_BSL	0
T_REC_ALL	112
T_NUM_TAP	94
T_NUM_BRK	3
T_NUM_HLD	13
T_NUM_SLD	2
T_NUM_ALL	112
T_JUDGE_TAP	97
T_JUDGE_HLD	93
T_JUDGE_SLD	2
T_JUDGE_ALL	192
TTM_EACHPAIRS	17
TTM_SCR_TAP	47000
TTM_SCR_BRK	7800
TTM_SCR_HLD	13000
TTM_SCR_SLD	3000
TTM_SCR_ALL	70800
TTM_SCR_S	68400
TTM_SCR_SS	70500
TTM_RAT_ACV	10042

