VERSION	0.00.00	1.05.00
FES_MODE	0
BPM_DEF	180.000	180.000	180.000	180.000
MET_DEF	4	4
RESOLUTION	384
CLK_DEF	384
COMPATIBLE_CODE	MA2

BPM	0	0	180.000
MET	0	0	4	4

NMTAP	1	0	5
NMTAP	1	96	4
NMTAP	1	192	3
NMTAP	1	264	3
NMTAP	1	336	5
NMTAP	2	0	4
NMTAP	2	48	3
NMTAP	2	96	2
NMTAP	2	144	3
NMTAP	2	192	4
NMTAP	2	240	2
NMHLD	2	264	2	120
NMTAP	3	0	3
NMTAP	3	48	4
NMTAP	3	96	5
NMTAP	3	144	2
NMTAP	3	192	3
NMTAP	3	240	4
NMTAP	3	288	3
NMTAP	3	336	4
NMTAP	4	0	5
NMTAP	4	48	4
NMTAP	4	96	3
NMTAP	4	144	2
NMHLD	4	192	1	1344
NMTAP	4	288	3
NMTTP	5	0	5	A	0	M1
NMTTP	5	96	4	B	0	M1
NMTTP	5	192	3	E	0	M1
NMTTP	5	264	2	A	0	M1
NMTTP	5	336	5	A	0	M1
NMTTP	6	0	5	D	0	M1
NMTTP	6	48	5	E	0	M1
NMTTP	6	96	4	A	0	M1
NMTTP	6	144	4	E	0	M1
NMTTP	6	192	3	A	0	M1
NMTTP	6	240	3	D	0	M1
NMTTP	6	264	2	A	0	M1
NMTTP	7	0	5	A	0	M1
NMTTP	7	48	5	D	0	M1
NMTTP	7	96	5	E	0	M1
NMTTP	7	144	4	A	0	M1
NMTTP	7	192	4	E	0	M1
NMTTP	7	240	3	A	0	M1
NMTTP	7	288	3	E	0	M1
NMTTP	7	336	3	D	0	M1
NMTTP	8	0	0	E	0	M1
NMTTP	8	48	7	E	0	M1
NMTTP	8	96	6	E	0	M1
NMTTP	8	144	5	E	0	M1
NMSTR	8	192	3
BRSI_	8	192	3	96	48	0
EXTAP	8	240	4
EXTAP	8	240	5
NMTTP	8	288	3	A	1	M1
NMSTR	8	288	6
NMSI_	8	288	6	96	48	4
NMSTR	9	0	6
NMSI_	9	0	6	96	48	1
NMSTR	9	0	7
NMSI_	9	0	7	96	48	1
NMSTR	9	96	6
NMSCL	9	96	6	96	96	3
NMSTR	9	96	7
NMSUL	9	96	7	96	96	2
NMTAP	9	336	0
NMTAP	9	336	1
NMTAP	10	0	0
NMTAP	10	0	1
NMTAP	10	48	2
NMTAP	10	48	7
NMTAP	10	96	2
NMTAP	10	96	7
NMSTR	10	144	3
NMSV_	10	144	3	96	72	1
NMSTR	10	144	6
NMSV_	10	144	6	96	72	0
NMTAP	10	192	4
NMTAP	10	192	5
NMTAP	11	0	1
NMTAP	11	0	3
NMTAP	11	48	4
NMTAP	11	96	2
NMTAP	11	96	5
NMTAP	11	144	1
NMTAP	11	192	4
NMTAP	11	192	6
NMTAP	11	240	7
NMTAP	11	288	1
NMTAP	11	288	4
NMTAP	11	336	0
NMTAP	12	0	2
NMTAP	12	0	4
NMTAP	12	48	5
NMTAP	12	96	3
NMSTR	12	96	5
NMSI_	12	96	5	96	48	7
NMTAP	12	144	2
NMTAP	12	192	2
BRSTR	12	288	0
NMSI_	12	288	0	96	48	3
BRSTR	12	288	1
NMSI_	12	288	1	96	48	3
NMSTR	13	0	0
NMSI_	13	0	0	96	48	6
NMSTR	13	0	1
NMSI_	13	0	1	96	48	6
NMSTR	13	96	0
NMSUR	13	96	0	96	96	5
NMSTR	13	96	1
NMSCR	13	96	1	96	96	4
NMTAP	13	336	6
NMTAP	13	336	7
NMTAP	14	0	6
NMTAP	14	0	7
NMTAP	14	48	0
NMTAP	14	48	5
NMTAP	14	96	0
NMTAP	14	96	5
NMSTR	14	144	1
NMSV_	14	144	1	96	72	7
NMSTR	14	144	4
NMSV_	14	144	4	96	72	6
NMTAP	14	192	2
NMTAP	14	192	3
NMTAP	15	0	4
NMTAP	15	0	6
NMTAP	15	48	3
NMTAP	15	96	2
NMTAP	15	96	5
NMTAP	15	144	6
NMTAP	15	192	1
NMTAP	15	192	3
NMTAP	15	240	0
NMTAP	15	288	3
NMTAP	15	288	6
NMTAP	15	336	7
NMTAP	16	0	3
NMTAP	16	0	5
NMTAP	16	48	2
NMTAP	16	96	2
NMTAP	16	96	4
NMTAP	16	144	5
NMTAP	16	192	7
NMTAP	16	240	0
BRSTR	16	288	2
NMSI_	16	288	2	96	48	0
BRSTR	16	288	3
NMSI_	16	288	3	96	48	0
NMSTR	17	0	2
NMSI_	17	0	2	96	48	5
NMSTR	17	0	3
NMSI_	17	0	3	96	48	5
NMSTR	17	96	2
NMSCL	17	96	2	96	96	7
NMSTR	17	96	3
NMSUL	17	96	3	96	96	6
NMTAP	17	336	4
NMTAP	17	336	5
NMTAP	18	0	4
NMTAP	18	0	5
NMTAP	18	48	3
NMTAP	18	48	6
NMTAP	18	96	3
NMTAP	18	96	6
NMSTR	18	144	2
NMSV_	18	144	2	96	72	4
NMSTR	18	144	7
NMSV_	18	144	7	96	72	5
NMTAP	18	192	0
NMTAP	18	192	1
NMTAP	19	0	5
NMTAP	19	0	7
NMTAP	19	48	0
NMTAP	19	96	1
NMTAP	19	96	6
NMTAP	19	144	5
NMTAP	19	192	0
NMTAP	19	192	2
NMTAP	19	240	3
NMTAP	19	288	0
NMTAP	19	288	5
NMTAP	19	336	4
NMTAP	20	0	0
NMTAP	20	0	6
NMTAP	20	48	1
NMTAP	20	96	1
NMTAP	20	96	7
NMTAP	20	144	6
NMTAP	20	192	3
NMTAP	20	192	6
BRSTR	20	288	4
NMSI_	20	288	4	96	48	7
BRSTR	20	288	5
NMSI_	20	288	5	96	48	7
NMSTR	21	0	4
NMSI_	21	0	4	96	48	2
NMSTR	21	0	5
NMSI_	21	0	5	96	48	2
NMSTR	21	96	4
NMSUR	21	96	4	96	96	1
NMSTR	21	96	5
NMSCR	21	96	5	96	96	0
NMTAP	21	336	2
NMTAP	21	336	3
NMTAP	22	0	2
NMTAP	22	0	3
NMTAP	22	48	1
NMTAP	22	48	4
NMTAP	22	96	1
NMTAP	22	96	4
NMSTR	22	144	0
NMSV_	22	144	0	96	72	2
NMSTR	22	144	5
NMSV_	22	144	5	96	72	3
NMTAP	22	192	6
NMTAP	22	192	7
NMTAP	23	0	0
NMTAP	23	0	2
NMTAP	23	48	7
NMTAP	23	96	1
NMTAP	23	96	6
NMTAP	23	144	2
NMTAP	23	192	5
NMTAP	23	192	7
NMTAP	23	240	4
NMTAP	23	288	2
NMTAP	23	288	7
NMTAP	23	336	3
BRTAP	24	0	1
BRTAP	24	0	7
NMTAP	24	48	6
BRTAP	24	96	0
BRTAP	24	96	6
NMTAP	24	144	1
BRTAP	24	192	2
BRTAP	24	192	7
NMSTR	24	288	1
NMSI_	24	288	1	96	48	4
NMTAP	24	288	5
NMSTR	25	0	6
NMSI_	25	0	6	96	48	0
NMTAP	25	48	5
NMSTR	25	96	3
NMSI_	25	96	3	96	48	7
NMTAP	25	144	4
NMTAP	25	192	5
NMTAP	25	240	5
NMSTR	25	288	6
NMSI_	25	288	6	96	48	2
NMTAP	25	336	7
NMSTR	26	0	6
NMSI_	26	0	6	96	48	4
NMTAP	26	48	0
NMSTR	26	96	6
NMSI_	26	96	6	96	48	0
NMTAP	26	144	3
NMSTR	26	192	6
NMSI_	26	192	6	96	48	3
NMTAP	26	240	3
NMTAP	26	288	6
NMTAP	26	336	0
NMSTR	27	0	4
NMSCR	27	0	4	96	96	0
NMSTR	27	96	0
NMSCR	27	96	0	96	96	4
NMSTR	27	192	4
NMSLR	27	192	4	96	96	0
NMSTR	27	288	0
NMSLR	27	288	0	96	96	4
NMSTR	28	0	4
NMSXR	28	0	4	96	144	5
NMTAP	28	96	0
NMTAP	28	192	0
NMTAP	28	288	2
NMSTR	28	288	6
NMSI_	28	288	6	96	48	1
NMSTR	29	0	3
NMSI_	29	0	3	96	48	5
NMTAP	29	48	2
NMSTR	29	96	0
NMSI_	29	96	0	96	48	4
NMTAP	29	144	7
NMTAP	29	192	2
NMTAP	29	240	2
NMSTR	29	288	3
NMSI_	29	288	3	96	48	7
NMTAP	29	336	4
NMSTR	30	0	3
NMSI_	30	0	3	96	48	1
NMTAP	30	48	5
NMSTR	30	96	3
NMSI_	30	96	3	96	48	5
NMTAP	30	144	0
NMSTR	30	192	3
NMSI_	30	192	3	96	48	0
NMTAP	30	240	0
NMTAP	30	288	3
NMTAP	30	336	5
NMSTR	31	0	1
NMSCR	31	0	1	96	96	5
NMSTR	31	96	5
NMSCR	31	96	5	96	96	1
NMSTR	31	192	1
NMSLR	31	192	1	96	96	5
NMSTR	31	288	5
NMSLR	31	288	5	96	96	1
NMTAP	32	0	1
NMTAP	32	96	5
NMTAP	32	144	5
NMTAP	32	168	3
NMTAP	32	192	4
NMTAP	32	240	4
BRTAP	32	288	2
BRSTR	32	288	6
NMSI_	32	288	6	96	48	3
NMSTR	33	0	1
NMSI_	33	0	1	96	48	7
NMTAP	33	48	2
NMSTR	33	96	4
NMSI_	33	96	4	96	48	0
NMTAP	33	144	3
NMTAP	33	192	2
NMTAP	33	240	2
NMSTR	33	288	1
NMSI_	33	288	1	96	48	5
NMTAP	33	336	0
NMSTR	34	0	1
NMSI_	34	0	1	96	48	3
NMTAP	34	48	7
NMSTR	34	96	1
NMSI_	34	96	1	96	48	7
NMTAP	34	144	4
NMSTR	34	192	1
NMSI_	34	192	1	96	48	4
NMTAP	34	240	4
NMTAP	34	288	1
NMTAP	34	336	7
NMSTR	35	0	3
NMSCL	35	0	3	96	96	7
NMSTR	35	96	7
NMSCL	35	96	7	96	96	3
NMSTR	35	192	3
NMSLL	35	192	3	96	96	7
NMSTR	35	288	7
NMSLL	35	288	7	96	96	3
NMSTR	36	0	3
NMSXL	36	0	3	96	144	2
NMTAP	36	96	7
NMTAP	36	192	7
NMSTR	36	288	1
NMSI_	36	288	1	96	48	6
NMTAP	36	288	5
NMSTR	37	0	4
NMSI_	37	0	4	96	48	2
NMTAP	37	48	5
NMSTR	37	96	7
NMSI_	37	96	7	96	48	3
NMTAP	37	144	0
NMTAP	37	192	5
NMTAP	37	240	5
NMSTR	37	288	4
NMSI_	37	288	4	96	48	0
NMTAP	37	336	3
NMSTR	38	0	4
NMSI_	38	0	4	96	48	6
NMTAP	38	48	2
NMSTR	38	96	4
NMSI_	38	96	4	96	48	2
NMTAP	38	144	7
NMSTR	38	192	4
NMSF_	38	192	4	96	48	0
NMTAP	38	240	7
NMTAP	38	288	4
BXTAP	39	0	2
BXTAP	39	0	6
NMHLD	39	96	3	48
NMHLD	39	96	5	48
NMHLD	39	192	2	48
NMHLD	39	192	4	48
NMTAP	39	288	2
NMTAP	39	288	4
NMHLD	40	0	2	48
NMHLD	40	0	4	48
NMHLD	40	96	3	48
NMHLD	40	96	5	48
NMTAP	40	240	7
NMSTR	40	288	0
NMSI_	40	288	0	96	48	4
BRTAP	41	0	0
BRTAP	41	0	5
NMTAP	41	96	5
NMTAP	41	192	4
NMTAP	41	192	5
NMTAP	41	264	3
NMTAP	41	264	4
NMTAP	41	336	2
NMTAP	41	336	3
NMTAP	42	0	2
NMTAP	42	0	3
NMTAP	42	96	2
NMTAP	42	96	4
NMSTR	42	192	1
NMSI_	42	192	1	96	48	3
NMSTR	42	192	5
NMSCL	42	192	5	96	48	3
NMTAP	42	240	0
NMTAP	42	240	6
NMTAP	43	0	2
NMTAP	43	96	2
NMTAP	43	192	2
NMTAP	43	192	3
NMTAP	43	264	3
NMTAP	43	264	4
NMTAP	43	336	4
NMTAP	43	336	5
NMTAP	44	0	4
NMTAP	44	0	5
NMTAP	44	96	3
NMTAP	44	96	5
NMSTR	44	192	2
NMSCL	44	192	2	96	48	0
NMSTR	44	192	6
NMSI_	44	192	6	96	48	4
NMTAP	44	240	3
NMTAP	44	240	7
NMTAP	45	0	1
NMTAP	45	96	2
NMTAP	45	192	2
NMTAP	45	192	3
NMTAP	45	264	3
NMTAP	45	264	4
NMTAP	45	336	4
NMTAP	45	336	5
NMTAP	46	0	4
NMTAP	46	0	5
NMTAP	46	96	3
NMTAP	46	96	5
NMSTR	46	192	4
NMSCL	46	192	4	96	48	2
NMSTR	46	192	6
NMSI_	46	192	6	96	48	4
NMTAP	46	240	3
NMTAP	46	240	7
NMTAP	47	0	5
NMTAP	47	96	5
NMTAP	47	192	4
NMTAP	47	192	5
NMTAP	47	264	3
NMTAP	47	264	4
NMTAP	47	336	2
NMTAP	47	336	3
NMTAP	48	0	2
NMTAP	48	0	3
NMTAP	48	96	2
NMTAP	48	96	4
NMSTR	48	192	1
NMSCL	48	192	1	96	48	7
NMSTR	48	192	5
NMSI_	48	192	5	96	48	3
NMTAP	48	240	2
NMTAP	48	240	6
NMHLD	49	0	0	48
NMHLD	49	0	4	48
NMHLD	49	96	3	48
NMSTR	49	96	6
NMSXL	49	96	6	96	144	4
NMTAP	49	192	4
NMTAP	49	264	3
NMTAP	49	336	2
NMSTR	50	0	2
NMSI_	50	0	2	96	48	7
NMTAP	50	48	3
NMSTR	50	96	6
NMSI_	50	96	6	96	48	3
NMTAP	50	144	5
NMSTR	50	192	0
NMSCL	50	192	0	96	48	5
NMSCR	50	192	0	96	48	3
NMSTR	51	0	6
NMSI_	51	0	6	96	48	2
NMSTR	51	48	2
NMSI_	51	48	2	96	48	6
NMTAP	51	96	1
NMTAP	51	144	0
NMSTR	51	192	0
NMSI_	51	192	0	96	48	4
NMSTR	51	240	4
NMSI_	51	240	4	96	48	0
NMTAP	51	288	5
NMTAP	51	336	6
NMSTR	52	0	7
NMSI_	52	0	7	96	48	5
NMSTR	52	48	7
NMSI_	52	48	7	96	48	1
NMSTR	52	96	7
NMSI_	52	96	7	96	48	3
EXTAP	52	288	4
EXTAP	52	288	6
NMHLD	53	0	3	48
NMHLD	53	0	7	48
NMSTR	53	96	1
NMSXR	53	96	1	96	144	3
NMHLD	53	96	4	48
NMTAP	53	192	3
NMTAP	53	264	4
NMTAP	53	336	5
NMSTR	54	0	5
NMSI_	54	0	5	96	48	0
NMTAP	54	48	4
NMSTR	54	96	1
NMSI_	54	96	1	96	48	4
NMTAP	54	144	2
NMSTR	54	192	7
NMSLL	54	192	7	96	48	3
NMSLR	54	192	7	96	48	3
NMSTR	55	0	1
NMSI_	55	0	1	96	48	5
NMSTR	55	48	5
NMSI_	55	48	5	96	48	1
NMTAP	55	96	6
NMTAP	55	144	7
NMSTR	55	192	7
NMSI_	55	192	7	96	48	3
NMSTR	55	240	3
NMSI_	55	240	3	96	48	7
NMTAP	55	288	2
NMTAP	55	336	1
NMSTR	56	0	0
NMSXL	56	0	0	96	48	2
NMSTR	56	48	0
NMSXR	56	48	0	96	48	6
NMSTR	56	96	0
NMSLR	56	96	0	96	48	4
BRTAP	56	288	7
BRTAP	57	0	2
NMTAP	57	24	3
NMTAP	57	48	2
NMTAP	57	72	3
NMTAP	57	96	1
NMTAP	57	120	4
NMTAP	57	144	1
NMTAP	57	168	4
NMTAP	57	192	2
NMTAP	57	216	3
NMTAP	57	240	2
NMTAP	57	264	3
NMTAP	57	288	1
NMTAP	57	312	4
NMTAP	57	336	1
NMTAP	57	360	4
NMTAP	58	0	2
NMTAP	58	24	3
NMTAP	58	48	2
NMTAP	58	72	3
EXTAP	58	96	1
NMTAP	58	120	3
NMTAP	58	144	2
EXTAP	58	168	6
NMTAP	58	192	4
NMTAP	58	216	5
EXTAP	58	240	1
NMTAP	58	264	3
NMTAP	58	288	2
EXTAP	58	312	6
NMTAP	58	336	4
NMTAP	58	360	5
NMTAP	59	0	2
NMTAP	59	24	3
NMTAP	59	48	2
NMTAP	59	72	3
NMTAP	59	96	1
NMTAP	59	120	4
NMTAP	59	144	1
NMTAP	59	168	4
NMTAP	59	192	0
NMTAP	59	216	5
NMTAP	59	240	0
NMTAP	59	264	5
NMTAP	59	288	7
NMTAP	59	312	6
NMTAP	59	336	7
NMTAP	59	360	6
BRTAP	60	0	0
NMTAP	60	48	4
NMTAP	60	60	3
NMTAP	60	72	2
NMTAP	60	84	1
NMTAP	60	96	0
NMTAP	60	108	7
NMTAP	60	120	6
NMTAP	60	132	5
NMTAP	60	144	4
NMTAP	60	156	3
NMTAP	60	168	2
NMTAP	60	180	1
NMTAP	60	192	0
BRTAP	60	288	1
BRTAP	60	288	5
NMTAP	60	336	6
NMTTP	61	0	0	B	0	M1
NMTTP	61	24	2	B	0	M1
NMTTP	61	48	3	D	0	M1
NMTTP	61	72	7	B	0	M1
NMTTP	61	96	5	B	0	M1
NMTTP	61	120	5	D	0	M1
NMTTP	61	144	1	A	0	M1
NMTTP	61	168	2	E	0	M1
NMTTP	61	192	3	E	0	M1
NMTTP	61	216	6	A	0	M1
NMTTP	61	240	6	E	0	M1
NMTTP	61	264	5	E	0	M1
NMTAP	61	288	0
NMTAP	61	312	1
NMTAP	61	336	2
NMTAP	61	360	3
NMTAP	62	0	6
NMTAP	62	24	4
NMTAP	62	48	6
NMTAP	62	72	4
NMTAP	62	96	7
NMTAP	62	120	6
NMTAP	62	144	5
NMTAP	62	168	4
NMTAP	62	192	1
NMTAP	62	216	3
NMTAP	62	240	1
NMTAP	62	264	3
NMTAP	62	288	0
NMTAP	62	312	1
NMTAP	62	336	2
NMTAP	62	360	3
NMTAP	63	0	4
NMTAP	63	0	6
NMTAP	63	48	5
NMTAP	63	96	1
NMTAP	63	96	3
NMTAP	63	144	2
NMTAP	63	192	4
NMTAP	63	192	6
NMTAP	63	240	5
NMTAP	63	288	0
NMTAP	63	288	6
NMTAP	63	336	7
NMTAP	64	0	0
NMTAP	64	0	2
NMTAP	64	48	1
NMTAP	64	96	5
NMTAP	64	96	7
NMTAP	64	144	6
NMSTR	64	192	0
NMSI_	64	192	0	96	48	4
NMSTR	64	192	7
NMSI_	64	192	7	96	48	3
BRTAP	64	288	0
BRTAP	64	288	7
NMTAP	65	0	2
NMTAP	65	24	3
NMTAP	65	48	2
NMTAP	65	72	3
NMTAP	65	96	2
NMTAP	65	144	1
NMTAP	65	192	0
NMTAP	65	192	1
NMTAP	65	240	7
NMTAP	65	288	6
NMTAP	65	288	7
NMTAP	65	336	5
NMTAP	66	0	4
NMTAP	66	0	5
BRTAP	66	48	1
NMTAP	66	72	2
NMTAP	66	96	3
BRTAP	66	120	7
NMTAP	66	144	6
NMTAP	66	168	5
BRTAP	66	192	3
NMTAP	66	216	2
NMTAP	66	240	1
BRTAP	66	264	4
NMTAP	66	288	5
NMTAP	66	312	6
NMTAP	66	336	1
EXTAP	67	0	1
NMTAP	67	24	0
NMTAP	67	48	1
NMTAP	67	72	0
EXTAP	67	96	2
NMTAP	67	120	3
NMTAP	67	144	2
NMTAP	67	168	3
EXTAP	67	192	7
NMTAP	67	216	6
NMTAP	67	240	7
NMTAP	67	264	6
EXTAP	67	288	4
NMTAP	67	312	5
NMTAP	67	336	4
NMTAP	67	360	5
EXTAP	68	0	1
NMTAP	68	24	3
NMTAP	68	48	1
NMTAP	68	72	3
EXTAP	68	96	0
NMTAP	68	120	4
NMTAP	68	144	0
NMTAP	68	168	4
EXTAP	68	192	7
NMTAP	68	216	5
NMTAP	68	240	7
NMTAP	68	264	5
EXTAP	68	288	6
NMTAP	69	0	7
NMTAP	69	24	6
NMTAP	69	48	5
NMTAP	69	72	4
NMTAP	69	96	7
NMTAP	69	120	6
NMTAP	69	144	5
NMTAP	69	168	4
NMTAP	69	192	0
NMTAP	69	216	1
NMTAP	69	240	2
NMTAP	69	264	3
NMTAP	69	288	0
NMTAP	69	312	1
NMTAP	69	336	2
NMTAP	69	360	3
NMTAP	70	0	7
NMTAP	70	48	4
NMTAP	70	48	6
NMTAP	70	96	0
NMTAP	70	144	1
NMTAP	70	144	3
NMTAP	70	192	4
NMTAP	70	240	0
NMTAP	70	240	6
NMTAP	70	288	3
NMTAP	70	336	0
NMTAP	70	336	6
NMTAP	71	0	5
NMTAP	71	0	7
NMTAP	71	48	4
NMTAP	71	48	6
NMTAP	71	96	3
NMTAP	71	96	5
NMTAP	71	144	2
NMTAP	71	144	4
NMTAP	71	192	1
NMTAP	71	192	3
NMTAP	71	240	0
NMTAP	71	240	2
NMTAP	71	288	1
NMTAP	71	288	7
NMTAP	71	336	0
NMTAP	71	336	6
BXTAP	72	0	5
BXTAP	72	0	7
BXTAP	72	48	5
BXTAP	72	48	7
BXTAP	72	96	5
BXTAP	72	96	7
BXTAP	72	144	5
BXTAP	72	144	7
BXSTR	72	192	5
NMSI_	72	192	5	96	48	1
BXSTR	72	192	7
NMSI_	72	192	7	96	48	3
BRTAP	72	288	5
BRTAP	72	288	7
NMSTR	73	0	0
NMSCR	73	0	0	96	96	4
NMTAP	73	48	6
NMSTR	73	96	4
NMSXR	73	96	4	96	144	0
NMTAP	73	144	5
NMTAP	73	192	6
NMTAP	73	240	6
NMTAP	73	288	5
NMTAP	73	336	6
NMSTR	74	0	7
NMSCL	74	0	7	96	96	3
NMTAP	74	48	1
NMSTR	74	96	3
NMSXL	74	96	3	96	144	6
NMTAP	74	144	2
NMTAP	74	192	1
NMTAP	74	240	1
NMTAP	74	288	2
NMTAP	74	336	1
NMSTR	75	0	0
NMSI_	75	0	0	96	48	4
NMTAP	75	48	4
NMSTR	75	96	5
NMSI_	75	96	5	96	48	1
NMTAP	75	144	7
NMSTR	75	192	2
NMSI_	75	192	2	96	48	7
NMTAP	75	240	3
NMSTR	75	288	4
NMSI_	75	288	4	96	48	6
NMTAP	75	336	5
NMSTR	76	0	0
NMSI_	76	0	0	96	48	4
NMTAP	76	48	1
NMSTR	76	96	7
NMSI_	76	96	7	96	48	3
NMTAP	76	144	6
NMTAP	76	192	2
NMTAP	76	240	2
NMSTR	76	288	6
NMSI_	76	288	6	96	96	0
NMTAP	77	0	3
NMTAP	77	48	3
CNSI_	77	96	0	0	48	5
NMTAP	77	96	3
NMTAP	77	144	3
CNSI_	77	144	5	0	48	1
NMTAP	77	192	3
NMTAP	77	240	3
NMSTR	77	288	2
NMSI_	77	288	2	96	96	4
NMTAP	77	336	2
NMTAP	78	0	7
NMTAP	78	48	7
CNSI_	78	96	4	0	48	1
NMTAP	78	96	7
CNSI_	78	144	1	0	48	5
NMTAP	78	144	7
NMTAP	78	192	7
NMTAP	78	240	7
NMSTR	78	288	3
NMSCL	78	288	3	96	48	0
NMSTR	78	288	7
NMSCL	78	288	7	96	48	4
NMSTR	79	0	3
NMSUR	79	0	3	96	48	7
NMSTR	79	0	7
NMSUR	79	0	7	96	48	3
NMSTR	79	96	3
NMSCL	79	96	3	96	48	0
NMSTR	79	96	7
NMSCL	79	96	7	96	48	4
NMSTR	79	192	3
NMSUR	79	192	3	96	48	7
NMSTR	79	192	7
NMSUR	79	192	7	96	48	3
NMSTR	79	288	3
NMSCL	79	288	3	96	48	0
NMSTR	79	288	7
NMSCL	79	288	7	96	48	4
NMTAP	80	0	3
NMTAP	80	0	7
NMTAP	80	96	2
NMTAP	80	96	6
NMTAP	80	144	1
NMTAP	80	168	7
NMTAP	80	192	1
NMTAP	80	240	3
NMTAP	80	240	5
BRTAP	80	288	2
BRTAP	80	288	6
NMTAP	81	0	2
NMSTR	81	0	7
NMSI_	81	0	7	96	48	3
NMTAP	81	48	2
NMTAP	81	96	2
NMTAP	81	144	2
NMTAP	81	192	2
NMSTR	81	192	4
NMSI_	81	192	4	96	48	0
NMTAP	81	240	2
NMTAP	81	288	2
NMTAP	81	336	2
NMSTR	82	0	1
NMSV_	82	0	1	96	48	4
NMTAP	82	0	2
NMTAP	82	48	2
NMTAP	82	96	2
NMTAP	82	144	2
NMTAP	82	192	2
NMTAP	82	192	5
NMTAP	82	240	1
NMTAP	82	288	0
NMSTR	82	288	7
NMSI_	82	288	7	96	48	3
NMTAP	82	336	6
NMSTR	83	0	0
NMSI_	83	0	0	96	48	4
NMTAP	83	0	7
NMTAP	83	48	1
NMTAP	83	96	0
NMSTR	83	96	7
NMSI_	83	96	7	96	48	3
NMTAP	83	144	6
NMSTR	83	192	0
NMSI_	83	192	0	96	48	4
NMTAP	83	192	7
NMTAP	83	240	1
NMTAP	83	288	0
NMSTR	83	288	7
NMSI_	83	288	7	96	48	3
NMTAP	83	336	6
NMSTR	84	0	0
NMSI_	84	0	0	96	48	4
NMTAP	84	0	7
NMTAP	84	48	1
NMTAP	84	96	0
NMSTR	84	96	7
NMSI_	84	96	7	96	48	3
NMTAP	84	144	6
NMSTR	84	192	0
NMSI_	84	192	0	96	48	4
NMTAP	84	192	7
NMTAP	84	240	1
NMTAP	84	288	0
NMHLD	84	288	7	96
NMTAP	85	0	3
NMTAP	85	48	3
NMSTR	85	96	5
NMSCR	85	96	5	96	96	1
NMTAP	85	144	5
NMSTR	85	192	1
NMSCL	85	192	1	96	96	5
NMTAP	85	240	2
NMTAP	85	288	3
NMTAP	85	336	4
NMTAP	86	0	3
NMTAP	86	48	3
NMSTR	86	96	2
NMSCL	86	96	2	96	96	6
NMTAP	86	144	2
NMSTR	86	192	6
NMSCR	86	192	6	96	96	2
NMTAP	86	240	5
NMSTR	86	288	4
NMSI_	86	288	4	96	48	7
NMTAP	86	336	3
BRTAP	87	0	4
NMTAP	87	96	3
NMTAP	87	144	2
NMTAP	87	144	4
NMTAP	87	192	5
NMTAP	87	240	4
NMTAP	87	288	3
NMTAP	87	288	5
NMTAP	87	336	6
NMTAP	87	360	4
NMTAP	88	0	6
NMTAP	88	24	4
NMTAP	88	48	5
NMTAP	88	96	2
NMTAP	88	144	1
NMTAP	88	144	3
NMSTR	88	192	4
NMSI_	88	192	4	96	48	0
NMTAP	88	240	6
BRSTR	88	288	1
BRSF_	88	288	1	96	48	5
BRTAP	88	288	4
NMSTR	89	288	0
NMSCR	89	288	0	96	48	1
NMSTR	89	288	6
NMSXR	89	288	6	96	192	7
CNSV_	90	48	1	0	48	3
CNSCL	90	96	3	0	48	2
CNSI_	90	144	2	0	48	0

T_REC_TAP	548
T_REC_BRK	26
T_REC_XTP	16
T_REC_BXX	10
T_REC_HLD	17
T_REC_XHO	0
T_REC_BHO	0
T_REC_BXH	0
T_REC_STR	142
T_REC_BST	8
T_REC_XST	0
T_REC_XBS	2
T_REC_TTP	37
T_REC_THO	0
T_REC_SLD	152
T_REC_BSL	2
T_REC_ALL	960
T_NUM_TAP	743
T_NUM_BRK	48
T_NUM_HLD	17
T_NUM_SLD	152
T_NUM_ALL	960
T_JUDGE_TAP	789
T_JUDGE_HLD	47
T_JUDGE_SLD	154
T_JUDGE_ALL	990
TTM_EACHPAIRS	163
TTM_SCR_TAP	371500
TTM_SCR_BRK	124800
TTM_SCR_HLD	17000
TTM_SCR_SLD	228000
TTM_SCR_ALL	741300
TTM_SCR_S	714450
TTM_SCR_SS	736500
TTM_RAT_ACV	10065

