VERSION	0.00.00	1.05.00
FES_MODE	0
BPM_DEF	180.000	180.000	180.000	180.000
MET_DEF	4	4
RESOLUTION	384
CLK_DEF	384
COMPATIBLE_CODE	MA2

BPM	0	0	180.000
MET	0	0	4	4

NMTAP	1	0	5
NMTAP	1	96	4
NMTAP	1	192	3
NMTAP	1	336	2
NMTAP	2	0	2
NMTAP	2	96	3
NMTAP	2	192	4
NMTAP	3	0	6
NMTAP	3	48	6
NMTAP	3	96	4
NMTAP	3	144	5
NMTAP	3	192	1
NMTAP	3	240	1
NMTAP	3	288	3
NMTAP	3	336	2
NMHLD	4	0	6	96
NMHLD	4	96	4	96
NMHLD	4	192	3	96
NMTAP	4	288	1
NMTAP	5	0	5
NMTAP	5	96	4
NMTAP	5	192	3
NMTAP	5	336	2
NMTAP	6	0	2
NMTAP	6	96	3
NMTAP	6	192	4
NMTAP	7	0	6
NMTAP	7	48	6
NMTAP	7	96	4
NMTAP	7	144	5
NMTAP	7	192	1
NMTAP	7	240	1
NMTAP	7	288	3
NMTAP	7	336	2
NMTAP	8	0	4
NMTAP	8	96	1
NMTAP	8	96	5
NMTAP	8	192	0
NMTAP	8	192	6
BRTAP	8	240	1
BRTAP	8	240	5
BRTAP	8	288	1
BRTAP	8	288	5
NMSTR	9	0	7
NMSI_	9	0	7	96	48	3
NMSTR	9	96	2
NMSCR	9	96	2	96	48	5
NMHLD	9	192	6	144
NMTAP	9	336	7
NMTAP	10	0	7
NMTAP	10	48	0
NMTAP	10	48	5
NMSTR	10	96	0
NMSI_	10	96	0	96	48	2
NMSTR	10	96	5
NMSI_	10	96	5	96	48	3
NMTAP	10	192	0
NMTAP	10	192	5
NMTAP	11	0	1
NMTAP	11	48	1
NMTAP	11	96	3
NMTAP	11	144	3
NMTAP	11	192	2
NMTAP	11	240	2
NMTAP	11	288	6
NMTAP	11	336	6
NMTAP	12	0	4
NMTAP	12	48	4
NMTAP	12	96	5
NMTAP	12	192	6
NMTAP	12	192	7
NMTAP	12	288	1
NMTAP	12	288	3
NMSTR	13	0	0
NMSI_	13	0	0	96	48	4
NMSTR	13	96	5
NMSCL	13	96	5	96	48	2
NMHLD	13	192	1	144
NMTAP	13	336	0
NMTAP	14	0	0
NMTAP	14	48	2
NMTAP	14	48	7
NMSTR	14	96	2
NMSI_	14	96	2	96	48	4
NMSTR	14	96	7
NMSI_	14	96	7	96	48	5
NMTAP	14	192	2
NMTAP	14	192	7
NMTAP	15	0	6
NMTAP	15	48	6
NMTAP	15	96	4
NMTAP	15	144	4
NMTAP	15	192	5
NMTAP	15	240	5
NMTAP	15	288	1
NMTAP	15	336	1
NMTAP	16	0	3
NMTAP	16	48	3
NMTAP	16	96	2
NMTAP	16	144	2
BRHLD	16	192	7	96
NMTAP	16	288	0
NMTAP	16	336	0
NMSTR	17	0	6
NMSI_	17	0	6	96	48	2
NMSTR	17	96	1
NMSCL	17	96	1	96	48	6
NMHLD	17	192	5	144
NMTAP	17	336	4
NMTAP	18	0	4
NMTAP	18	48	3
NMTAP	18	48	6
NMSTR	18	96	3
NMSI_	18	96	3	96	48	1
NMSTR	18	96	6
NMSI_	18	96	6	96	48	4
NMTAP	18	192	3
NMTAP	18	192	6
NMTAP	19	0	0
NMTAP	19	48	0
NMTAP	19	96	3
NMTAP	19	144	1
NMTAP	19	192	7
NMTAP	19	240	7
NMTAP	19	288	4
NMTAP	19	336	6
NMTAP	20	0	2
NMTAP	20	48	4
NMTAP	20	96	1
NMTAP	20	144	3
NMTAP	20	192	0
NMTAP	20	288	2
NMTAP	20	288	4
NMSTR	21	0	1
NMSI_	21	0	1	96	48	5
NMSTR	21	96	6
NMSCR	21	96	6	96	48	1
NMHLD	21	192	2	144
NMTAP	21	336	3
NMTAP	22	0	3
NMTAP	22	48	1
NMTAP	22	48	4
NMSTR	22	96	1
NMSI_	22	96	1	96	48	3
NMSTR	22	96	4
NMSI_	22	96	4	96	48	6
NMTAP	22	192	1
NMTAP	22	192	4
NMTAP	23	0	7
NMTAP	23	48	7
NMTAP	23	96	4
NMTAP	23	144	6
NMTAP	23	192	0
NMTAP	23	240	0
NMTAP	23	288	3
NMTAP	23	336	1
NMTAP	24	0	5
NMTAP	24	48	3
NMTAP	24	96	6
NMTAP	24	144	4
BRSTR	24	192	7
NMSCL	24	192	7	96	48	4
NMSTR	25	0	1
NMSI_	25	0	1	96	48	3
NMTAP	25	48	1
NMSTR	25	96	7
NMSI_	25	96	7	96	48	5
NMTAP	25	144	7
NMSTR	25	192	0
NMSI_	25	192	0	96	48	4
NMTAP	25	240	0
NMTAP	25	288	7
NMTAP	25	336	7
NMSTR	26	0	6
NMSI_	26	0	6	96	48	4
NMTAP	26	48	6
NMSTR	26	96	0
NMSI_	26	96	0	96	48	2
NMTAP	26	144	0
NMSTR	26	192	7
NMSI_	26	192	7	96	48	3
NMTAP	26	240	7
NMTAP	26	288	0
NMSTR	27	0	0
NMSCR	27	0	0	96	96	4
NMSTR	27	96	4
NMSCR	27	96	4	96	96	0
NMSTR	27	192	0
NMSCR	27	192	0	96	96	4
NMSTR	27	288	4
NMSCR	27	288	4	96	96	0
NMSTR	28	0	0
NMSCR	28	0	0	96	96	4
NMSTR	28	96	4
NMSCR	28	96	4	96	96	0
NMTAP	28	192	0
NMTAP	28	288	4
NMSTR	29	0	6
NMSI_	29	0	6	96	48	4
NMTAP	29	48	6
NMSTR	29	96	0
NMSI_	29	96	0	96	48	2
NMTAP	29	144	0
NMSTR	29	192	7
NMSI_	29	192	7	96	48	3
NMTAP	29	240	7
NMTAP	29	288	0
NMTAP	29	336	0
NMSTR	30	0	1
NMSI_	30	0	1	96	48	3
NMTAP	30	48	1
NMSTR	30	96	7
NMSI_	30	96	7	96	48	5
NMTAP	30	144	7
NMSTR	30	192	0
NMSI_	30	192	0	96	48	4
NMTAP	30	240	0
NMTAP	30	288	7
NMSTR	31	0	7
NMSCL	31	0	7	96	96	3
NMSTR	31	96	3
NMSCL	31	96	3	96	96	7
NMSTR	31	192	7
NMSCL	31	192	7	96	96	3
NMSTR	31	288	3
NMSCL	31	288	3	96	96	7
NMSTR	32	0	7
NMSCL	32	0	7	96	96	3
NMSTR	32	96	3
NMSCL	32	96	3	96	96	7
NMTAP	32	192	7
NMTAP	32	288	3
NMSTR	33	0	2
NMSI_	33	0	2	96	48	4
NMTAP	33	48	2
NMSTR	33	96	6
NMSI_	33	96	6	96	48	0
NMTAP	33	144	6
NMSTR	33	192	1
NMSI_	33	192	1	96	48	5
NMTAP	33	240	1
NMTAP	33	288	7
NMTAP	33	336	7
NMSTR	34	0	2
NMSI_	34	0	2	96	48	4
NMTAP	34	48	2
NMSTR	34	96	6
NMSI_	34	96	6	96	48	0
NMTAP	34	144	6
NMSTR	34	192	1
NMSI_	34	192	1	96	48	5
NMTAP	34	240	1
NMTAP	34	288	7
NMSTR	35	0	7
NMSLL	35	0	7	96	96	3
NMSTR	35	96	3
NMSLL	35	96	3	96	96	7
NMSTR	35	192	7
NMSLL	35	192	7	96	96	3
NMSTR	35	288	3
NMSLL	35	288	3	96	96	7
NMSTR	36	0	7
NMSLL	36	0	7	96	96	3
NMSTR	36	96	3
NMSLL	36	96	3	96	96	7
NMTAP	36	192	7
NMTAP	36	288	3
NMSTR	37	0	5
NMSI_	37	0	5	96	48	3
NMTAP	37	48	5
NMSTR	37	96	1
NMSI_	37	96	1	96	48	7
NMTAP	37	144	1
NMSTR	37	192	6
NMSI_	37	192	6	96	48	2
NMTAP	37	240	6
NMTAP	37	288	0
NMTAP	37	336	0
NMSTR	38	0	5
NMSI_	38	0	5	96	48	3
NMTAP	38	48	5
NMSTR	38	96	1
NMSI_	38	96	1	96	48	7
NMTAP	38	144	1
NMSTR	38	192	6
NMSI_	38	192	6	96	48	2
NMTAP	38	240	6
NMSTR	38	288	0
BRSF_	38	288	0	96	48	4
NMTAP	39	288	3
NMTAP	39	288	5
NMTAP	40	0	2
NMTAP	40	96	2
NMTAP	40	96	4
NMTAP	40	144	2
NMTAP	40	144	4
BRTAP	40	240	0
BRTAP	40	240	7
BRTAP	40	288	0
BRTAP	40	288	7
NMTAP	41	0	4
NMTAP	41	0	6
NMTAP	41	96	3
NMTAP	41	96	4
NMHLD	41	192	1	72
NMHLD	41	192	3	72
NMTTP	41	336	1	E	0	M1
NMTTP	42	0	2	E	0	M1
NMTTP	42	48	3	E	0	M1
NMTTP	42	96	5	E	0	M1
NMTTP	42	144	6	E	0	M1
NMTTP	42	192	7	E	0	M1
EXHLD	42	288	4	48
EXHLD	42	288	5	48
NMTAP	43	0	6
NMTAP	43	48	6
NMTAP	43	96	4
NMTAP	43	192	1
NMTAP	43	240	1
NMSTR	43	288	3
NMSXL	43	288	3	96	192	2
EXHLD	44	288	2	48
EXHLD	44	288	3	48
NMTAP	45	0	1
NMTAP	45	96	3
NMTAP	45	96	4
NMHLD	45	192	4	72
NMHLD	45	192	6	72
NMTTP	45	336	7	E	0	M1
NMTTP	46	0	6	E	0	M1
NMTTP	46	48	5	E	0	M1
NMTTP	46	96	3	E	0	M1
NMTTP	46	144	2	E	0	M1
NMTTP	46	192	1	E	0	M1
EXHLD	46	288	2	48
EXHLD	46	288	3	48
NMTAP	47	0	1
NMTAP	47	48	1
NMTAP	47	96	3
NMTAP	47	192	6
NMTAP	47	240	6
NMTAP	47	288	4
NMTAP	48	0	4
NMTAP	48	0	5
NMTAP	48	96	6
NMTAP	48	96	7
NMTAP	48	192	0
NMTAP	48	192	1
NMTAP	48	288	2
NMTAP	48	288	3
NMTAP	49	0	1
NMTAP	49	0	4
NMTAP	49	96	2
NMTAP	49	96	5
NMHLD	49	192	3	72
NMHLD	49	192	6	72
NMTTP	49	336	3	E	0	M1
NMTTP	50	0	2	E	0	M1
NMTTP	50	48	1	E	0	M1
NMTTP	50	96	7	E	0	M1
NMTTP	50	144	6	E	0	M1
NMTTP	50	192	5	E	0	M1
EXHLD	50	288	4	48
EXHLD	50	288	5	48
NMTAP	51	0	6
NMTAP	51	48	6
NMTAP	51	96	4
NMTAP	51	144	7
NMTAP	51	192	1
NMTAP	51	240	1
NMTAP	51	288	3
NMTAP	51	336	0
NMTAP	52	0	5
NMTAP	52	48	5
NMTAP	52	96	4
NMTAP	52	144	6
NMSTR	52	192	0
NMSI_	52	192	0	96	48	4
NMTAP	53	0	3
NMTAP	53	0	6
NMTAP	53	96	2
NMTAP	53	96	5
NMHLD	53	192	1	72
NMHLD	53	192	4	72
NMTTP	53	336	5	E	0	M1
NMTTP	54	0	6	E	0	M1
NMTTP	54	48	7	E	0	M1
NMTTP	54	96	1	E	0	M1
NMTTP	54	144	2	E	0	M1
NMTTP	54	192	3	E	0	M1
EXHLD	54	288	2	48
EXHLD	54	288	3	48
NMTAP	55	0	1
NMTAP	55	48	1
NMTAP	55	96	3
NMTAP	55	144	0
NMTAP	55	192	6
NMTAP	55	240	6
NMTAP	55	288	4
NMTAP	55	336	7
NMTAP	56	0	2
NMTAP	56	48	2
NMTAP	56	96	3
NMTAP	56	144	1
BRTAP	56	192	7
NMTAP	57	0	2
NMTAP	57	24	3
NMTAP	57	48	2
NMTAP	57	72	3
NMTAP	57	96	2
NMTAP	57	120	3
NMTAP	57	144	2
NMTAP	57	168	3
NMTAP	57	192	1
NMTAP	57	216	3
NMTAP	57	240	1
NMTAP	57	264	3
NMTAP	57	288	1
NMTAP	58	0	5
NMTAP	58	24	4
NMTAP	58	48	5
NMTAP	58	72	4
NMTAP	58	96	5
NMTAP	58	120	4
NMTAP	58	144	5
NMTAP	58	168	4
NMTAP	58	192	6
NMTAP	58	216	4
NMTAP	58	240	6
NMTAP	58	264	4
NMTAP	58	288	6
NMTAP	59	0	2
NMTAP	59	24	3
NMTAP	59	48	2
NMTAP	59	72	3
NMTAP	59	96	2
NMTAP	59	120	3
NMTAP	59	144	2
NMTAP	59	168	3
NMTAP	59	192	1
NMTAP	59	216	3
NMTAP	59	240	1
NMTAP	59	264	3
NMSTR	59	288	1
NMSCR	59	288	1	96	192	7
NMTTP	60	0	0	C	1	M1
NMTAP	60	336	3
NMTAP	60	336	6
NMTAP	61	0	5
NMTAP	61	24	4
NMTAP	61	48	5
NMTAP	61	72	4
NMTAP	61	96	6
NMTAP	61	120	4
NMTAP	61	144	6
NMTAP	61	168	4
NMTAP	61	192	5
NMTAP	61	216	4
NMTAP	61	240	5
NMTAP	61	264	4
NMTAP	61	288	5
NMTAP	62	0	2
NMTAP	62	24	3
NMTAP	62	48	2
NMTAP	62	72	3
NMTAP	62	96	1
NMTAP	62	120	3
NMTAP	62	144	1
NMTAP	62	168	3
NMTAP	62	192	2
NMTAP	62	216	3
NMTAP	62	240	2
NMTAP	62	264	3
NMTAP	62	288	2
NMTAP	63	0	5
NMTAP	63	24	4
NMTAP	63	48	5
NMTAP	63	72	4
NMTAP	63	96	6
NMTAP	63	120	4
NMTAP	63	144	6
NMTAP	63	168	4
NMTAP	63	192	5
NMTAP	63	216	4
NMTAP	63	240	5
NMTAP	63	264	4
NMTAP	63	288	5
NMTAP	64	0	4
NMTAP	64	0	6
NMTAP	64	96	0
NMTAP	64	96	7
NMTAP	64	192	1
NMTAP	64	192	3
NMTAP	64	288	3
NMTAP	64	288	4
NMTAP	65	0	5
NMTAP	65	24	4
NMTAP	65	48	5
NMTAP	65	72	4
NMTAP	65	96	5
NMTAP	65	144	6
NMTAP	65	192	7
NMTAP	65	240	0
NMTAP	65	288	1
NMTAP	65	336	2
NMTAP	66	0	2
EXTAP	66	48	1
EXTAP	66	48	3
EXTAP	66	120	4
EXTAP	66	120	6
EXTAP	66	192	2
EXTAP	66	192	3
EXHLD	66	264	4	72
EXHLD	66	264	5	72
NMTAP	67	0	6
NMTAP	67	24	7
NMTAP	67	48	6
NMTAP	67	72	7
NMTAP	67	96	6
NMTAP	67	120	7
NMTAP	67	144	6
NMTAP	67	192	1
NMTAP	67	216	0
NMTAP	67	240	1
NMTAP	67	264	0
NMTAP	67	288	1
NMTAP	67	312	0
NMTAP	67	336	1
NMSTR	68	0	7
NMSI_	68	0	7	96	48	3
NMTAP	68	48	7
NMSTR	68	96	0
NMSI_	68	96	0	96	48	4
NMTAP	68	144	0
NMSTR	68	192	6
NMSI_	68	192	6	96	48	3
NMTAP	68	240	6
NMTAP	68	288	1
NMTAP	69	0	2
NMTAP	69	24	3
NMTAP	69	48	2
NMTAP	69	72	3
NMTAP	69	96	2
NMTAP	69	120	3
NMTAP	69	144	2
NMTAP	69	168	3
NMTAP	69	192	1
NMTAP	69	216	4
NMTAP	69	240	1
NMTAP	69	264	4
NMTAP	69	288	1
NMTAP	69	312	4
NMTAP	69	336	1
NMTAP	69	360	4
NMSTR	70	0	0
NMSI_	70	0	0	96	48	4
NMTAP	70	48	0
NMSTR	70	96	6
NMSI_	70	96	6	96	48	1
NMTAP	70	144	6
NMSTR	70	192	2
NMSI_	70	192	2	96	48	5
NMTAP	70	240	2
NMTAP	70	288	7
NMTAP	70	336	7
NMTAP	71	0	4
NMTAP	71	0	6
NMTAP	71	48	4
NMTAP	71	48	6
NMTAP	71	96	4
NMTAP	71	96	6
NMTAP	71	192	1
NMTAP	71	192	3
NMTAP	71	240	1
NMTAP	71	240	3
NMTAP	71	288	1
NMTAP	71	288	3
BXTAP	72	0	0
BXTAP	72	0	7
BXTAP	72	48	0
BXTAP	72	48	7
BXTAP	72	96	0
BXTAP	72	96	7
BXTAP	72	144	0
BXTAP	72	144	7
BXTAP	72	192	0
BXTAP	72	192	7
NMTAP	72	288	2
NMTAP	72	288	5
NMTAP	73	0	1
NMTAP	73	48	1
NMTAP	73	96	3
NMTAP	73	144	2
NMTAP	73	192	5
NMTAP	73	240	4
NMTAP	73	288	6
NMTAP	73	336	6
NMTAP	74	0	2
NMTAP	74	48	2
NMTAP	74	96	0
NMTAP	74	144	1
NMTAP	74	192	6
NMTAP	74	240	7
NMTAP	74	288	5
NMTAP	74	336	5
NMSTR	75	0	6
NMSI_	75	0	6	96	48	4
NMSTR	75	0	7
NMSI_	75	0	7	96	48	3
NMTAP	75	96	6
NMTAP	75	96	7
NMSTR	75	192	0
NMSI_	75	192	0	96	48	4
NMSTR	75	192	1
NMSI_	75	192	1	96	48	3
NMTAP	75	288	0
NMTAP	75	288	1
NMSTR	76	0	6
NMSI_	76	0	6	96	48	4
NMSTR	76	0	7
NMSI_	76	0	7	96	48	3
NMTAP	76	96	6
NMTAP	76	96	7
NMSTR	76	192	0
NMSI_	76	192	0	96	48	4
NMSTR	76	192	1
NMSI_	76	192	1	96	48	3
NMTAP	76	288	0
NMTAP	76	288	1
NMTAP	77	0	6
NMTAP	77	48	6
NMTAP	77	96	4
NMTAP	77	144	5
NMTAP	77	192	2
NMTAP	77	240	3
NMTAP	77	288	1
NMTAP	77	336	1
NMTAP	78	0	5
NMTAP	78	48	5
NMTAP	78	96	7
NMTAP	78	144	6
NMTAP	78	192	1
NMTAP	78	240	0
NMTAP	78	288	2
NMTAP	78	336	2
NMSTR	79	0	0
NMSI_	79	0	0	96	48	4
NMSTR	79	0	1
NMSI_	79	0	1	96	48	3
NMTAP	79	96	0
NMTAP	79	96	1
NMSTR	79	192	6
NMSI_	79	192	6	96	48	4
NMSTR	79	192	7
NMSI_	79	192	7	96	48	3
NMTAP	79	288	6
NMTAP	79	288	7
NMSTR	80	0	0
NMSI_	80	0	0	96	48	4
NMSTR	80	0	1
NMSI_	80	0	1	96	48	3
NMTAP	80	96	0
NMTAP	80	96	1
NMSTR	80	192	6
NMSI_	80	192	6	96	48	4
NMSTR	80	192	7
NMSI_	80	192	7	96	48	3
NMTAP	80	288	6
NMTAP	80	288	7
NMTAP	81	0	1
NMTAP	81	48	1
NMTAP	81	96	3
NMTAP	81	144	0
NMTAP	81	192	5
NMTAP	81	240	3
NMTAP	81	288	6
NMTAP	81	336	6
NMTAP	82	0	2
NMTAP	82	48	2
NMTAP	82	96	7
NMTAP	82	144	0
NMTAP	82	192	5
NMTAP	82	240	3
NMTAP	82	288	6
NMTAP	82	336	6
NMSTR	83	0	6
NMSI_	83	0	6	96	48	3
NMSTR	83	0	7
NMSI_	83	0	7	96	48	2
NMTAP	83	96	6
NMTAP	83	96	7
NMSTR	83	192	0
NMSI_	83	192	0	96	48	5
NMSTR	83	192	1
NMSI_	83	192	1	96	48	4
NMTAP	83	288	0
NMTAP	83	288	1
NMSTR	84	0	6
NMSI_	84	0	6	96	48	3
NMSTR	84	0	7
NMSI_	84	0	7	96	48	2
NMTAP	84	96	6
NMTAP	84	96	7
NMSTR	84	192	0
NMSI_	84	192	0	96	48	5
NMSTR	84	192	1
NMSI_	84	192	1	96	48	4
NMTAP	84	288	0
NMTAP	84	288	1
NMTAP	85	0	6
NMTAP	85	48	6
NMTAP	85	96	4
NMTAP	85	144	7
NMTAP	85	192	2
NMTAP	85	240	4
NMTAP	85	288	1
NMTAP	85	336	1
NMTAP	86	0	5
NMTAP	86	48	5
NMTAP	86	96	0
NMTAP	86	144	7
NMTAP	86	192	2
NMTAP	86	240	4
NMSTR	86	288	1
NMSI_	86	288	1	96	48	5
NMTAP	87	0	1
NMHLD	87	96	6	96
NMTAP	87	192	4
NMTAP	87	288	3
NMHLD	88	0	2	96
NMTAP	88	96	4
NMSTR	88	288	0
NMSI_	88	288	0	96	48	4
NMSTR	88	288	7
NMSI_	88	288	7	96	48	3
NMTAP	89	0	0
NMTAP	89	0	7
NMTTP	90	0	1	E	0	M1
NMTTP	90	0	1	A	0	M1
NMTTP	90	0	6	A	0	M1
NMTTP	90	0	7	E	0	M1
NMTTP	90	96	3	B	0	M1
NMTTP	90	96	3	E	0	M1
NMTTP	90	96	4	B	0	M1
NMTTP	90	96	5	E	0	M1

T_REC_TAP	465
T_REC_BRK	9
T_REC_XTP	6
T_REC_BXX	10
T_REC_HLD	17
T_REC_XHO	12
T_REC_BHO	1
T_REC_BXH	0
T_REC_STR	95
T_REC_BST	1
T_REC_XST	0
T_REC_XBS	0
T_REC_TTP	33
T_REC_THO	0
T_REC_SLD	95
T_REC_BSL	1
T_REC_ALL	745
T_NUM_TAP	599
T_NUM_BRK	22
T_NUM_HLD	29
T_NUM_SLD	95
T_NUM_ALL	745
T_JUDGE_TAP	619
T_JUDGE_HLD	54
T_JUDGE_SLD	96
T_JUDGE_ALL	769
TTM_EACHPAIRS	91
TTM_SCR_TAP	299500
TTM_SCR_BRK	57200
TTM_SCR_HLD	29000
TTM_SCR_SLD	142500
TTM_SCR_ALL	528200
TTM_SCR_S	510250
TTM_SCR_SS	526000
TTM_RAT_ACV	10041

