VERSION	0.00.00	1.05.00
FES_MODE	0
BPM_DEF	180.000	180.000	180.000	180.000
MET_DEF	4	4
RESOLUTION	384
CLK_DEF	384
COMPATIBLE_CODE	MA2

BPM	0	0	180.000
MET	0	0	4	4

NMTAP	1	0	2
NMHLD	1	96	2	480
NMTAP	1	192	3
NMTTP	2	0	2	B	0	M1
NMTTP	2	96	3	B	0	M1
NMTTP	2	192	4	E	0	M1
NMTAP	3	0	5
NMHLD	3	96	5	480
NMTAP	3	192	4
NMTTP	4	0	5	B	0	M1
NMTTP	4	96	4	B	0	M1
NMTTP	4	192	4	E	0	M1
NMTAP	5	0	1
NMHLD	5	96	1	480
NMTAP	5	192	3
NMTTP	6	0	2	E	0	M1
NMTTP	6	96	3	E	0	M1
NMTTP	6	192	4	E	0	M1
NMTAP	7	0	6
NMHLD	7	96	6	480
NMTAP	7	192	4
NMTTP	8	0	4	E	0	M1
NMTTP	8	96	3	E	0	M1
NMTTP	8	192	2	E	0	M1
BRTAP	8	288	0
BRTAP	8	288	7
NMTAP	9	0	0
NMTAP	9	0	1
NMTAP	9	96	2
NMTAP	9	96	3
NMHLD	9	192	4	72
NMHLD	9	192	6	72
NMTAP	9	336	6
NMTAP	9	336	7
NMTAP	10	0	6
NMTAP	10	0	7
NMTAP	10	96	4
NMTAP	10	96	5
BRTAP	10	192	1
BRTAP	10	192	3
NMTAP	11	0	1
NMTAP	11	48	1
NMTAP	11	96	0
NMTAP	11	192	6
NMTAP	11	240	6
NMSTR	11	288	7
NMSI_	11	288	7	96	96	4
CNSI_	12	96	4	0	96	1
EXTAP	12	288	0
EXTAP	12	288	7
NMTAP	13	0	6
NMTAP	13	0	7
NMTAP	13	96	4
NMTAP	13	96	5
NMHLD	13	192	1	72
NMHLD	13	192	3	72
NMTAP	13	336	0
NMTAP	13	336	1
NMTAP	14	0	0
NMTAP	14	0	1
NMTAP	14	96	2
NMTAP	14	96	3
BRTAP	14	192	4
BRTAP	14	192	6
NMTAP	15	0	6
NMTAP	15	48	6
NMTAP	15	96	7
NMTAP	15	192	1
NMTAP	15	240	1
NMTAP	15	288	0
NMTAP	16	0	6
NMTAP	16	48	6
NMTAP	16	96	7
NMTAP	16	144	7
NMTAP	16	192	5
EXTAP	16	288	3
EXTAP	16	288	4
NMTAP	17	0	4
NMTAP	17	0	5
NMTAP	17	96	6
NMTAP	17	96	7
NMHLD	17	192	0	72
NMHLD	17	192	2	72
NMTAP	17	336	2
NMTAP	17	336	3
NMTAP	18	0	2
NMTAP	18	0	3
NMTAP	18	96	0
NMTAP	18	96	1
NMTAP	18	192	3
NMTAP	18	192	6
NMTAP	19	0	5
NMTAP	19	48	5
NMTAP	19	96	4
NMTAP	19	192	2
NMTAP	19	240	2
NMSTR	19	288	3
NMSI_	19	288	3	96	96	0
CNSI_	20	96	0	0	96	5
NMTAP	20	288	3
NMTAP	20	288	4
NMTAP	21	0	2
NMTAP	21	0	3
NMTAP	21	96	0
NMTAP	21	96	1
NMHLD	21	192	5	72
NMHLD	21	192	7	72
NMTAP	21	336	4
NMTAP	21	336	5
NMTAP	22	0	4
NMTAP	22	0	5
NMTAP	22	96	6
NMTAP	22	96	7
BRTAP	22	192	1
BRTAP	22	192	4
NMTAP	23	0	2
NMTAP	23	48	2
NMTAP	23	96	3
NMTAP	23	192	5
NMTAP	23	240	5
NMTAP	23	288	4
NMTAP	24	0	6
NMTAP	24	48	6
NMTAP	24	96	1
NMTAP	24	144	1
NMTAP	24	192	0
NMTAP	24	192	7
NMSTR	25	0	2
NMSCL	25	0	2	96	96	7
NMSTR	25	192	6
NMSCL	25	192	6	96	96	3
NMSTR	26	0	1
NMSI_	26	0	1	96	96	5
NMTAP	26	192	6
NMTAP	26	288	4
NMTAP	26	288	6
NMHLD	27	0	6	96
NMHLD	27	96	4	96
NMHLD	27	192	3	96
NMHLD	27	288	1	96
NMHLD	28	0	3	96
NMHLD	28	96	4	96
NMTAP	28	192	6
NMTAP	28	288	3
NMTAP	28	288	7
NMSTR	29	0	1
NMSCR	29	0	1	96	96	4
NMSTR	29	192	5
NMSCR	29	192	5	96	96	0
NMSTR	30	0	2
NMSI_	30	0	2	96	96	7
NMTAP	30	192	6
NMTAP	30	288	6
NMTAP	30	288	7
NMHLD	31	0	5	96
NMHLD	31	96	7	96
NMHLD	31	192	0	96
NMHLD	31	288	2	96
NMHLD	32	0	0	96
NMHLD	32	96	7	96
NMTAP	32	192	5
NMTAP	32	288	0
NMTAP	32	288	4
NMSTR	33	0	5
NMSCR	33	0	5	96	96	0
NMSTR	33	192	1
NMSCR	33	192	1	96	96	4
NMSTR	34	0	6
NMSI_	34	0	6	96	96	2
NMTAP	34	192	1
NMTAP	34	288	1
NMTAP	34	288	3
NMHLD	35	0	1	96
NMHLD	35	96	3	96
NMHLD	35	192	4	96
NMHLD	35	288	6	96
NMHLD	36	0	4	96
NMHLD	36	96	3	96
NMTAP	36	192	1
NMTAP	36	288	0
NMTAP	36	288	4
NMSTR	37	0	6
NMSCL	37	0	6	96	96	3
NMSTR	37	192	2
NMSCL	37	192	2	96	96	7
NMSTR	38	0	5
NMSI_	38	0	5	96	96	0
NMTAP	38	192	1
NMTAP	38	288	0
NMTAP	38	288	1
NMTAP	39	0	2
NMTAP	39	0	7
NMTAP	39	96	2
NMTAP	39	96	7
NMTAP	39	192	0
NMTAP	39	192	5
NMTAP	39	288	0
NMTAP	39	288	5
NMTAP	40	0	1
NMTAP	40	0	6
NMTAP	40	96	0
NMTAP	40	96	7
NMTAP	40	144	0
NMTAP	40	144	7
EXTAP	40	288	2
EXTAP	40	288	5
NMSTR	41	0	1
NMSXL	41	0	1	96	384	7
NMHLD	41	0	6	672
EXHLD	42	192	7	864
NMSTR	43	0	6
NMSCL	43	0	6	96	168	3
CNSUR	43	264	3	0	216	0
EXHLD	44	192	0	864
NMSTR	45	0	1
NMSI_	45	0	1	96	120	3
CNSI_	45	216	3	0	168	7
CNSI_	46	0	7	0	96	5
EXHLD	46	192	5	768
NMSTR	47	0	7
NMSI_	47	0	7	96	96	1
CNSI_	47	192	1	0	144	6
CNSI_	47	336	6	0	144	3
BRTAP	48	192	2
NMTAP	49	0	3
NMTAP	49	0	4
NMTAP	49	96	2
NMHLD	49	192	2	288
NMTAP	49	192	3
NMTAP	50	0	3
NMTAP	50	96	3
NMTAP	50	192	1
NMTAP	50	192	4
NMTAP	51	0	3
NMTAP	51	0	4
NMTAP	51	96	5
NMTAP	51	192	4
NMHLD	51	192	5	288
NMTAP	52	0	4
NMTAP	52	96	4
NMTAP	52	192	3
NMTAP	52	192	6
NMHLD	53	0	5	192
NMTTP	53	192	5	E	0	M1
NMTTP	53	288	4	E	0	M1
NMHLD	54	0	2	192
NMTTP	54	192	3	E	0	M1
NMTTP	54	288	4	E	0	M1
NMSTR	55	0	5
NMSUR	55	0	5	96	192	7
NMTAP	56	0	0
NMTAP	56	96	6
BRTAP	56	192	1
BRTAP	56	192	5
NMHLD	57	0	6	48
NMHLD	57	0	7	48
NMHLD	57	96	6	48
NMHLD	57	96	7	48
NMHLD	57	192	0	48
NMHLD	57	192	1	48
NMHLD	57	288	0	48
NMHLD	57	288	1	48
NMHLD	58	0	2	48
NMHLD	58	0	3	48
NMHLD	58	96	0	48
NMHLD	58	96	1	48
NMHLD	58	192	6	48
NMHLD	58	192	7	48
NMHLD	58	288	4	48
NMHLD	58	288	5	48
NMTAP	59	0	6
NMTAP	59	48	6
NMTAP	59	96	0
NMTAP	59	144	0
NMTAP	59	192	7
NMTAP	59	240	7
NMSTR	59	288	1
NMSI_	59	288	1	96	96	3
CNSLR	60	96	3	0	96	0
EXTAP	60	288	0
EXTAP	60	288	7
NMHLD	61	0	0	48
NMHLD	61	0	1	48
NMHLD	61	96	0	48
NMHLD	61	96	1	48
NMHLD	61	192	6	48
NMHLD	61	192	7	48
NMHLD	61	288	6	48
NMHLD	61	288	7	48
NMHLD	62	0	4	48
NMHLD	62	0	5	48
NMHLD	62	96	6	48
NMHLD	62	96	7	48
NMHLD	62	192	0	48
NMHLD	62	192	1	48
NMHLD	62	288	2	48
NMHLD	62	288	3	48
NMTAP	63	0	1
NMTAP	63	48	1
NMTAP	63	96	7
NMTAP	63	144	7
NMTAP	63	192	0
NMTAP	63	240	0
NMTAP	63	288	6
NMHLD	64	0	5	48
NMHLD	64	0	7	48
NMHLD	64	96	5	48
NMHLD	64	96	7	48
NMHLD	64	192	0	48
NMHLD	64	192	2	48
EXTAP	64	288	0
EXTAP	64	288	2
NMTAP	65	0	1
NMTAP	65	48	1
NMTAP	65	96	3
NMTAP	65	144	3
NMTAP	65	192	4
NMTAP	65	240	4
NMTAP	65	288	6
NMTAP	66	0	5
NMTAP	66	48	5
NMTAP	66	96	7
NMTAP	66	144	7
NMTAP	66	192	0
NMTAP	66	240	0
NMTAP	66	288	2
NMTAP	67	0	1
NMTAP	67	48	1
NMTAP	67	96	0
NMTAP	67	192	0
NMTAP	67	192	1
NMSTR	67	288	2
NMSLL	67	288	2	96	192	4
NMSTR	67	288	3
NMSI_	67	288	3	96	96	7
CNSI_	68	96	7	0	96	5
NMTAP	68	288	3
NMTAP	68	288	6
NMTAP	69	0	6
NMTAP	69	48	6
NMTAP	69	96	4
NMTAP	69	144	4
NMTAP	69	192	3
NMTAP	69	240	3
NMTAP	69	288	1
NMTAP	70	0	2
NMTAP	70	48	2
NMTAP	70	96	0
NMTAP	70	144	0
NMTAP	70	192	7
NMTAP	70	240	7
NMTAP	70	288	5
NMTAP	71	0	6
NMTAP	71	48	6
NMTAP	71	96	7
NMTAP	71	192	1
NMTAP	71	240	1
NMTAP	71	288	0
EXTAP	72	0	2
EXTAP	72	0	7
EXTAP	72	96	3
EXTAP	72	96	6
EXTAP	72	144	3
EXTAP	72	144	6
EXTAP	72	192	3
EXTAP	72	192	6
NMTAP	72	288	4
NMTAP	72	288	5
NMSTR	73	0	6
NMSI_	73	0	6	96	48	3
NMSTR	73	0	7
NMSI_	73	0	7	96	48	3
NMSTR	73	192	0
NMSI_	73	192	0	96	48	4
NMSTR	73	192	1
NMSI_	73	192	1	96	48	4
NMSTR	74	0	6
NMSI_	74	0	6	96	48	3
NMSTR	74	0	7
NMSI_	74	0	7	96	48	3
NMTAP	74	192	0
NMTAP	74	192	1
NMTAP	74	288	0
NMTAP	74	288	1
NMTAP	75	0	0
NMTAP	75	0	7
NMTAP	75	96	1
NMTAP	75	96	2
NMTAP	75	192	4
NMTAP	75	192	6
NMTAP	75	288	2
NMTAP	75	288	3
NMTAP	76	0	5
NMTAP	76	0	7
NMTAP	76	96	3
NMTAP	76	96	4
NMTAP	76	192	2
NMTAP	76	192	7
NMTAP	76	288	2
NMTAP	76	288	7
NMSTR	77	0	0
NMSI_	77	0	0	96	48	4
NMSTR	77	0	1
NMSI_	77	0	1	96	48	4
NMSTR	77	192	6
NMSI_	77	192	6	96	48	3
NMSTR	77	192	7
NMSI_	77	192	7	96	48	3
NMSTR	78	0	0
NMSI_	78	0	0	96	48	4
NMSTR	78	0	1
NMSI_	78	0	1	96	48	4
NMTAP	78	192	6
NMTAP	78	192	7
NMTAP	78	288	6
NMTAP	78	288	7
NMTAP	79	0	0
NMTAP	79	0	7
NMTAP	79	96	5
NMTAP	79	96	6
NMTAP	79	192	1
NMTAP	79	192	3
NMTAP	79	288	4
NMTAP	79	288	5
NMTAP	80	0	0
NMTAP	80	0	2
NMTAP	80	96	6
NMTAP	80	96	7
NMTAP	80	192	1
NMTAP	80	192	4
NMTAP	80	288	1
NMTAP	80	288	4
NMSTR	81	0	2
NMSI_	81	0	2	96	48	0
NMSTR	81	0	3
NMSI_	81	0	3	96	48	7
NMSTR	81	192	4
NMSI_	81	192	4	96	48	0
NMSTR	81	192	5
NMSI_	81	192	5	96	48	7
NMSTR	82	0	2
NMSI_	82	0	2	96	48	0
NMSTR	82	0	3
NMSI_	82	0	3	96	48	7
NMTAP	82	192	4
NMTAP	82	192	5
NMTAP	82	288	4
NMTAP	82	288	5
NMTAP	83	0	6
NMTAP	83	0	7
NMTAP	83	96	0
NMTAP	83	96	2
NMTAP	83	192	4
NMTAP	83	192	5
NMTAP	83	288	2
NMTAP	83	288	3
NMTAP	84	0	5
NMTAP	84	0	7
NMTAP	84	96	1
NMTAP	84	96	2
NMTAP	84	192	3
NMTAP	84	192	6
NMTAP	84	288	3
NMTAP	84	288	6
NMSTR	85	0	4
NMSI_	85	0	4	96	48	0
NMSTR	85	0	5
NMSI_	85	0	5	96	48	0
NMSTR	85	192	2
NMSI_	85	192	2	96	48	7
NMSTR	85	192	3
NMSI_	85	192	3	96	48	7
NMSTR	86	0	4
NMSI_	86	0	4	96	48	0
NMSTR	86	0	5
NMSI_	86	0	5	96	48	0
NMTAP	86	192	2
NMTAP	86	192	3
NMTAP	86	288	2
NMTAP	86	288	3
BRTAP	87	0	0
BRSTR	87	0	1
NMSXR	87	0	1	96	384	5
NMTAP	88	288	4
NMTAP	88	288	6
EXTAP	89	0	3
EXSTR	89	0	5
NMSXL	89	0	5	96	432	2

T_REC_TAP	260
T_REC_BRK	12
T_REC_XTP	19
T_REC_BXX	0
T_REC_HLD	73
T_REC_XHO	3
T_REC_BHO	0
T_REC_BXH	0
T_REC_STR	46
T_REC_BST	1
T_REC_XST	1
T_REC_XBS	0
T_REC_TTP	16
T_REC_THO	0
T_REC_SLD	48
T_REC_BSL	0
T_REC_ALL	479
T_NUM_TAP	342
T_NUM_BRK	13
T_NUM_HLD	76
T_NUM_SLD	48
T_NUM_ALL	479
T_JUDGE_TAP	355
T_JUDGE_HLD	216
T_JUDGE_SLD	48
T_JUDGE_ALL	619
TTM_EACHPAIRS	132
TTM_SCR_TAP	171000
TTM_SCR_BRK	33800
TTM_SCR_HLD	76000
TTM_SCR_SLD	72000
TTM_SCR_ALL	352800
TTM_SCR_S	341000
TTM_SCR_SS	351500
TTM_RAT_ACV	10036

