VERSION	0.00.00	1.05.00
FES_MODE	0
BPM_DEF	180.000	180.000	180.000	180.000
MET_DEF	4	4
RESOLUTION	384
CLK_DEF	384
COMPATIBLE_CODE	MA2

BPM	0	0	180.000
MET	0	0	4	4

BXTAP	9	0	2
NMTAP	9	96	2
NMTAP	9	192	2
NMTAP	9	192	3
NMTAP	10	0	1
NMTAP	10	96	1
NMTAP	10	192	0
NMTAP	10	192	1
NMTAP	11	0	7
NMTAP	11	96	7
NMTAP	11	192	6
NMTAP	11	192	7
NMTAP	12	0	4
NMTAP	12	0	5
NMTAP	12	96	4
NMTAP	12	96	5
NMTAP	12	192	4
NMTAP	12	192	5
NMTAP	13	0	5
NMTAP	13	96	5
NMTAP	13	192	4
NMTAP	13	192	5
NMTAP	14	0	6
NMTAP	14	96	6
NMTAP	14	192	6
NMTAP	14	192	7
NMTAP	15	0	0
NMTAP	15	96	0
NMTAP	15	192	0
NMTAP	15	192	1
NMTAP	16	0	2
NMTAP	16	0	3
NMTAP	16	96	2
NMTAP	16	96	3
BXTAP	16	192	2
BXTAP	16	192	3
NMTAP	17	0	2
NMTAP	17	96	2
NMTAP	17	192	1
NMTAP	17	288	1
NMTAP	18	0	0
NMTAP	18	96	0
NMTAP	18	192	6
NMTAP	18	192	7
NMTAP	19	0	5
NMTAP	19	96	5
NMTAP	19	192	6
NMTAP	19	288	6
NMTAP	20	0	7
NMTAP	20	96	7
NMTAP	20	192	0
NMTAP	20	192	1
NMTAP	21	0	1
NMTAP	21	96	1
NMTAP	21	192	2
NMTAP	21	288	2
NMTAP	22	0	3
NMTAP	22	96	3
NMTAP	22	192	4
NMTAP	22	192	5
NMTAP	23	0	6
NMTAP	23	96	6
NMTAP	23	192	5
NMTAP	23	288	5
NMTAP	24	0	4
NMTAP	24	96	4
BRTAP	24	192	2
BRTAP	24	192	3
NMTTP	25	0	1	B	0	L1
NMTTP	25	96	2	B	0	L1
NMTTP	25	192	3	B	0	L1
NMTTP	26	0	6	B	0	L1
NMTTP	26	96	5	B	0	L1
NMTTP	26	192	4	B	0	L1
NMTTP	27	0	1	B	0	L1
NMTTP	27	96	2	B	0	L1
NMTTP	27	192	3	B	0	L1
NMTTP	27	288	4	B	0	L1
NMTTP	28	0	5	B	0	L1
NMTTP	28	96	6	B	0	L1
NMTTP	28	192	0	C	0	L1
NMTTP	29	0	7	B	0	L1
NMTTP	29	96	6	B	0	L1
NMTTP	29	192	4	B	0	L1
NMTTP	29	192	5	B	0	L1
NMTTP	30	0	0	B	0	L1
NMTTP	30	96	1	B	0	L1
NMTTP	30	192	2	B	0	L1
NMTTP	30	192	3	B	0	L1
NMTTP	31	0	6	B	0	L1
NMTTP	31	96	5	B	0	L1
NMTTP	31	192	4	B	0	L1
NMTTP	31	288	3	B	0	L1
NMTTP	32	0	2	B	0	L1
NMTTP	32	96	1	B	0	L1
NMTTP	32	192	0	C	0	L1
NMTAP	33	0	7
NMTAP	33	96	7
NMTAP	33	192	6
NMTAP	33	288	6
NMTAP	34	0	5
NMTAP	34	96	5
NMTAP	34	192	3
NMTAP	34	192	4
NMTAP	35	0	3
NMTAP	35	96	3
NMTAP	35	192	2
NMTAP	35	288	2
NMTAP	36	0	1
NMTAP	36	96	1
NMTAP	36	192	0
NMTAP	36	192	7
NMTAP	37	0	0
NMTAP	37	96	0
NMTAP	37	192	1
NMTAP	37	288	1
NMTAP	38	0	2
NMTAP	38	96	2
NMTAP	38	192	3
NMTAP	38	192	4
NMTAP	39	0	4
NMTAP	39	96	4
NMTAP	39	192	5
NMTAP	39	288	5
NMTAP	40	0	6
NMTAP	40	96	6
NMTAP	40	192	0
NMTAP	40	192	7
NMSTR	41	0	1
NMSI_	41	0	1	96	288	4
NMTAP	42	192	5
NMSTR	43	0	6
NMSI_	43	0	6	96	288	3
NMTAP	44	192	2
NMSTR	45	0	1
NMSI_	45	0	1	96	288	5
NMTAP	46	192	6
NMSTR	47	0	7
NMSI_	47	0	7	96	288	3
NMTAP	48	192	2
NMTAP	48	192	3
NMHLD	49	0	2	192
NMHLD	49	192	3	192
NMHLD	50	0	4	192
NMTAP	50	192	5
NMHLD	51	0	5	192
NMHLD	51	192	4	192
NMHLD	52	0	3	192
NMTAP	52	192	2
NMHLD	53	0	1	192
NMHLD	53	192	2	192
NMHLD	54	0	3	192
NMTAP	54	192	4
NMHLD	55	0	6	192
NMHLD	55	192	5	192
NMHLD	56	0	4	192
NMTAP	56	192	3
NMTAP	57	0	5
NMTAP	57	96	5
NMTAP	57	192	6
NMTAP	57	192	7
NMTAP	57	288	6
NMTAP	57	288	7
NMTAP	58	0	0
NMTAP	58	96	0
NMTAP	58	192	0
NMTAP	58	192	1
NMTAP	59	0	2
NMTAP	59	96	2
NMTAP	59	192	0
NMTAP	59	192	1
NMTAP	59	288	0
NMTAP	59	288	1
NMTAP	60	0	7
NMTAP	60	96	7
NMTAP	60	192	6
NMTAP	60	192	7
NMTAP	61	0	6
NMTAP	61	96	6
NMTAP	61	192	4
NMTAP	61	192	5
NMTAP	61	288	4
NMTAP	61	288	5
NMTAP	62	0	3
NMTAP	62	96	3
NMTAP	62	192	2
NMTAP	62	192	3
NMTAP	63	0	1
NMTAP	63	96	1
NMTAP	63	192	2
NMTAP	63	192	3
NMTAP	63	288	2
NMTAP	63	288	3
NMTAP	64	0	4
NMTAP	64	96	4
NMTAP	64	192	4
NMTAP	64	192	5
NMTAP	65	0	6
NMTAP	65	96	6
NMTAP	65	192	6
NMTAP	65	288	6
NMTAP	65	288	7
NMTAP	66	0	5
NMTAP	66	96	5
NMTAP	66	192	5
NMTAP	66	288	4
NMTAP	66	288	5
NMTAP	67	0	3
NMTAP	67	96	3
NMTAP	67	192	3
NMTAP	67	288	2
NMTAP	67	288	3
NMTAP	68	0	0
NMTAP	68	0	1
NMTAP	68	96	0
NMTAP	68	96	1
NMTAP	68	192	0
NMTAP	68	192	1
NMTAP	69	0	1
NMTAP	69	96	1
NMTAP	69	192	1
NMTAP	69	288	0
NMTAP	69	288	1
NMTAP	70	0	2
NMTAP	70	96	2
NMTAP	70	192	2
NMTAP	70	288	2
NMTAP	70	288	3
NMTAP	71	0	4
NMTAP	71	96	4
NMTAP	71	192	4
NMTAP	71	288	4
NMTAP	71	288	5
NMTAP	72	0	6
NMTAP	72	0	7
NMTAP	72	96	6
NMTAP	72	96	7
BRTAP	72	192	6
BRTAP	72	192	7
NMTAP	73	0	7
NMTAP	73	96	6
NMTAP	73	192	5
NMTAP	73	288	4
NMTAP	74	0	3
NMTAP	74	96	2
NMTAP	74	192	0
NMTAP	74	192	1
NMTAP	75	0	0
NMTAP	75	96	1
NMTAP	75	192	2
NMTAP	75	288	3
NMTAP	76	0	4
NMTAP	76	96	5
NMTAP	76	192	6
NMTAP	76	192	7
NMTAP	77	0	7
NMTAP	77	96	6
NMTAP	77	192	5
NMTAP	77	288	4
NMTAP	78	0	3
NMTAP	78	96	2
NMTAP	78	192	1
NMTAP	78	288	0
NMTAP	79	0	7
NMTAP	79	96	6
NMTAP	79	192	5
NMTAP	79	288	4
NMTAP	80	0	3
NMTAP	80	0	4
NMTAP	80	96	3
NMTAP	80	96	4
NMTAP	80	192	2
NMTAP	80	192	5
NMTAP	81	0	4
NMTAP	81	96	5
NMTAP	81	192	6
NMTAP	81	288	7
NMTAP	82	0	0
NMTAP	82	96	1
NMTAP	82	192	2
NMTAP	82	192	3
NMTAP	83	0	3
NMTAP	83	96	2
NMTAP	83	192	1
NMTAP	83	288	0
NMTAP	84	0	7
NMTAP	84	96	6
NMTAP	84	192	4
NMTAP	84	192	5
NMTAP	85	0	4
NMTAP	85	96	5
NMTAP	85	192	6
NMTAP	85	288	7
NMTAP	86	0	0
NMTAP	86	96	1
NMTAP	86	192	2
NMTAP	86	288	3
NMTAP	87	0	4
NMTAP	87	96	5
NMTAP	87	192	6
NMTAP	87	288	7
NMTAP	88	0	0
NMTAP	88	0	7
NMTAP	88	96	0
NMTAP	88	96	7
NMTAP	88	192	1
NMTAP	88	192	6
NMSTR	89	0	0
NMSXL	89	0	0	96	480	3
NMSTR	89	0	7
NMSXR	89	0	7	96	480	4

T_REC_TAP	252
T_REC_BRK	4
T_REC_XTP	0
T_REC_BXX	3
T_REC_HLD	12
T_REC_XHO	0
T_REC_BHO	0
T_REC_BXH	0
T_REC_STR	6
T_REC_BST	0
T_REC_XST	0
T_REC_XBS	0
T_REC_TTP	28
T_REC_THO	0
T_REC_SLD	6
T_REC_BSL	0
T_REC_ALL	311
T_NUM_TAP	286
T_NUM_BRK	7
T_NUM_HLD	12
T_NUM_SLD	6
T_NUM_ALL	311
T_JUDGE_TAP	293
T_JUDGE_HLD	48
T_JUDGE_SLD	6
T_JUDGE_ALL	347
TTM_EACHPAIRS	56
TTM_SCR_TAP	143000
TTM_SCR_BRK	18200
TTM_SCR_HLD	12000
TTM_SCR_SLD	9000
TTM_SCR_ALL	182200
TTM_SCR_S	176100
TTM_SCR_SS	181500
TTM_RAT_ACV	10038

