VERSION	0.00.00	1.05.00
FES_MODE	0
BPM_DEF	180.000	180.000	180.000	180.000
MET_DEF	4	4
RESOLUTION	384
CLK_DEF	384
COMPATIBLE_CODE	MA2

BPM	0	0	180.000
MET	0	0	4	4

NMTAP	1	0	0
NMTAP	2	0	0
NMTAP	3	0	0
NMTAP	3	192	0
NMTAP	4	0	0
NMTAP	5	0	7
NMTAP	6	0	7
NMTAP	7	0	7
NMTAP	7	192	7
NMTAP	8	0	0
NMTAP	8	0	7
BXTAP	9	0	7
NMTAP	9	96	7
NMTAP	9	192	7
NMTAP	10	0	6
NMTAP	10	192	6
NMTAP	11	0	5
NMTAP	11	192	5
NMTAP	12	0	3
NMTAP	12	0	4
NMTAP	13	0	3
NMTAP	13	96	3
NMTAP	13	192	3
NMTAP	14	0	2
NMTAP	14	192	2
NMTAP	15	0	1
NMTAP	15	192	1
NMTAP	16	0	0
NMTAP	16	0	7
NMTAP	17	0	0
NMTAP	17	96	0
NMTAP	17	192	0
NMTAP	18	0	1
NMTAP	18	192	1
NMTAP	19	0	2
NMTAP	19	192	2
NMTAP	20	0	3
NMTAP	20	0	4
NMTAP	21	0	4
NMTAP	21	96	4
NMTAP	21	192	4
NMTAP	22	0	5
NMTAP	22	192	5
NMTAP	23	0	6
NMTAP	23	192	6
BRTAP	24	0	0
BRTAP	24	0	7
NMSTR	25	0	7
NMSI_	25	0	7	96	288	3
NMSTR	27	0	0
NMSI_	27	0	0	96	288	4
NMSTR	29	0	6
NMSI_	29	0	6	96	288	2
NMSTR	31	0	1
NMSI_	31	0	1	96	288	5
NMTAP	33	0	7
NMTAP	33	192	7
NMTAP	34	0	6
NMTAP	34	0	7
NMTAP	34	192	6
NMTAP	34	192	7
NMTAP	35	0	5
NMTAP	35	192	5
NMTAP	36	0	3
NMTAP	36	0	4
NMTAP	36	192	3
NMTAP	36	192	4
NMTAP	37	0	3
NMTAP	37	192	3
NMTAP	38	0	2
NMTAP	38	0	3
NMTAP	38	192	2
NMTAP	38	192	3
NMTAP	39	0	1
NMTAP	39	192	1
BRTAP	40	0	0
BRTAP	40	0	1
NMHLD	41	0	0	384
NMHLD	41	0	1	384
NMHLD	43	0	2	384
NMHLD	43	0	3	384
NMHLD	45	0	4	384
NMHLD	45	0	5	384
NMHLD	47	0	6	384
NMHLD	47	0	7	384
NMTTP	49	0	7	B	0	L1
NMTTP	50	0	0	B	0	L1
NMTTP	51	0	6	B	0	L1
NMTTP	52	0	1	B	0	L1
NMTTP	53	0	5	B	0	L1
NMTTP	54	0	2	B	0	L1
NMTTP	55	0	4	B	0	L1
NMTTP	56	0	0	C	1	L1
BRTAP	57	0	0
NMTAP	57	96	0
NMTAP	57	192	0
NMTAP	58	0	1
NMTAP	58	96	1
NMTAP	58	192	1
NMTAP	59	0	2
NMTAP	59	96	2
NMTAP	59	192	2
NMTAP	60	0	2
NMTAP	60	0	3
NMTAP	60	192	2
NMTAP	60	192	3
NMTAP	61	0	4
NMTAP	61	96	4
NMTAP	61	192	4
NMTAP	62	0	5
NMTAP	62	96	5
NMTAP	62	192	5
NMTAP	63	0	6
NMTAP	63	96	6
NMTAP	63	192	6
NMTAP	64	0	6
NMTAP	64	0	7
NMTAP	64	192	6
NMTAP	64	192	7
NMTAP	65	0	7
NMTAP	65	96	7
NMTAP	65	192	7
NMTAP	66	0	6
NMTAP	66	96	6
NMTAP	66	192	6
NMTAP	67	0	5
NMTAP	67	96	5
NMTAP	67	192	5
NMTAP	68	0	4
NMTAP	68	96	4
NMTAP	68	192	3
NMTAP	68	192	4
NMTAP	69	0	3
NMTAP	69	96	3
NMTAP	69	192	3
NMTAP	70	0	2
NMTAP	70	96	2
NMTAP	70	192	2
NMTAP	71	0	1
NMTAP	71	96	1
NMTAP	71	192	1
NMTAP	72	0	0
NMTAP	72	0	7
BRTAP	73	0	0
NMTAP	73	96	0
NMTAP	73	192	0
NMTAP	73	288	0
NMTAP	74	0	1
NMTAP	74	96	1
NMTAP	74	192	0
NMTAP	74	192	1
NMTAP	75	0	2
NMTAP	75	96	2
NMTAP	75	192	2
NMTAP	75	288	2
NMTAP	76	0	3
NMTAP	76	96	3
NMTAP	76	192	3
NMTAP	76	192	4
NMTAP	77	0	4
NMTAP	77	96	4
NMTAP	77	192	4
NMTAP	77	288	4
NMTAP	78	0	5
NMTAP	78	96	5
NMTAP	78	192	4
NMTAP	78	192	5
NMTAP	79	0	6
NMTAP	79	96	6
NMTAP	79	192	6
NMTAP	79	288	6
NMTAP	80	0	7
NMTAP	80	96	7
NMTAP	80	192	0
NMTAP	80	192	7
NMTAP	81	0	7
NMTAP	81	96	7
NMTAP	81	192	6
NMTAP	81	288	6
NMTAP	82	0	5
NMTAP	82	96	5
NMTAP	82	192	4
NMTAP	82	192	5
NMTAP	83	0	3
NMTAP	83	96	3
NMTAP	83	192	2
NMTAP	83	288	2
NMTAP	84	0	1
NMTAP	84	96	1
NMTAP	84	192	0
NMTAP	84	192	1
NMTAP	85	0	7
NMTAP	85	96	7
NMTAP	85	192	7
NMTAP	85	288	7
NMTAP	86	0	0
NMTAP	86	96	0
NMTAP	86	192	0
NMTAP	86	192	7
BXTAP	87	0	1
BXTAP	87	0	6
NMTTP	89	0	0	B	0	L1
NMTTP	89	0	7	B	0	L1
NMTHO	90	0	0	144	C	0	L1

T_REC_TAP	168
T_REC_BRK	6
T_REC_XTP	0
T_REC_BXX	3
T_REC_HLD	8
T_REC_XHO	0
T_REC_BHO	0
T_REC_BXH	0
T_REC_STR	4
T_REC_BST	0
T_REC_XST	0
T_REC_XBS	0
T_REC_TTP	10
T_REC_THO	1
T_REC_SLD	4
T_REC_BSL	0
T_REC_ALL	204
T_NUM_TAP	182
T_NUM_BRK	9
T_NUM_HLD	9
T_NUM_SLD	4
T_NUM_ALL	204
T_JUDGE_TAP	191
T_JUDGE_HLD	67
T_JUDGE_SLD	4
T_JUDGE_ALL	262
TTM_EACHPAIRS	30
TTM_SCR_TAP	91000
TTM_SCR_BRK	23400
TTM_SCR_HLD	9000
TTM_SCR_SLD	6000
TTM_SCR_ALL	129400
TTM_SCR_S	124650
TTM_SCR_SS	128500
TTM_RAT_ACV	10070

