VERSION	0.00.00	1.05.00
FES_MODE	0
BPM_DEF	185.000	185.000	185.000	185.000
MET_DEF	4	4
RESOLUTION	384
CLK_DEF	384
COMPATIBLE_CODE	MA2

BPM	0	0	185.000
MET	0	0	4	4

BXHLD	1	0	2	96
BXSTR	1	0	3
NMSI_	1	0	3	96	288	6
NMTTP	1	192	1	E	0	M1
NMTTP	1	288	2	E	0	M1
NMTTP	2	0	3	B	0	M1
NMTTP	2	0	3	E	0	M1
CNSI_	2	0	6	0	384	4
NMTTP	2	192	4	E	0	M1
NMTTP	2	288	3	E	0	M1
NMTTP	3	0	1	B	0	M1
NMTTP	3	0	2	E	0	M1
CNSI_	3	0	4	0	384	0
NMTTP	3	192	2	B	0	M1
NMTTP	3	288	4	B	0	M1
NMHLD	4	0	3	192
NMHLD	4	192	0	192
NMSTR	5	0	4
BRSI_	5	0	4	96	288	1
NMTTP	5	192	7	E	0	M1
NMTTP	5	288	6	E	0	M1
CNSI_	6	0	1	0	384	3
NMTTP	6	0	4	B	0	M1
NMTTP	6	0	5	E	0	M1
NMTTP	6	192	4	E	0	M1
NMTTP	6	288	5	E	0	M1
CNSI_	7	0	3	0	384	7
NMTTP	7	0	6	B	0	M1
NMTTP	7	0	6	E	0	M1
NMTTP	7	192	5	B	0	M1
NMTTP	7	288	3	B	0	M1
NMTHO	8	0	0	192	C	0	M1
EXTAP	8	192	0
BXSTR	9	0	0
NMSI_	9	0	0	96	288	3
BXSTR	9	1	7
BRSI_	9	1	7	96	287	4
CNSI_	10	0	3	0	384	1
CNSI_	10	0	4	0	384	0
CNSI_	11	0	0	0	384	5
CNSI_	11	0	1	0	384	4
NMTTP	12	192	0	C	0	M1
NMTTP	12	192	5	E	0	M1
NMTTP	12	192	5	D	0	M1
NMHLD	13	0	6	192
NMHLD	13	192	4	192
NMTAP	14	0	3
NMTAP	14	96	3
NMTAP	14	192	2
NMTAP	14	288	0
NMTAP	14	288	1
NMTAP	15	0	1
NMTAP	15	48	1
NMTAP	15	96	7
NMTAP	15	144	7
NMTAP	15	192	0
NMTAP	15	240	0
NMTAP	15	288	6
NMTAP	15	336	6
NMTAP	16	0	1
NMTAP	16	24	7
NMTAP	16	48	1
NMTAP	16	72	7
NMTAP	16	96	2
NMTAP	16	120	6
NMTAP	16	144	2
NMTAP	16	168	6
NMTAP	16	192	3
NMTAP	16	216	5
NMTAP	16	240	3
NMTAP	16	264	5
NMSTR	16	288	4
NMSI_	16	288	4	96	48	6
NMSI_	16	288	4	96	48	7
NMTTP	17	0	4	A	1	M1
BXSTR	17	96	0
BRSI_	17	96	0	96	48	2
BRSI_	17	96	0	96	48	3
NMTTP	17	192	0	A	1	M1
BXTAP	17	288	7
NMHLD	18	0	4	48
NMHLD	18	0	6	48
NMHLD	18	96	1	48
NMHLD	18	96	3	48
NMSTR	18	192	3
NMSI_	18	192	3	96	48	0
NMSTR	18	192	4
NMSI_	18	192	4	96	48	7
NMTTP	18	288	3	A	0	M1
NMTTP	18	288	4	A	0	M1
NMTTP	18	288	4	D	1	M1
BXHLD	19	0	1	576
BXTAP	19	0	6
NMTAP	20	0	0
NMTAP	20	48	0
NMTAP	20	96	0
NMTAP	20	144	0
NMSTR	20	192	0
NMSI_	20	192	0	96	48	3
EXTAP	20	240	7
EXTAP	20	264	1
EXTAP	20	288	0
NMHLD	21	0	2	72
BRTAP	21	0	4
NMTAP	21	72	3
NMSTR	21	96	1
NMSCL	21	96	1	96	48	6
NMTAP	21	144	4
NMHLD	21	192	5	96
NMTAP	21	288	4
NMTAP	21	336	5
NMTAP	22	0	0
NMHLD	22	0	6	72
NMTAP	22	72	7
NMTAP	22	96	5
NMTAP	22	144	0
NMTAP	22	144	6
NMSTR	22	192	1
NMSI_	22	192	1	96	48	4
NMTAP	22	192	7
NMTAP	22	240	2
NMTAP	22	288	1
NMTAP	22	288	3
BRTAP	23	0	3
NMHLD	23	0	5	72
NMTAP	23	72	4
NMSTR	23	96	6
NMSI_	23	96	6	96	48	3
NMTAP	23	144	2
NMHLD	23	192	2	96
NMTAP	23	288	0
NMTAP	23	336	7
NMTAP	24	0	0
NMTAP	24	0	6
NMTAP	24	48	0
NMTAP	24	48	6
NMTAP	24	72	5
NMTAP	24	96	4
NMTAP	24	120	3
NMTAP	24	144	2
NMTAP	24	168	1
EXTAP	24	192	0
EXTAP	24	240	0
NMTAP	24	288	1
NMTAP	24	288	7
BRTAP	25	0	3
NMHLD	25	0	5	72
NMTAP	25	72	4
NMSTR	25	96	6
NMSCR	25	96	6	96	48	1
NMTAP	25	144	2
NMHLD	25	192	2	96
NMTAP	25	288	3
NMTAP	25	336	2
NMTAP	26	0	1
NMSTR	26	0	3
NMSI_	26	0	3	96	48	7
NMTAP	26	72	2
NMTAP	26	96	3
NMTAP	26	144	0
NMSTR	26	192	4
NMSI_	26	192	4	96	48	1
NMTAP	26	192	6
NMTAP	26	240	5
NMTAP	26	288	4
NMTAP	26	288	6
NMHLD	27	0	0	72
BRTAP	27	0	4
NMTAP	27	72	3
NMSTR	27	96	1
NMSCL	27	96	1	96	48	6
NMTAP	27	144	5
NMHLD	27	192	5	96
NMTAP	27	288	4
NMTAP	27	336	3
NMTAP	27	336	6
NMTAP	28	0	2
NMTAP	28	0	7
NMTAP	28	48	1
NMTAP	28	72	0
NMTAP	28	120	6
NMTAP	28	144	7
NMTAP	28	192	0
NMTAP	28	192	5
NMTAP	28	240	1
NMTAP	28	240	6
NMHLD	28	288	2	96
NMSTR	28	288	7
BRSI_	28	288	7	96	48	3
BRTAP	29	0	7
NMTAP	29	72	1
NMSTR	29	96	1
NMSCL	29	96	1	96	48	6
NMTAP	29	144	3
NMTAP	29	192	1
NMTAP	29	192	4
NMTAP	29	288	4
NMTAP	29	288	5
NMTAP	29	336	3
NMTAP	29	336	6
NMTAP	30	0	2
NMSTR	30	0	7
NMSI_	30	0	7	96	48	2
NMTAP	30	72	3
NMTAP	30	96	7
EXTAP	30	144	1
NMSTR	30	192	3
NMSI_	30	192	3	96	48	6
NMTAP	30	240	0
NMTAP	30	288	1
NMTAP	30	288	3
NMHLD	31	0	3	72
EXTAP	31	0	7
NMTAP	31	72	6
NMSTR	31	96	6
NMSCR	31	96	6	96	48	1
NMTAP	31	144	4
NMTAP	31	192	3
NMTAP	31	192	6
EXTAP	31	288	2
EXTAP	31	288	3
NMTAP	31	336	1
NMTAP	31	336	4
NMTAP	32	0	0
NMTAP	32	0	5
NMTAP	32	48	6
NMTAP	32	72	7
NMTAP	32	120	7
NMTAP	32	144	6
NMTAP	32	168	0
NMSTR	32	192	5
NMSI_	32	192	5	96	48	0
NMSTR	32	240	1
NMSI_	32	240	1	96	48	4
NMTAP	32	288	5
NMTAP	32	336	1
BXHLD	33	0	7	96
NMTTP	33	96	4	B	0	M1
NMTTP	33	96	4	A	0	M1
NMTTP	33	96	5	B	0	M1
NMTTP	33	96	5	E	1	M1
NMTTP	33	96	5	A	0	M1
NMTTP	33	96	5	D	0	M1
BXHLD	33	192	1	96
NMTTP	33	288	2	B	0	M1
NMTTP	33	288	2	A	0	M1
NMTTP	33	288	3	B	0	M1
NMTTP	33	288	3	E	1	M1
NMTTP	33	288	3	A	0	M1
NMTTP	33	288	3	D	0	M1
BXTAP	34	0	0
BXHLD	34	0	5	96
NMTTP	34	96	6	B	0	M1
NMTTP	34	96	6	E	0	M1
NMTTP	34	96	6	A	0	M1
NMTTP	34	96	6	D	0	M1
NMTTP	34	96	7	E	1	M1
NMTTP	34	96	7	D	0	M1
BXHLD	34	192	2	96
BXTAP	34	192	7
NMTTP	34	288	1	B	0	M1
NMTTP	34	288	1	E	1	M1
NMTTP	34	288	1	A	0	M1
NMTTP	34	288	1	D	0	M1
NMTTP	34	288	2	E	0	M1
NMTTP	34	288	2	D	0	M1
EXTAP	35	0	7
NMTAP	35	48	0
NMTAP	35	48	6
EXTAP	35	96	5
NMTAP	35	144	4
NMTAP	35	144	6
EXTAP	35	192	2
NMTAP	35	240	1
NMTAP	35	240	3
NMSTR	35	288	0
NMSCR	35	288	0	96	48	3
NMSTR	35	288	4
NMSCR	35	288	4	96	48	7
NMTAP	35	336	0
NMTAP	35	336	4
BXSTR	36	0	0
NMSLL	36	0	0	96	96	3
BXSTR	36	0	4
NMSLL	36	0	4	96	96	7
BRTAP	36	288	1
BRTAP	36	288	5
BRHLD	37	0	3	96
BRTAP	37	0	7
NMTAP	37	96	0
NMTAP	37	120	7
NMTAP	37	144	6
NMTAP	37	168	5
NMTAP	37	192	1
NMHLD	37	192	4	48
NMTAP	37	240	1
NMTAP	37	288	1
NMHLD	37	288	4	48
NMTAP	37	336	1
NMTAP	38	0	1
NMHLD	38	0	3	48
NMTAP	38	48	1
NMTAP	38	96	1
NMHLD	38	96	2	48
NMTAP	38	144	1
NMHLD	38	192	0	48
NMTAP	38	192	1
NMTAP	38	240	1
NMTAP	38	288	1
NMHLD	38	288	7	48
NMTAP	38	336	1
NMHLD	39	0	0	48
NMTAP	39	0	1
NMTAP	39	48	1
NMTAP	39	96	1
NMHLD	39	96	2	48
NMTAP	39	144	1
NMTAP	39	192	0
NMTAP	39	192	7
NMTAP	39	240	6
NMTAP	39	288	0
NMTAP	39	288	5
NMTAP	39	336	1
NMTAP	40	0	2
NMTAP	40	0	4
NMTAP	40	48	5
NMTAP	40	96	1
NMTAP	40	96	3
NMTAP	40	144	0
NMTAP	40	192	2
NMSTR	40	192	6
NMSI_	40	192	6	96	48	2
NMTAP	40	240	4
NMTAP	40	288	2
NMTAP	40	288	6
BXHLD	41	0	1	96
BXTAP	41	0	3
BXHLD	41	96	4	96
NMTAP	41	192	7
NMTAP	41	216	0
NMTAP	41	240	1
NMTAP	41	264	2
NMHLD	41	288	3	96
NMSTR	41	288	6
NMSI_	41	288	6	96	96	1
CNSI_	42	96	1	0	96	4
EXTAP	42	96	2
EXTAP	42	192	1
CNSI_	42	192	4	0	96	7
EXSTR	42	288	0
NMSI_	42	288	0	96	48	2
CNSI_	42	288	7	0	144	3
BRTAP	43	0	0
EXTAP	43	96	1
EXTAP	43	96	4
NMTAP	43	192	0
NMTAP	43	192	7
NMTAP	43	240	5
NMSTR	43	264	4
NMSCR	43	264	4	96	120	1
NMTAP	43	312	2
NMTAP	43	336	3
NMSTR	44	0	1
NMSUL	44	0	1	96	96	3
NMSUL	44	0	1	96	96	4
NMTTP	44	192	3	A	0	M1
NMTTP	44	192	4	A	0	M1
NMTTP	44	192	4	D	1	M1
NMSTR	45	0	1
NMSCR	45	0	1	96	48	3
NMTAP	45	48	0
NMTAP	45	96	1
NMSTR	45	144	0
NMSCL	45	144	0	96	48	6
NMTAP	45	192	1
NMTAP	45	240	0
NMTAP	45	288	4
NMTAP	45	336	4
NMSTR	46	0	6
NMSCL	46	0	6	96	48	4
NMTAP	46	48	7
NMTAP	46	96	6
NMSTR	46	144	7
NMSCR	46	144	7	96	48	1
NMTAP	46	192	6
NMTAP	46	240	7
NMTAP	46	288	3
NMTAP	46	336	3
NMSTR	47	0	1
NMSCL	47	0	1	96	48	7
NMTAP	47	48	2
NMTAP	47	96	1
NMSTR	47	144	3
NMSCR	47	144	3	96	48	5
NMTAP	47	192	2
NMTAP	47	240	3
NMTAP	47	288	1
NMTAP	47	336	1
NMTAP	48	0	7
NMTAP	48	48	0
NMTAP	48	96	0
NMTAP	48	144	7
NMHLD	48	192	0	96
NMSTR	48	192	6
BRSI_	48	192	6	96	48	3
BRTAP	48	288	6
NMSTR	49	0	2
NMSI_	49	0	2	96	48	7
NMTAP	49	0	7
NMTAP	49	48	6
NMTAP	49	96	5
NMSTR	49	192	2
NMSI_	49	192	2	96	48	7
NMTAP	49	192	6
NMTAP	49	240	5
NMTAP	49	288	4
NMTAP	50	0	0
NMSTR	50	0	5
NMSI_	50	0	5	96	48	0
NMTAP	50	48	1
NMTAP	50	96	2
NMTAP	50	192	1
NMSTR	50	192	5
NMSI_	50	192	5	96	48	0
NMTAP	50	240	2
NMTAP	50	288	3
NMTAP	51	0	3
NMTAP	51	0	7
NMTAP	51	48	3
NMTAP	51	48	7
NMTAP	51	96	2
NMTAP	51	96	6
NMTAP	51	144	2
NMTAP	51	144	6
NMTAP	51	192	1
NMTAP	51	192	5
NMTAP	51	240	1
NMTAP	51	240	5
NMTAP	51	288	0
NMTAP	51	288	4
NMTAP	51	336	0
NMTAP	51	336	4
NMTAP	52	0	1
NMTAP	52	0	3
NMTAP	52	48	2
NMTAP	52	96	4
NMTAP	52	96	6
NMTAP	52	144	5
NMTAP	52	192	3
NMTAP	52	192	4
NMTAP	52	240	3
NMTAP	52	240	4
NMTAP	52	256	2
NMTAP	52	256	5
NMTAP	52	272	1
NMTAP	52	272	6
EXSTR	52	288	0
BRSCR	52	288	0	96	48	3
EXSTR	52	288	7
BRSCL	52	288	7	96	48	4
BRSTR	53	0	0
NMSXL	53	0	0	96	288	4
BRTAP	53	0	7
CNSLR	54	0	4	0	384	0
CNSLR	55	0	0	0	384	5
EXHLD	56	192	3	96
EXHLD	56	192	4	96
NMHLD	57	0	1	96
NMTAP	57	0	3
EXTAP	57	96	2
NMTAP	57	192	4
NMHLD	57	192	6	96
EXTAP	57	288	5
NMHLD	58	0	2	96
NMTAP	58	0	3
EXTAP	58	96	1
NMTAP	58	192	5
NMHLD	58	192	6	96
EXSTR	58	288	7
BRSCR	58	288	7	96	288	6
NMTTP	59	0	3	B	0	M1
NMTTP	59	0	4	B	0	M1
NMTTP	59	0	4	E	1	M1
NMTAP	60	0	0
NMTAP	60	0	6
NMTAP	60	48	5
NMTAP	60	96	0
NMTAP	60	96	7
NMTAP	60	144	0
NMTAP	60	144	7
NMTAP	60	192	2
NMTAP	60	240	0
NMTAP	60	240	1
NMTAP	60	288	0
NMSTR	60	288	1
NMSI_	60	288	1	96	48	3
BRTAP	61	0	1
BRTAP	61	0	4
NMTAP	61	96	5
NMTAP	61	120	4
NMTAP	61	144	5
NMTAP	61	168	4
NMTAP	61	192	5
NMTAP	61	216	4
NMTAP	61	240	6
NMTAP	61	288	6
NMTAP	61	312	7
NMTAP	61	360	7
NMTAP	62	0	5
NMTAP	62	48	5
NMTAP	62	72	3
NMTAP	62	96	4
NMTAP	62	120	2
NMTAP	62	168	2
NMTAP	62	192	3
NMTAP	62	240	1
NMTAP	62	240	4
NMTAP	62	288	1
NMTAP	62	288	4
NMTAP	62	336	0
NMTAP	62	336	3
BRTAP	63	0	0
BRTAP	63	0	3
NMTAP	63	48	1
NMTAP	63	72	3
NMTAP	63	96	1
NMTAP	63	120	3
NMTAP	63	144	2
NMTAP	63	168	4
NMTAP	63	192	2
NMTAP	63	216	4
NMHLD	63	240	0	48
NMTAP	63	288	6
NMTAP	63	312	7
NMTAP	63	360	7
NMTAP	64	0	6
NMTAP	64	48	1
NMTAP	64	72	3
NMTAP	64	96	2
NMTAP	64	144	6
NMTAP	64	168	4
NMTAP	64	192	5
NMTAP	64	240	1
NMTAP	64	264	0
NMSTR	64	288	1
NMSI_	64	288	1	96	48	5
NMTAP	64	312	0
NMTAP	64	336	1
NMTAP	64	360	0
BRTAP	65	0	1
NMTAP	65	96	6
NMTAP	65	120	7
NMTAP	65	144	5
NMTAP	65	192	5
NMTAP	65	216	3
NMHLD	65	240	4	48
NMTAP	65	288	2
NMTAP	65	312	3
NMTAP	65	360	3
NMTAP	66	0	2
NMTAP	66	48	2
NMTAP	66	72	3
NMTAP	66	96	1
NMHLD	66	120	2	48
NMTAP	66	168	0
NMTAP	66	192	0
NMTAP	66	240	1
NMTAP	66	240	7
NMTAP	66	288	1
NMTAP	66	288	7
NMTAP	66	336	0
NMTAP	66	336	6
BRTAP	67	0	0
BRTAP	67	0	6
NMTAP	67	48	7
NMTAP	67	72	1
NMTAP	67	96	7
NMTAP	67	120	1
NMHLD	67	144	5	48
NMTAP	67	192	3
NMTAP	67	216	4
NMHLD	67	240	2	48
NMTAP	67	288	3
NMTAP	67	312	2
NMTAP	67	360	1
NMTAP	67	360	4
BRSTR	68	0	1
BRSI_	68	0	1	96	48	4
BRTAP	68	0	4
NMTAP	68	96	6
CNSI_	68	144	4	0	48	6
NMTAP	68	144	7
NMTAP	68	192	0
BRTAP	68	288	1
BRTAP	68	288	7
NMTAP	69	0	0
NMTAP	69	0	5
NMTAP	69	48	0
NMTAP	69	48	5
NMTAP	69	96	6
NMTAP	69	120	7
NMTAP	69	168	0
NMTAP	69	168	5
NMTAP	69	216	0
NMTAP	69	216	5
NMTAP	69	264	1
NMTAP	69	264	6
NMHLD	69	312	7	48
NMTAP	69	360	4
BRTAP	70	0	4
NMTAP	70	96	5
NMTAP	70	120	3
NMHLD	70	168	2	72
NMTAP	70	168	4
NMHLD	70	240	0	72
NMTAP	70	312	1
NMTAP	71	0	2
NMTAP	71	0	7
NMTAP	71	48	3
NMTAP	71	48	6
NMTAP	71	96	5
NMTAP	71	120	4
NMTAP	71	168	3
NMTAP	71	168	6
NMTAP	71	216	2
NMTAP	71	216	5
NMTAP	71	264	1
NMTAP	71	264	4
NMTAP	71	312	0
NMTAP	71	336	3
NMTAP	71	360	0
NMTAP	72	0	3
NMTAP	72	48	1
NMTAP	72	48	2
NMTAP	72	96	0
NMHLD	72	120	0	48
NMTTP	72	168	2	E	0	M1
NMTTP	72	192	3	E	0	M1
NMTTP	72	216	4	E	0	M1
EXTAP	72	264	7
BXTAP	72	288	0
BXTAP	72	288	6
NMTAP	73	0	2
NMTAP	73	0	7
NMTAP	73	48	2
NMTAP	73	48	7
NMTAP	73	96	1
NMTAP	73	120	0
NMTAP	73	168	2
NMTAP	73	168	7
NMTAP	73	216	2
NMTAP	73	216	7
NMTAP	73	264	1
NMTAP	73	264	6
NMHLD	73	312	0	48
NMTAP	73	360	3
BRTAP	74	0	3
NMTAP	74	96	2
NMTAP	74	120	4
NMTAP	74	168	3
NMHLD	74	168	5	72
NMHLD	74	240	7	72
NMTAP	74	312	6
BRTAP	75	0	0
BRTAP	75	0	5
NMTAP	75	48	1
NMTAP	75	48	4
NMTAP	75	96	2
NMTAP	75	120	3
NMTAP	75	168	4
NMTAP	75	168	6
NMTAP	75	216	4
NMTAP	75	216	6
NMTAP	75	264	3
NMTAP	75	264	5
NMHLD	75	312	2	48
NMTAP	75	312	4
NMTAP	75	360	3
NMTAP	76	0	2
NMTAP	76	24	4
NMTAP	76	48	3
NMTAP	76	72	5
NMTAP	76	96	2
NMTAP	76	120	6
NMTAP	76	144	1
NMTAP	76	168	7
NMSTR	76	192	0
NMSI_	76	192	0	96	48	4
NMTAP	76	216	6
NMTAP	76	240	1
NMTAP	76	264	5
BRTAP	76	288	0
BXHLD	77	0	3	1152
BXTAP	77	0	6
NMTAP	79	0	5
NMTAP	79	96	5
NMTAP	79	192	5
NMTAP	79	288	5
NMTAP	80	0	4
NMTAP	80	96	4
NMTAP	80	192	3
NMTAP	80	288	3
NMTAP	81	0	2
NMHLD	81	0	4	48
NMHLD	81	96	4	48
NMHLD	81	192	4	48
NMTTP	81	192	6	B	0	M1
NMTTP	81	192	7	B	0	M1
NMTTP	81	192	7	E	0	M1
NMHLD	81	288	4	48
NMHLD	82	0	3	48
NMTAP	82	0	5
NMHLD	82	96	3	48
NMTTP	82	192	0	B	0	M1
NMTTP	82	192	1	B	0	M1
NMTTP	82	192	1	E	0	M1
NMHLD	82	192	3	48
NMHLD	82	288	3	48
NMTAP	83	0	4
NMTAP	83	48	5
NMTAP	83	96	6
NMTAP	83	144	7
NMTAP	83	192	0
NMTAP	83	240	1
NMSTR	83	288	2
NMSXL	83	288	2	96	288	0
NMTAP	83	336	3
NMHLD	84	0	4	288
BXHLD	85	0	0	288
BXTAP	85	0	5
NMTTP	85	192	4	E	0	M1
NMTTP	85	288	2	E	0	M1
NMTAP	86	0	1
NMHLD	86	0	7	288
NMTTP	86	192	4	A	0	M1
NMTTP	86	288	6	D	0	M1
NMTHO	87	0	0	288	C	0	M1
NMTTP	87	0	1	B	0	M1
NMTTP	87	0	2	B	0	M1
NMTTP	87	0	2	E	0	M1
NMTAP	87	192	0
NMTAP	87	288	0
NMHLD	88	0	1	72
NMTAP	88	0	7
NMHLD	88	72	0	72
NMHLD	88	144	7	72
NMTAP	88	216	6
NMSTR	88	288	0
NMSI_	88	288	0	96	96	5
NMTAP	88	288	5
BXHLD	89	0	6	192
CNSI_	89	96	5	0	96	3
CNSI_	89	192	3	0	96	1
NMSTR	89	288	7
NMSI_	89	288	7	96	96	2
BXHLD	90	0	1	192
CNSI_	90	96	2	0	96	4
CNSI_	90	192	4	0	96	6
NMTAP	90	288	0
NMTAP	91	0	1
NMTAP	91	24	7
NMTAP	91	48	1
NMTAP	91	72	7
NMTAP	91	96	2
NMTAP	91	120	6
NMTAP	91	144	3
NMTAP	91	168	5
NMTAP	91	192	2
NMTAP	91	216	4
NMTAP	91	240	3
NMTAP	91	264	5
NMTAP	91	288	1
NMTAP	91	312	7
NMTAP	91	336	0
NMTAP	91	360	6
NMTTP	92	0	0	C	0	M1
NMTTP	92	0	3	B	0	M1
NMTTP	92	0	4	B	0	M1
NMTTP	92	0	4	E	1	M1
NMSTR	92	192	2
BRSCL	92	192	2	96	48	0
NMSTR	92	192	6
BRSCR	92	192	6	96	48	0
NMTAP	92	288	2
NMSTR	92	288	6
NMSI_	92	288	6	96	48	3
BRTAP	93	0	2
EXTAP	93	0	6
NMTAP	93	72	1
NMSTR	93	96	1
NMSI_	93	96	1	96	48	7
NMTAP	93	144	7
NMSTR	93	192	1
NMSCR	93	192	1	96	48	4
NMTAP	93	192	5
NMTAP	93	288	1
NMTAP	93	288	4
NMTAP	93	312	5
NMTAP	93	336	6
NMTAP	93	360	7
NMHLD	94	0	0	72
NMTAP	94	72	4
NMSTR	94	96	7
NMSI_	94	96	7	96	48	2
NMTAP	94	144	2
NMTAP	94	192	3
NMTAP	94	192	7
NMTAP	94	240	4
NMTAP	94	288	3
NMTAP	94	288	7
NMTAP	94	312	6
NMTAP	94	336	5
NMTAP	94	360	4
NMSTR	95	0	0
NMSCR	95	0	0	96	48	3
NMTAP	95	0	3
NMTAP	95	72	5
NMTAP	95	96	0
NMTAP	95	144	6
NMSTR	95	192	0
NMSCL	95	192	0	96	48	5
NMTAP	95	192	4
NMTAP	95	264	2
NMTAP	95	288	0
NMTAP	95	336	1
NMHLD	96	0	0	72
NMTAP	96	0	4
NMTAP	96	72	3
NMSTR	96	96	1
NMSI_	96	96	1	96	48	7
NMTAP	96	144	7
NMSTR	96	192	1
NMSI_	96	192	1	96	48	4
NMSTR	96	192	6
NMSI_	96	192	6	96	48	1
NMTAP	96	240	5
BRTAP	96	288	1
BRSTR	96	288	6
NMSI_	96	288	6	96	48	3
BRTAP	97	0	2
EXTAP	97	0	6
NMTAP	97	72	1
NMSTR	97	96	1
NMSI_	97	96	1	96	48	7
NMTAP	97	144	7
NMSTR	97	192	1
NMSCR	97	192	1	96	48	4
NMTAP	97	192	5
NMTAP	97	288	1
NMTAP	97	288	5
NMTAP	97	312	6
NMTAP	97	336	7
NMTAP	97	360	0
NMHLD	98	0	1	72
EXTAP	98	0	5
NMTAP	98	72	3
NMSTR	98	96	7
NMSI_	98	96	7	96	48	5
NMTAP	98	144	2
NMSTR	98	192	1
NMSI_	98	192	1	96	48	7
NMSTR	98	192	7
NMSI_	98	192	7	96	48	3
NMTAP	98	240	2
BRTAP	98	288	1
BRTAP	98	288	7
BRTAP	99	0	0
NMHLD	99	0	4	72
NMTAP	99	72	1
NMSTR	99	96	3
BRSI_	99	96	3	96	48	7
NMTAP	99	144	2
NMTAP	99	144	4
BRTAP	99	192	3
NMTAP	99	192	5
NMTAP	99	264	4
NMTAP	99	288	4
NMTAP	99	336	0
NMTAP	99	336	6
BRTAP	100	0	0
NMTAP	100	0	6
NMTAP	100	12	1
NMTAP	100	24	2
NMTAP	100	36	3
NMTAP	100	48	4
NMTAP	100	60	5
NMTAP	100	72	6
NMTAP	100	84	7
NMSTR	100	96	0
NMSF_	100	96	0	96	48	4
NMTAP	100	108	1
NMTAP	100	120	2
NMTAP	100	132	3
NMTAP	100	144	4
NMTAP	100	156	5
NMTAP	100	168	6
NMTAP	100	180	7
BXTAP	100	192	0
BRTAP	100	288	2
BRTAP	100	288	6
BRTAP	101	0	1
BRTAP	101	0	4
NMTAP	101	48	0
NMTAP	101	72	7
NMTAP	101	96	1
NMTAP	101	144	0
NMTAP	101	144	4
NMTAP	101	192	2
NMTAP	101	192	6
NMTAP	101	240	0
NMTAP	101	288	3
NMTAP	101	312	7
NMTAP	101	336	1
NMTAP	101	360	5
NMTAP	102	0	2
NMTAP	102	48	2
NMTAP	102	72	3
NMTAP	102	96	0
NMTAP	102	120	6
NMTAP	102	144	7
NMTAP	102	168	4
NMSTR	102	192	0
NMSI_	102	192	0	96	48	3
NMSI_	102	192	0	96	48	5
NMTAP	102	240	1
NMTAP	102	240	7
BRTAP	102	288	0
BRTAP	103	0	2
BRTAP	103	0	6
NMTAP	103	48	7
NMTAP	103	72	3
NMTAP	103	96	5
NMTAP	103	144	2
NMTAP	103	144	6
BRTAP	103	192	0
BRTAP	103	192	4
NMTAP	103	240	3
NMTAP	103	264	1
NMTAP	103	288	5
NMTAP	103	336	3
NMTAP	103	336	7
BRSTR	104	0	1
NMSI_	104	0	1	96	48	7
BRTAP	104	0	5
NMTAP	104	96	4
NMTAP	104	144	5
CNSI_	104	144	7	0	48	3
CNSI_	104	192	3	0	48	5
NMSTR	104	192	6
BRSF_	104	192	6	96	48	2
NMTAP	105	0	0
NMTAP	105	0	4
NMTAP	105	48	0
NMTAP	105	48	4
NMTAP	105	96	1
NMTAP	105	96	5
NMTAP	105	144	2
NMTAP	105	144	6
NMSTR	105	192	3
BRSCL	105	192	3	96	96	7
NMTAP	105	192	7
NMTAP	105	240	4
NMTAP	105	240	6
NMTAP	105	288	7
NMTAP	105	312	6
NMTAP	105	336	5
NMTAP	105	360	4
NMSTR	106	0	3
NMSI_	106	0	3	96	48	7
NMTAP	106	48	3
NMSTR	106	96	1
NMSI_	106	96	1	96	48	4
NMTAP	106	144	1
NMTAP	106	192	0
NMTAP	106	240	0
NMTAP	106	288	0
NMTAP	106	288	3
NMTAP	106	312	2
NMTAP	106	312	7
NMTAP	106	336	1
NMTAP	106	336	6
NMTAP	106	360	0
NMTAP	106	360	5
NMHLD	107	0	4	48
NMHLD	107	0	7	48
NMTAP	107	96	0
NMTAP	107	96	5
NMTAP	107	144	0
NMTAP	107	144	5
NMTAP	107	192	1
NMTAP	107	216	4
NMTAP	107	240	1
NMTAP	107	264	4
NMTAP	107	288	0
NMTAP	107	312	3
NMTAP	107	336	0
NMTAP	107	360	3
BXTAP	108	0	0
NMTAP	108	16	1
NMTAP	108	32	2
NMTAP	108	48	3
NMTAP	108	64	4
NMTAP	108	80	5
BXTAP	108	96	7
NMTAP	108	112	6
NMTAP	108	128	5
NMTAP	108	144	4
NMTAP	108	160	3
NMTAP	108	176	2
BXTAP	108	192	7
NMTAP	108	208	0
NMTAP	108	224	1
NMTAP	108	240	2
NMTAP	108	256	3
NMTAP	108	272	4
BXSTR	108	288	0
BRSI_	108	288	0	96	48	4
NMTAP	108	304	1
NMTAP	108	320	2
NMTAP	108	336	3
NMTAP	108	352	4
NMTAP	108	368	5
BRTAP	109	0	0
BXTAP	109	0	6

T_REC_TAP	597
T_REC_BRK	45
T_REC_XTP	24
T_REC_BXX	14
T_REC_HLD	65
T_REC_XHO	2
T_REC_BHO	1
T_REC_BXH	12
T_REC_STR	65
T_REC_BST	4
T_REC_XST	4
T_REC_XBS	7
T_REC_TTP	78
T_REC_THO	2
T_REC_SLD	68
T_REC_BSL	16
T_REC_ALL	1004
T_NUM_TAP	768
T_NUM_BRK	99
T_NUM_HLD	69
T_NUM_SLD	68
T_NUM_ALL	1004
T_JUDGE_TAP	838
T_JUDGE_HLD	195
T_JUDGE_SLD	84
T_JUDGE_ALL	1117
TTM_EACHPAIRS	185
TTM_SCR_TAP	384000
TTM_SCR_BRK	257400
TTM_SCR_HLD	69000
TTM_SCR_SLD	102000
TTM_SCR_ALL	812400
TTM_SCR_S	778450
TTM_SCR_SS	802500
TTM_RAT_ACV	10123

