VERSION	0.00.00	1.05.00
FES_MODE	0
BPM_DEF	185.000	185.000	185.000	185.000
MET_DEF	4	4
RESOLUTION	384
CLK_DEF	384
COMPATIBLE_CODE	MA2

BPM	0	0	185.000
MET	0	0	4	4

NMHLD	1	0	2	384
NMTAP	1	192	3
NMTAP	1	288	3
NMHLD	2	0	4	384
NMTAP	2	192	3
NMTAP	2	288	3
NMHLD	3	0	2	672
NMTAP	3	192	3
NMTAP	3	288	3
NMHLD	4	0	3	96
NMHLD	4	192	4	96
NMTAP	5	0	3
NMHLD	5	0	5	384
NMTAP	5	192	4
NMTAP	5	288	4
NMHLD	6	0	3	384
NMTAP	6	192	4
NMTAP	6	288	4
NMHLD	7	0	5	384
NMTAP	7	192	4
NMSTR	7	288	4
NMSUL	7	288	4	96	288	3
NMHLD	9	0	2	1344
NMTTP	9	192	3	E	0	M1
NMTTP	9	288	2	E	0	M1
NMTTP	10	0	1	E	0	M1
NMTTP	10	192	0	E	0	M1
NMTTP	10	288	0	C	0	M1
NMTTP	11	0	4	E	0	M1
NMTTP	11	192	5	E	0	M1
NMTTP	11	288	6	E	0	M1
NMTTP	12	0	7	E	0	M1
NMTTP	12	192	3	B	0	M1
NMTTP	12	192	4	B	0	M1
NMHLD	13	0	5	1344
NMTTP	13	192	5	E	0	M1
NMTTP	13	288	6	E	0	M1
NMTTP	14	0	7	E	0	M1
NMTTP	14	192	0	E	0	M1
NMTTP	14	288	0	C	0	M1
NMTTP	15	0	4	E	0	M1
NMTTP	15	192	3	E	0	M1
NMTTP	15	288	2	E	0	M1
NMTTP	16	0	1	E	0	M1
NMTTP	16	192	2	B	0	M1
NMTTP	16	192	3	B	0	M1
BRTAP	17	0	4
BRTAP	17	0	6
BRTAP	17	192	1
BRTAP	17	192	3
BRTAP	18	0	2
BRTAP	18	0	5
BRSTR	18	96	2
NMSI_	18	96	2	96	96	0
BRSTR	18	96	5
NMSI_	18	96	5	96	96	7
NMHLD	19	0	1	96
NMHLD	19	96	3	96
NMTAP	19	192	4
NMTAP	19	288	3
NMTAP	19	288	4
NMSTR	20	0	3
NMSCL	20	0	3	96	96	0
NMSTR	20	0	4
NMSCR	20	0	4	96	96	7
NMTAP	20	288	0
NMTAP	20	288	7
BRTAP	21	0	2
BRTAP	21	0	5
NMTAP	21	96	1
NMTAP	21	144	1
NMTAP	21	192	0
NMTAP	21	288	2
NMTAP	21	288	3
NMTAP	22	0	4
NMTAP	22	0	5
NMTAP	22	96	6
NMTAP	22	144	6
NMTAP	22	192	7
NMTAP	22	288	4
NMTAP	22	288	5
NMTAP	23	0	2
NMTAP	23	0	3
NMTAP	23	96	2
NMTAP	23	96	3
NMTAP	23	192	4
NMTAP	23	192	5
NMTAP	23	288	4
NMTAP	23	288	5
NMTAP	24	0	2
NMTAP	24	0	3
NMTAP	24	96	0
NMTAP	24	96	1
NMTAP	24	192	6
NMTAP	24	192	7
NMTAP	24	288	4
NMTAP	24	288	5
NMTAP	25	0	4
NMTAP	25	0	5
NMTAP	25	96	6
NMTAP	25	144	6
NMTAP	25	192	7
NMTAP	25	288	4
NMTAP	25	288	5
NMTAP	26	0	2
NMTAP	26	0	3
NMTAP	26	96	1
NMTAP	26	144	1
NMTAP	26	192	0
NMTAP	26	288	2
NMTAP	26	288	3
NMTAP	27	0	0
NMTAP	27	0	1
NMTAP	27	96	2
NMTAP	27	96	4
NMTAP	27	192	6
NMTAP	27	192	7
NMTAP	27	288	3
NMTAP	27	288	5
NMTAP	28	0	0
NMSTR	28	0	1
NMSUR	28	0	1	96	96	6
NMTAP	28	288	0
NMTAP	28	288	7
BRHLD	29	0	1	72
NMHLD	29	72	0	72
NMTAP	29	144	2
NMTAP	29	192	2
NMTAP	29	288	2
NMTAP	29	288	3
NMHLD	30	0	5	72
NMHLD	30	72	4	72
NMTAP	30	144	6
NMTAP	30	192	6
NMTAP	30	288	6
NMTAP	30	288	7
NMSTR	31	0	0
NMSCR	31	0	0	96	96	3
NMSTR	31	192	4
NMSCR	31	192	4	96	96	7
NMTAP	32	0	2
NMTAP	32	96	2
NMTAP	32	192	1
NMTAP	32	192	7
NMTAP	32	240	1
NMTAP	32	240	7
NMTAP	32	288	1
NMTAP	32	288	7
NMHLD	33	0	4	96
NMHLD	33	0	6	96
NMTAP	33	192	0
NMTAP	33	192	5
NMTAP	33	288	0
NMTAP	33	288	5
NMHLD	34	0	1	96
NMHLD	34	0	3	96
NMTAP	34	192	2
NMTAP	34	192	7
NMTAP	34	288	2
NMTAP	34	288	7
NMTAP	35	0	1
NMTAP	35	48	1
NMTAP	35	96	5
NMTAP	35	144	5
NMTAP	35	192	3
NMTAP	35	240	3
NMTAP	35	288	7
NMTAP	35	336	7
EXTAP	36	0	0
EXTAP	36	0	6
NMTAP	36	96	2
NMTAP	36	96	3
NMTAP	36	192	1
NMTAP	36	192	7
NMTAP	36	288	4
NMTAP	36	288	5
BRHLD	37	0	3	96
BRHLD	37	0	6	96
NMTAP	37	192	0
NMTAP	37	288	0
NMTAP	38	0	0
NMTAP	38	0	3
NMTAP	38	96	0
NMTAP	38	96	3
NMTAP	38	192	0
NMTAP	38	192	2
NMTAP	38	288	0
NMTAP	38	288	2
NMTAP	39	0	0
NMTAP	39	0	1
NMTAP	39	96	0
NMTAP	39	96	1
NMTAP	39	192	0
NMTAP	39	192	2
NMTAP	39	288	0
NMTAP	39	288	2
NMTAP	40	0	0
NMTAP	40	0	3
NMSTR	40	96	0
NMSI_	40	96	0	96	48	4
NMTAP	40	96	3
NMTAP	40	288	7
NMTAP	41	0	4
NMTAP	41	0	7
NMHLD	41	96	4	96
NMTAP	41	96	7
NMTAP	41	192	7
NMTAP	41	288	5
NMTAP	41	288	7
NMSTR	42	0	6
NMSI_	42	0	6	96	96	3
NMHLD	42	0	7	288
CNSI_	42	192	3	0	96	0
NMTAP	43	0	6
NMTAP	43	96	4
NMTAP	43	96	5
NMTAP	43	192	1
NMTAP	43	288	2
NMTAP	43	288	3
NMTAP	44	0	1
NMTAP	44	0	4
NMTAP	44	96	1
NMTAP	44	96	4
NMTTP	44	192	2	E	0	M1
NMTTP	44	192	2	A	0	M1
NMTTP	44	192	2	D	0	M1
NMTTP	44	192	3	E	0	M1
NMTTP	44	192	3	A	0	M1
NMTTP	44	192	3	D	0	M1
NMTTP	44	192	4	E	1	M1
NMTTP	44	192	4	D	0	M1
NMHLD	45	0	6	96
NMTAP	45	96	4
NMHLD	45	144	4	96
NMTAP	45	240	3
NMHLD	45	288	3	96
NMTAP	46	0	1
NMHLD	46	48	1	96
NMTAP	46	144	3
NMTAP	46	192	3
NMTAP	46	288	3
NMTAP	46	288	4
NMHLD	47	0	5	96
NMTAP	47	96	7
NMHLD	47	144	7	96
NMTAP	47	240	0
NMHLD	47	288	0	96
NMTAP	48	0	2
NMHLD	48	48	2	96
NMTAP	48	144	3
NMTAP	48	192	3
EXTAP	48	288	4
EXTAP	48	288	5
NMTAP	49	0	4
NMSTR	49	0	6
NMSI_	49	0	6	96	48	4
NMSTR	49	192	1
NMSI_	49	192	1	96	48	3
NMTAP	49	192	3
NMSTR	50	0	6
NMSI_	50	0	6	96	48	4
NMTAP	50	0	7
NMTAP	50	192	0
NMSTR	50	192	1
NMSI_	50	192	1	96	48	3
NMTAP	51	0	7
NMTAP	51	48	7
NMTAP	51	96	7
NMTAP	51	144	7
NMTAP	51	192	1
NMTAP	51	240	1
NMTAP	51	288	1
NMTAP	51	336	1
NMSTR	52	0	0
NMSXL	52	0	0	96	192	3
NMSTR	52	0	6
NMSXR	52	0	6	96	192	3
BRTAP	53	0	1
BRTAP	53	0	5
NMTTP	54	192	2	E	0	M1
NMTTP	54	288	3	E	0	M1
NMTTP	55	0	4	E	0	M1
NMTTP	55	192	6	E	0	M1
NMTTP	55	288	5	E	0	M1
NMTTP	56	0	4	E	0	M1
NMTAP	56	192	2
NMTAP	56	192	3
NMHLD	57	0	2	96
NMHLD	57	0	3	96
NMHLD	57	192	3	96
NMHLD	57	192	4	96
NMHLD	58	0	4	96
NMHLD	58	0	5	96
NMHLD	58	192	3	96
NMHLD	58	192	4	96
NMHLD	59	0	2	288
NMHLD	59	0	3	288
NMTAP	60	0	2
NMTAP	60	48	2
NMTAP	60	96	3
NMTAP	60	144	1
NMTAP	60	240	0
NMTAP	60	240	7
NMTAP	60	288	0
NMTAP	60	288	7
NMSTR	61	0	6
NMSI_	61	0	6	96	48	3
NMSTR	61	144	2
NMSI_	61	144	2	96	48	7
NMTAP	61	288	4
NMSTR	62	0	5
NMSI_	62	0	5	96	48	0
NMSTR	62	144	1
NMSI_	62	144	1	96	48	4
NMTAP	62	288	7
NMSTR	63	0	6
NMSI_	63	0	6	96	48	1
NMSTR	63	144	2
NMSI_	63	144	2	96	48	5
NMTAP	63	288	7
NMTAP	64	0	4
NMTAP	64	0	6
NMTAP	64	96	2
NMTAP	64	96	4
NMTAP	64	144	2
NMTAP	64	144	4
NMTAP	64	240	1
NMTAP	64	240	5
BRTAP	64	288	1
BRTAP	64	288	5
NMSTR	65	0	2
NMSCL	65	0	2	96	48	7
NMSTR	65	144	6
NMSI_	65	144	6	96	48	2
NMTAP	65	288	0
NMSTR	66	0	3
NMSCR	66	0	3	96	48	6
NMSTR	66	144	0
NMSI_	66	144	0	96	48	4
NMTAP	66	288	7
NMSTR	67	0	5
NMSI_	67	0	5	96	96	2
NMSTR	67	0	6
NMSI_	67	0	6	96	96	1
NMTAP	67	288	0
NMTAP	67	288	3
NMTTP	68	0	1	A	0	M1
NMTTP	68	0	2	A	0	M1
NMTTP	68	0	2	D	0	M1
NMTTP	68	96	0	A	0	M1
NMTTP	68	96	0	D	0	M1
NMTTP	68	96	7	A	0	M1
NMTTP	68	192	5	A	0	M1
NMTTP	68	192	6	A	0	M1
NMTTP	68	192	6	D	0	M1
NMTTP	68	288	3	A	0	M1
NMTTP	68	288	4	A	0	M1
NMTTP	68	288	4	D	0	M1
NMSTR	69	0	5
NMSI_	69	0	5	96	48	0
NMTAP	69	96	1
NMSTR	69	144	1
NMSI_	69	144	1	96	48	4
NMTAP	69	240	7
NMTAP	69	288	7
NMSTR	70	0	2
NMSI_	70	0	2	96	48	7
NMTAP	70	96	6
NMSTR	70	144	6
NMSI_	70	144	6	96	48	3
NMTAP	70	240	0
NMTAP	70	288	0
NMSTR	71	0	1
NMSI_	71	0	1	96	48	5
NMTAP	71	96	7
NMSTR	71	144	7
NMSI_	71	144	7	96	48	3
NMTAP	71	240	2
NMTAP	71	288	2
NMHLD	72	0	2	48
NMHLD	72	0	3	48
NMHLD	72	96	1	48
NMHLD	72	96	7	48
NMHLD	72	192	4	48
NMHLD	72	192	5	48
NMHLD	72	288	0	48
NMHLD	72	288	6	48
NMSTR	73	0	0
NMSI_	73	0	0	96	48	4
NMSTR	73	0	1
NMSI_	73	0	1	96	48	3
NMSTR	73	192	6
NMSI_	73	192	6	96	48	4
NMSTR	73	192	7
NMSI_	73	192	7	96	48	3
NMSTR	74	0	0
NMSI_	74	0	0	96	48	4
NMSTR	74	0	1
NMSI_	74	0	1	96	48	3
NMTAP	74	192	6
NMTAP	74	192	7
NMTAP	74	288	6
NMTAP	74	288	7
NMTAP	75	0	7
NMTAP	75	48	6
NMTAP	75	96	5
NMTAP	75	144	4
NMTAP	75	192	3
NMTAP	75	240	2
NMTAP	75	288	1
NMTAP	75	336	0
NMTAP	76	0	6
NMTAP	76	0	7
NMTAP	76	96	6
NMTAP	76	96	7
BXTAP	76	192	1
BXTAP	76	192	5
NMSTR	77	0	6
NMSLL	77	0	6	96	240	2
NMSTR	78	0	1
NMSLR	78	0	1	96	240	5
NMSTR	79	0	6
NMSLL	79	0	6	96	240	2
NMHLD	80	0	0	96
NMHLD	80	0	1	96
NMHLD	80	144	0	96
NMHLD	80	144	7	96
NMTAP	80	288	6
NMTAP	80	288	7
NMSTR	81	0	5
NMSLR	81	0	5	96	240	1
NMSTR	82	0	2
NMSLL	82	0	2	96	240	6
NMSTR	83	0	5
NMSLR	83	0	5	96	240	1
NMHLD	84	0	2	96
NMTAP	84	96	3
NMHLD	84	144	3	96
NMTAP	84	240	4
NMTAP	84	288	4
BRSTR	85	0	4
NMSCL	85	0	4	96	288	1
BRSTR	85	0	5
NMSUL	85	0	5	96	288	0
NMTAP	86	192	6
NMTAP	86	192	7
NMSTR	87	0	4
NMSUR	87	0	4	96	288	1
NMSTR	87	0	5
NMSCR	87	0	5	96	288	0
NMTAP	88	192	2
NMTAP	88	192	3
NMHLD	89	0	5	192
NMTAP	89	192	4
NMHLD	90	0	2	192
NMTAP	90	192	3
NMHLD	91	0	1	96
NMHLD	91	0	3	96
NMHLD	91	192	4	96
NMHLD	91	192	6	96
NMTAP	92	0	0
NMTAP	92	0	7
NMSTR	92	96	0
NMSI_	92	96	0	96	48	2
NMSTR	92	96	7
NMSI_	92	96	7	96	48	5
EXTAP	92	288	3
EXTAP	92	288	4
BRHLD	93	0	2	72
NMHLD	93	72	1	72
NMTAP	93	144	0
NMSTR	93	192	0
NMSI_	93	192	0	96	48	4
NMHLD	94	0	5	72
NMHLD	94	72	6	72
NMTAP	94	144	7
NMSTR	94	192	7
NMSI_	94	192	7	96	48	3
NMSTR	95	0	0
NMSI_	95	0	0	96	48	5
NMSTR	95	0	1
NMSI_	95	0	1	96	48	5
NMSTR	95	192	6
NMSI_	95	192	6	96	48	2
NMSTR	95	192	7
NMSI_	95	192	7	96	48	2
NMTAP	96	0	0
NMTAP	96	0	1
NMTAP	96	96	2
NMTAP	96	96	3
NMTAP	96	192	4
NMTAP	96	192	5
NMTAP	96	288	6
NMTAP	96	288	7
NMHLD	97	0	6	72
NMHLD	97	0	7	72
NMTAP	97	144	0
NMTAP	97	144	5
NMSTR	97	192	0
NMSI_	97	192	0	96	48	4
NMSTR	97	192	5
NMSI_	97	192	5	96	48	7
NMHLD	98	0	0	72
NMHLD	98	0	1	72
NMTAP	98	144	2
NMTAP	98	144	7
NMSTR	98	192	2
NMSI_	98	192	2	96	48	0
NMSTR	98	192	7
NMSI_	98	192	7	96	48	3
NMTAP	99	0	6
NMTAP	99	0	7
NMTAP	99	96	4
NMTAP	99	96	6
NMTAP	99	192	0
NMTAP	99	192	1
NMTAP	99	288	1
NMTAP	99	288	3
BRSTR	100	0	1
NMSI_	100	0	1	96	48	3
BRSTR	100	0	3
NMSI_	100	0	3	96	48	7
BRTAP	100	192	2
BRTAP	100	192	6
NMTAP	101	0	1
NMTAP	101	0	3
NMTAP	101	72	0
NMTAP	101	72	7
NMTAP	101	144	4
NMTAP	101	144	6
NMTAP	101	192	4
NMTAP	101	192	6
NMTAP	101	288	3
NMTAP	101	288	7
NMTAP	102	0	4
NMTAP	102	0	6
NMTAP	102	72	0
NMTAP	102	72	7
NMTAP	102	144	1
NMTAP	102	144	3
NMTAP	102	192	1
NMTAP	102	192	3
NMTAP	102	288	0
NMTAP	102	288	4
NMSTR	103	0	5
NMSI_	103	0	5	96	48	0
NMSTR	103	96	1
NMSI_	103	96	1	96	48	4
NMSTR	103	192	7
NMSI_	103	192	7	96	48	3
NMTAP	103	288	1
NMHLD	104	0	0	48
NMHLD	104	0	2	48
NMHLD	104	96	2	48
NMHLD	104	96	3	48
NMHLD	104	192	5	48
NMHLD	104	192	7	48
BRTAP	104	288	4
BRTAP	104	288	5
NMTAP	105	0	1
NMTAP	105	48	1
NMTAP	105	96	3
NMTAP	105	144	3
NMSTR	105	192	2
NMSI_	105	192	2	96	48	7
NMTAP	105	240	2
NMTAP	105	288	4
NMTAP	106	0	6
NMTAP	106	48	6
NMTAP	106	96	4
NMTAP	106	144	4
NMSTR	106	192	5
NMSI_	106	192	5	96	48	0
NMTAP	106	240	5
NMTAP	106	288	3
NMTAP	107	0	1
NMTAP	107	48	1
NMTAP	107	96	6
NMTAP	107	144	6
NMTAP	107	192	0
NMTAP	107	216	7
NMTAP	107	240	0
NMTAP	107	264	7
NMTAP	107	288	0
NMTAP	107	312	7
NMTAP	107	336	0
NMTAP	107	360	7
NMSTR	108	0	0
NMSF_	108	0	0	96	48	4
NMSTR	108	192	7
BRSF_	108	192	7	96	48	3
BRTAP	109	0	1
BRTAP	109	0	5

T_REC_TAP	300
T_REC_BRK	18
T_REC_XTP	6
T_REC_BXX	2
T_REC_HLD	72
T_REC_XHO	0
T_REC_BHO	4
T_REC_BXH	0
T_REC_STR	65
T_REC_BST	6
T_REC_XST	0
T_REC_XBS	0
T_REC_TTP	48
T_REC_THO	0
T_REC_SLD	70
T_REC_BSL	1
T_REC_ALL	592
T_NUM_TAP	419
T_NUM_BRK	31
T_NUM_HLD	72
T_NUM_SLD	70
T_NUM_ALL	592
T_JUDGE_TAP	445
T_JUDGE_HLD	248
T_JUDGE_SLD	71
T_JUDGE_ALL	764
TTM_EACHPAIRS	144
TTM_SCR_TAP	209500
TTM_SCR_BRK	80600
TTM_SCR_HLD	72000
TTM_SCR_SLD	105000
TTM_SCR_ALL	467100
TTM_SCR_S	450100
TTM_SCR_SS	464000
TTM_RAT_ACV	10066

