VERSION	0.00.00	1.05.00
FES_MODE	0
BPM_DEF	185.000	185.000	185.000	185.000
MET_DEF	4	4
RESOLUTION	384
CLK_DEF	384
COMPATIBLE_CODE	MA2

BPM	0	0	185.000
MET	0	0	4	4

NMTAP	1	0	4
NMTAP	1	192	4
NMTAP	2	0	5
NMTAP	2	192	5
NMTAP	3	0	6
NMTAP	3	192	6
NMTAP	4	0	0
NMTAP	4	0	7
NMTAP	4	192	0
NMTAP	4	192	7
NMTAP	5	0	0
NMTAP	5	192	0
NMTAP	6	0	1
NMTAP	6	192	1
NMTAP	7	0	2
NMTAP	7	192	2
NMTAP	8	0	3
NMTAP	8	0	4
NMTAP	9	0	3
NMTAP	9	96	3
NMTAP	9	192	2
NMTAP	10	0	1
NMTAP	10	96	1
NMTAP	10	192	0
NMTAP	11	0	7
NMTAP	11	96	7
NMTAP	11	192	6
NMTAP	12	0	5
NMTAP	12	96	5
NMTAP	12	192	4
NMTAP	12	192	5
NMTAP	13	0	4
NMTAP	13	96	4
NMTAP	13	192	5
NMTAP	14	0	6
NMTAP	14	96	6
NMTAP	14	192	7
NMTAP	15	0	0
NMTAP	15	96	0
NMTAP	15	192	1
NMTAP	16	0	2
NMTAP	16	96	2
NMTAP	16	192	2
NMTAP	16	192	3
NMHLD	17	0	2	192
NMTAP	17	192	3
NMTAP	18	0	3
NMTAP	18	0	4
NMTAP	18	96	3
NMTAP	18	96	4
NMTAP	18	192	3
NMTAP	18	192	4
NMHLD	19	0	5	192
NMTAP	19	192	4
NMTAP	20	0	3
NMTAP	20	0	4
NMTAP	20	96	3
NMTAP	20	96	4
NMTAP	20	192	3
NMTAP	20	192	4
BXTAP	21	0	2
NMTAP	21	96	2
NMTAP	21	192	1
NMTAP	21	288	1
NMTAP	22	0	0
NMTAP	22	96	0
NMTAP	22	192	6
NMTAP	22	192	7
NMTAP	23	0	5
NMTAP	23	96	5
NMTAP	23	192	6
NMTAP	23	288	6
NMTAP	24	0	7
NMTAP	24	96	7
NMTAP	24	192	0
NMTAP	24	192	1
NMTAP	25	0	1
NMTAP	25	96	1
NMTAP	25	192	2
NMTAP	25	288	2
NMTAP	26	0	3
NMTAP	26	96	3
NMTAP	26	192	4
NMTAP	26	192	5
NMTAP	27	0	6
NMTAP	27	96	6
NMTAP	27	192	5
NMTAP	27	288	5
NMTAP	28	0	4
NMTAP	28	96	4
NMTAP	28	192	2
NMTAP	28	192	3
NMTAP	29	0	2
NMTAP	29	96	2
NMTAP	29	192	1
NMTAP	29	288	1
NMTAP	30	0	0
NMTAP	30	96	0
NMTAP	30	192	6
NMTAP	30	192	7
NMTAP	30	288	6
NMTAP	30	288	7
NMTAP	31	0	5
NMTAP	31	96	5
NMTAP	31	192	6
NMTAP	31	288	6
NMTAP	32	0	7
NMTAP	32	96	7
NMTAP	32	192	0
NMTAP	32	192	1
NMTAP	33	0	1
NMTAP	33	96	1
NMTAP	33	192	2
NMTAP	33	288	2
NMTAP	34	0	3
NMTAP	34	96	3
NMTAP	34	192	4
NMTAP	34	192	5
NMTAP	34	288	4
NMTAP	34	288	5
NMTAP	35	0	6
NMTAP	35	96	6
NMTAP	35	192	5
NMTAP	35	288	5
BRTAP	36	0	3
BRTAP	36	0	4
NMTTP	37	0	1	B	0	L1
NMTTP	37	96	2	B	0	L1
NMTTP	37	192	3	B	0	L1
NMTTP	38	0	6	B	0	L1
NMTTP	38	96	5	B	0	L1
NMTTP	38	192	4	B	0	L1
NMTTP	39	0	1	B	0	L1
NMTTP	39	96	2	B	0	L1
NMTTP	39	192	3	B	0	L1
NMTTP	39	288	4	B	0	L1
NMTTP	40	0	0	C	0	L1
NMTTP	41	0	7	B	0	L1
NMTTP	41	96	6	B	0	L1
NMTTP	41	192	4	B	0	L1
NMTTP	41	192	5	B	0	L1
NMTTP	42	0	0	B	0	L1
NMTTP	42	96	1	B	0	L1
NMTTP	42	192	2	B	0	L1
NMTTP	42	192	3	B	0	L1
NMTTP	43	0	6	B	0	L1
NMTTP	43	96	5	B	0	L1
NMTTP	43	192	4	B	0	L1
NMTTP	43	288	3	B	0	L1
NMTTP	44	0	0	C	1	L1
NMTAP	45	0	1
NMTAP	45	96	1
NMTAP	45	192	1
NMTAP	45	288	1
NMTAP	46	0	0
NMTAP	46	96	0
NMTAP	46	192	0
NMTAP	46	288	0
NMTAP	47	0	7
NMTAP	47	96	7
NMTAP	47	192	7
NMTAP	47	288	7
NMTAP	48	0	6
NMTAP	48	0	7
NMTAP	48	192	6
NMTAP	48	192	7
NMTAP	49	0	5
NMTAP	49	96	5
NMTAP	49	192	5
NMTAP	49	288	5
NMTAP	50	0	6
NMTAP	50	96	6
NMTAP	50	192	6
NMTAP	50	288	6
NMTAP	51	0	7
NMTAP	51	96	7
NMTAP	51	192	7
NMTAP	51	288	7
NMTAP	52	0	0
NMTAP	52	0	1
NMTAP	52	192	0
NMTAP	52	192	1
NMSTR	53	0	1
NMSUR	53	0	1	96	480	4
NMSTR	55	0	6
NMSUL	55	0	6	96	480	3
NMSTR	57	0	2
NMSXR	57	0	2	96	480	4
NMSTR	59	0	5
NMSXL	59	0	5	96	480	3
NMTAP	61	0	4
NMTAP	61	96	4
NMTAP	61	192	5
NMTAP	61	288	5
NMTAP	62	0	6
NMTAP	62	96	6
NMTAP	62	192	7
NMTAP	62	288	7
NMTAP	63	0	0
NMTAP	63	96	0
NMTAP	63	192	1
NMTAP	63	288	1
NMTAP	64	0	2
NMTAP	64	96	2
BRTAP	64	192	3
BRTAP	64	192	4
NMTAP	65	0	3
NMTAP	65	96	3
NMTAP	65	192	2
NMTAP	65	288	2
NMTAP	66	0	1
NMTAP	66	96	1
NMTAP	66	192	0
NMTAP	66	288	0
NMTAP	67	0	7
NMTAP	67	96	7
NMTAP	67	192	6
NMTAP	67	288	6
NMTAP	68	0	5
NMTAP	68	96	5
NMTAP	68	192	3
NMTAP	68	192	4
NMTAP	69	0	4
NMTAP	69	96	5
NMTAP	69	192	6
NMTAP	69	288	7
NMTAP	70	0	0
NMTAP	70	96	1
NMTAP	70	192	2
NMTAP	70	192	3
NMTAP	71	0	3
NMTAP	71	96	2
NMTAP	71	192	1
NMTAP	71	288	0
NMTAP	72	0	7
NMTAP	72	96	6
NMTAP	72	192	4
NMTAP	72	192	5
NMTAP	73	0	4
NMTAP	73	96	5
NMTAP	73	192	6
NMTAP	73	288	7
NMTAP	74	0	0
NMTAP	74	96	1
NMTAP	74	192	2
NMTAP	74	288	3
NMTAP	75	0	4
NMTAP	75	96	5
NMTAP	75	192	6
NMTAP	75	288	7
NMTAP	76	0	0
NMTAP	76	0	7
NMTAP	76	96	0
NMTAP	76	96	7
NMTAP	76	192	1
NMTAP	76	192	6
NMHLD	77	0	6	192
NMHLD	77	192	7	192
NMHLD	78	0	0	192
NMTAP	78	192	1
NMHLD	79	0	1	192
NMHLD	79	192	0	192
NMHLD	80	0	7	192
NMTAP	80	192	6
NMHLD	81	0	6	192
NMHLD	81	192	5	192
NMHLD	82	0	4	192
NMTAP	82	192	3
NMHLD	83	0	1	192
NMHLD	83	192	2	192
NMHLD	84	0	3	192
NMTAP	84	192	4
NMSTR	85	0	5
NMSI_	85	0	5	96	288	2
NMTAP	86	192	1
NMSTR	87	0	1
NMSI_	87	0	1	96	288	5
NMTAP	88	192	6
NMSTR	89	0	7
NMSXR	89	0	7	96	672	3
NMTAP	92	0	2
NMTAP	92	0	3
BXTAP	93	0	2
NMTAP	93	96	2
NMTAP	93	192	0
NMTAP	93	192	1
NMTAP	93	288	0
NMTAP	93	288	1
NMTAP	94	0	7
NMTAP	94	96	7
NMTAP	94	192	6
NMTAP	94	192	7
NMTAP	94	288	6
NMTAP	94	288	7
NMTAP	95	0	5
NMTAP	95	96	5
NMTAP	95	192	6
NMTAP	95	192	7
NMTAP	95	288	6
NMTAP	95	288	7
NMTAP	96	0	0
NMTAP	96	96	0
NMTAP	96	192	0
NMTAP	96	192	1
NMTAP	97	0	1
NMTAP	97	96	1
NMTAP	97	192	2
NMTAP	97	192	3
NMTAP	97	288	2
NMTAP	97	288	3
NMTAP	98	0	4
NMTAP	98	96	4
NMTAP	98	192	4
NMTAP	98	192	5
NMTAP	98	288	4
NMTAP	98	288	5
NMTAP	99	0	6
NMTAP	99	96	6
NMTAP	99	192	4
NMTAP	99	192	5
NMTAP	99	288	4
NMTAP	99	288	5
EXTAP	100	0	3
NMTAP	100	96	3
BXTAP	100	192	2
BXTAP	100	192	3
NMTAP	101	0	2
NMTAP	101	48	2
NMTAP	101	96	2
NMTAP	101	192	1
NMTAP	101	240	1
NMTAP	101	288	1
NMTAP	102	0	0
NMTAP	102	48	0
NMTAP	102	96	0
NMTAP	102	192	6
NMTAP	102	192	7
NMTAP	103	0	5
NMTAP	103	48	5
NMTAP	103	96	5
NMTAP	103	192	6
NMTAP	103	240	6
NMTAP	103	288	6
NMTAP	104	0	7
NMTAP	104	48	7
NMTAP	104	96	7
NMTAP	104	192	0
NMTAP	104	192	1
NMTAP	105	0	7
NMTAP	105	48	7
NMTAP	105	96	7
NMTAP	105	192	6
NMTAP	105	240	6
NMTAP	105	288	6
NMTAP	106	0	5
NMTAP	106	48	5
NMTAP	106	96	5
NMTAP	106	192	4
NMTAP	106	240	4
NMTAP	106	288	4
NMTAP	107	0	3
NMTAP	107	48	3
NMTAP	107	96	3
NMTAP	107	192	2
NMTAP	107	240	2
NMTAP	107	288	2
NMTAP	108	0	1
NMTAP	108	48	1
NMTAP	108	96	1
NMTAP	108	192	0
NMTAP	108	192	7
NMTAP	108	288	0
NMTAP	108	288	7
BRTAP	109	0	1
BRTAP	109	0	6

T_REC_TAP	312
T_REC_BRK	6
T_REC_XTP	1
T_REC_BXX	4
T_REC_HLD	14
T_REC_XHO	0
T_REC_BHO	0
T_REC_BXH	0
T_REC_STR	7
T_REC_BST	0
T_REC_XST	0
T_REC_XBS	0
T_REC_TTP	24
T_REC_THO	0
T_REC_SLD	7
T_REC_BSL	0
T_REC_ALL	375
T_NUM_TAP	344
T_NUM_BRK	10
T_NUM_HLD	14
T_NUM_SLD	7
T_NUM_ALL	375
T_JUDGE_TAP	354
T_JUDGE_HLD	56
T_JUDGE_SLD	7
T_JUDGE_ALL	417
TTM_EACHPAIRS	52
TTM_SCR_TAP	172000
TTM_SCR_BRK	26000
TTM_SCR_HLD	14000
TTM_SCR_SLD	10500
TTM_SCR_ALL	222500
TTM_SCR_S	214900
TTM_SCR_SS	221500
TTM_RAT_ACV	10045

