VERSION	0.00.00	1.05.00
FES_MODE	0
BPM_DEF	190.000	190.000	190.000	190.000
MET_DEF	4	4
RESOLUTION	384
CLK_DEF	384
COMPATIBLE_CODE	MA2

BPM	0	0	190.000
MET	0	0	4	4

NMTTP	1	0	5	E	0	M1
NMTTP	1	96	4	E	0	M1
NMTTP	1	192	3	E	0	M1
NMTTP	2	0	2	B	0	M1
NMTTP	2	0	3	B	0	M1
NMTTP	2	192	6	B	0	M1
NMTTP	2	240	5	B	0	M1
NMTTP	2	288	4	B	0	M1
NMTTP	3	0	3	E	0	M1
NMTTP	3	96	4	E	0	M1
NMTTP	3	192	5	E	0	M1
NMTTP	3	288	6	E	0	M1
NMTTP	4	0	7	E	0	M1
NMTTP	4	192	3	B	0	M1
NMTTP	4	240	2	B	0	M1
NMTTP	4	288	1	B	0	M1
NMTTP	5	0	5	E	0	M1
NMTTP	5	96	4	E	0	M1
NMTTP	5	192	3	E	0	M1
NMTTP	5	288	2	E	0	M1
NMTTP	6	0	1	E	0	M1
NMTTP	6	0	3	B	0	M1
NMTTP	6	96	5	E	0	M1
NMTTP	6	192	6	B	0	M1
NMTTP	6	240	5	B	0	M1
NMTTP	6	288	4	B	0	M1
NMSTR	7	0	2
NMSXL	7	0	2	96	288	5
NMTTP	8	0	7	E	0	M1
NMTTP	8	192	4	B	0	M1
NMTTP	8	240	3	B	0	M1
NMTTP	8	288	2	B	0	M1
NMSTR	9	0	0
NMSCR	9	0	0	96	144	5
NMTAP	9	96	5
NMTAP	9	192	6
NMSTR	10	0	7
NMSCL	10	0	7	96	144	2
NMTAP	10	192	1
NMTAP	10	288	1
NMSTR	11	0	0
NMSCR	11	0	0	96	144	5
NMTAP	11	96	5
NMTAP	11	192	6
NMTAP	11	288	7
NMTAP	12	0	7
NMSTR	12	96	0
NMSSL	12	96	0	96	96	4
NMSTR	12	96	6
NMSSR	12	96	6	96	96	2
BXTAP	12	192	0
BXTAP	12	192	6
EXTAP	13	0	1
EXTAP	13	0	5
NMTAP	13	96	0
NMHLD	13	144	0	96
NMTAP	13	240	2
NMHLD	13	288	2	96
NMTAP	14	0	4
NMHLD	14	48	4	96
NMTAP	14	144	6
NMHLD	14	192	6	96
NMTAP	14	288	0
NMTAP	15	0	2
NMTAP	15	24	3
NMTAP	15	48	2
NMTAP	15	72	3
NMTAP	15	96	2
NMTAP	15	144	5
NMTAP	15	168	4
NMTAP	15	192	5
NMTAP	15	216	4
NMTAP	15	240	5
NMTAP	15	288	2
NMTAP	15	312	3
NMTAP	15	336	2
NMTAP	15	360	3
NMTTP	16	0	2	E	1	M1
NMTAP	16	144	5
NMTAP	16	168	4
NMTAP	16	192	6
NMTAP	16	240	7
NMSTR	16	288	0
NMSI_	16	288	0	96	48	4
NMSTR	16	288	1
NMSI_	16	288	1	96	48	4
NMTAP	17	0	0
NMSTR	17	0	1
NMSCL	17	0	1	96	48	6
NMTAP	17	96	1
NMSTR	17	96	3
NMSI_	17	96	3	96	48	7
NMSTR	17	192	0
NMSUR	17	192	0	96	48	4
NMTAP	17	192	3
NMTAP	17	288	6
NMHLD	17	336	6	96
NMTAP	18	48	4
NMTAP	18	144	2
NMTAP	18	168	3
NMSTR	18	192	1
NMSI_	18	192	1	96	48	5
NMTAP	18	240	1
NMSTR	18	288	4
NMSI_	18	288	4	96	48	0
NMTAP	18	336	4
NMSTR	19	0	7
NMSF_	19	0	7	96	48	3
NMTAP	19	192	1
NMTAP	19	192	5
NMTAP	19	240	1
NMSTR	19	240	5
NMSI_	19	240	5	96	48	1
NMSTR	19	336	0
NMSI_	19	336	0	96	48	4
NMTAP	20	48	6
NMSTR	20	96	7
NMSCL	20	96	7	96	96	3
NMSTR	20	192	3
NMSXL	20	192	3	96	96	4
NMTAP	20	288	1
NMTAP	20	336	0
NMHLD	21	0	0	96
NMTAP	21	96	3
NMTAP	21	144	3
NMTAP	21	192	1
NMTAP	21	240	5
NMTAP	21	288	4
NMSTR	21	336	7
NMSI_	21	336	7	96	48	2
NMSI_	21	336	7	96	48	4
NMTAP	22	48	7
NMTAP	22	144	5
NMTAP	22	192	5
NMTAP	22	240	3
NMTAP	22	288	2
NMTAP	22	288	4
NMTAP	22	336	1
NMHLD	23	0	1	96
NMTAP	23	0	3
NMTAP	23	96	3
NMTAP	23	144	4
NMHLD	23	144	6	96
NMTAP	23	240	4
NMHLD	23	288	1	96
NMSTR	23	288	3
NMSI_	23	288	3	96	48	0
NMTAP	24	0	3
EXTAP	24	144	3
NMTAP	24	168	5
BRTAP	24	192	4
NMSTR	24	288	6
NMSI_	24	288	6	96	48	3
NMSTR	24	288	7
NMSI_	24	288	7	96	48	3
NMSTR	25	0	6
NMSCR	25	0	6	96	48	1
NMTAP	25	0	7
NMSTR	25	96	4
NMSI_	25	96	4	96	48	0
NMTAP	25	96	6
NMTAP	25	192	4
NMSTR	25	192	7
NMSUL	25	192	7	96	48	3
NMTAP	25	288	1
NMHLD	25	336	1	96
NMTAP	26	48	3
NMTAP	26	144	5
NMTAP	26	168	4
NMSTR	26	192	6
NMSI_	26	192	6	96	48	2
NMTAP	26	240	6
NMSTR	26	288	3
NMSI_	26	288	3	96	48	7
NMTAP	26	336	3
NMSTR	27	0	0
NMSF_	27	0	0	96	48	4
NMTAP	27	192	2
NMTAP	27	192	6
NMSTR	27	240	2
NMSI_	27	240	2	96	48	6
NMTAP	27	240	6
NMSTR	27	336	7
NMSI_	27	336	7	96	48	3
NMTAP	28	48	1
NMSTR	28	96	0
NMSCR	28	96	0	96	96	5
NMTAP	28	144	0
NMTTP	28	288	0	B	0	M1
NMTTP	28	288	0	E	1	M1
NMTTP	28	288	7	B	0	M1
NMTAP	29	0	6
NMTAP	29	48	6
NMTAP	29	96	4
NMTAP	29	96	6
NMTAP	29	144	6
NMTAP	29	192	1
NMTAP	29	240	1
NMTAP	29	288	1
NMTAP	29	288	3
NMSTR	29	336	1
NMSCL	29	336	1	96	48	6
NMSCR	29	336	1	96	48	4
EXTAP	30	144	5
NMTAP	30	192	7
NMTAP	30	240	1
NMTAP	30	288	2
NMTAP	30	288	4
NMTAP	30	336	5
NMSTR	31	0	6
NMSI_	31	0	6	96	48	2
NMSTR	31	96	0
NMSI_	31	96	0	96	48	3
NMTAP	31	192	4
NMSTR	31	240	5
NMSI_	31	240	5	96	48	7
NMTAP	31	336	3
NMTAP	32	0	2
NMTAP	32	48	1
NMTAP	32	72	7
NMTAP	32	96	1
NMTAP	32	120	7
NMTAP	32	144	1
NMTAP	32	168	7
NMTAP	32	192	2
NMTAP	32	216	6
NMTAP	32	240	2
NMTAP	32	264	6
NMSTR	32	288	3
NMSCL	32	288	3	96	384	0
NMSCL	32	288	3	96	768	5
NMTAP	32	312	5
NMTAP	32	336	3
NMTAP	32	360	5
BRTAP	33	0	3
CNSCR	34	0	0	0	384	3
NMTAP	35	288	3
NMTAP	35	288	5
NMTAP	36	0	2
NMTAP	36	0	6
NMSTR	36	96	1
NMSV_	36	96	1	96	48	4
NMSTR	36	96	7
NMSV_	36	96	7	96	48	4
NMTAP	36	192	1
NMTAP	36	192	7
NMHLD	37	0	0	96
NMHLD	37	0	2	96
NMTAP	37	144	0
NMTAP	37	144	2
NMTAP	37	240	3
NMHLD	37	288	0	96
NMHLD	37	288	2	96
NMHLD	38	48	0	96
NMHLD	38	48	2	96
NMSTR	38	192	0
BRSI_	38	192	0	96	48	4
NMSTR	38	192	2
BRSXL	38	192	2	96	48	4
BRTAP	38	288	0
BRTAP	38	288	2
EXTAP	39	0	3
EXTAP	39	0	5
NMTAP	39	96	5
NMTAP	39	96	7
NMHLD	39	144	5	96
NMHLD	39	144	7	96
NMHLD	39	288	5	96
NMHLD	39	288	7	96
NMHLD	40	48	4	96
NMHLD	40	48	6	96
NMTAP	40	192	5
NMTAP	40	216	4
NMTAP	40	240	6
NMSTR	40	288	7
NMSLL	40	288	7	96	192	3
NMTAP	41	192	1
CNSCR	41	192	3	0	48	4
CNSV_	41	240	4	0	144	6
NMSTR	41	288	0
NMSLR	41	288	0	96	192	4
CNSCL	42	192	4	0	48	3
NMTAP	42	192	6
CNSV_	42	240	3	0	144	1
NMSTR	42	288	6
NMSLL	42	288	6	96	192	2
NMTAP	43	192	0
CNSCR	43	192	2	0	48	3
CNSV_	43	240	3	0	144	5
NMTAP	43	288	0
NMTAP	44	0	0
NMSTR	44	96	1
NMSI_	44	96	1	96	48	3
NMSTR	44	96	7
NMSI_	44	96	7	96	48	1
NMSTR	44	192	1
NMSCR	44	192	1	96	24	2
NMTAP	44	192	7
CNSI_	44	312	2	0	24	5
NMTAP	45	0	0
NMTAP	45	0	6
NMTAP	45	72	2
NMTAP	45	72	4
NMTAP	45	144	2
NMTAP	45	144	4
NMTTP	45	192	5	E	0	M1
NMTTP	45	224	6	E	0	M1
NMTTP	45	256	7	E	0	M1
NMTAP	45	288	0
NMTAP	45	360	3
NMTAP	45	360	5
NMTAP	46	48	4
NMTAP	46	48	6
NMTAP	46	120	1
NMTAP	46	120	3
NMSTR	46	192	0
BRSI_	46	192	0	96	48	4
NMSTR	46	192	2
BRSXL	46	192	2	96	48	4
BRTAP	46	288	0
BRTAP	46	288	2
NMTAP	47	0	5
NMTAP	47	48	5
NMTAP	47	96	3
NMTAP	47	144	4
NMTTP	47	192	3	E	0	M1
NMTTP	47	224	2	E	0	M1
NMTTP	47	256	1	E	0	M1
NMTAP	47	288	7
NMTAP	47	360	2
NMTAP	47	360	4
NMTAP	48	48	3
NMSTR	48	48	5
NMSI_	48	48	5	96	48	1
NMTAP	48	144	2
NMSTR	48	192	3
NMSI_	48	192	3	96	48	0
NMSTR	48	288	7
NMSLL	48	288	7	96	144	3
BRHLD	49	0	2	288
CNSI_	49	144	3	0	48	1
EXTAP	49	288	0
EXTAP	49	312	0
EXTAP	49	336	0
NMSTR	50	0	7
NMSI_	50	0	7	96	48	3
NMSTR	50	96	2
NMSI_	50	96	2	96	48	7
NMTAP	50	96	7
NMTAP	50	192	2
NMTAP	50	192	4
NMTAP	50	240	5
NMTAP	50	288	0
NMTAP	50	336	1
NMTAP	51	0	4
NMTAP	51	0	6
NMTAP	51	48	7
NMTAP	51	96	1
NMTAP	51	96	3
NMTAP	51	144	0
NMSTR	51	192	5
NMSCR	51	192	5	96	96	1
NMTAP	51	240	5
NMTAP	51	288	1
NMTAP	51	312	2
NMTAP	51	336	3
NMTAP	51	360	4
NMTAP	52	0	5
EXTAP	52	48	1
EXTAP	52	96	0
EXTAP	52	144	7
NMSTR	52	192	2
NMSCL	52	192	2	96	96	6
NMTAP	52	240	2
NMTAP	52	288	6
NMTAP	52	312	5
NMTAP	52	336	4
NMTAP	52	360	3
NMTAP	53	0	2
EXTAP	53	48	6
EXTAP	53	96	7
EXTAP	53	144	0
NMTAP	53	192	1
NMTAP	53	192	3
NMTAP	53	264	4
NMTAP	53	264	6
NMTAP	53	336	0
NMTAP	53	336	2
NMSTR	54	0	7
NMSUL	54	0	7	96	48	3
NMTAP	54	48	0
NMTAP	54	48	6
NMTAP	54	96	7
NMTAP	54	144	2
NMTAP	54	168	1
NMTAP	54	192	0
NMTAP	54	240	0
NMTAP	54	288	1
NMTAP	54	288	3
NMTAP	54	336	2
NMTAP	55	0	4
NMTAP	55	0	6
NMTAP	55	48	5
NMTAP	55	96	0
NMTAP	55	96	2
NMTAP	55	144	3
NMSTR	55	192	4
NMSI_	55	192	4	96	48	0
NMTAP	55	192	6
NMTAP	55	288	4
NMTAP	55	288	7
NMTAP	55	336	5
NMTAP	56	0	1
NMSTR	56	0	3
NMSI_	56	0	3	96	48	7
NMTAP	56	96	0
NMTAP	56	96	3
NMTAP	56	144	2
NMTAP	56	192	4
NMTAP	56	192	5
NMTAP	56	240	6
NMTAP	56	288	7
NMTAP	56	336	0
NMTTP	57	0	1	A	0	M1
NMTTP	57	24	2	E	0	M1
NMTTP	57	48	3	E	0	M1
NMTTP	57	72	3	A	0	M1
NMTTP	57	96	7	A	0	M1
NMTTP	57	120	7	E	0	M1
NMTTP	57	144	6	E	0	M1
NMTTP	57	168	5	A	0	M1
NMTTP	57	192	0	A	0	M1
NMTTP	57	216	1	E	0	M1
NMTTP	57	240	2	E	0	M1
NMTTP	57	264	2	A	0	M1
NMTTP	57	288	6	A	0	M1
NMTTP	57	312	6	E	0	M1
NMTTP	57	336	5	E	0	M1
NMTTP	57	360	4	A	0	M1
NMSTR	58	0	0
NMSI_	58	0	0	96	48	4
NMTAP	58	96	4
NMSTR	58	144	5
NMSCL	58	144	5	96	48	2
NMTAP	58	240	2
NMHLD	58	288	1	96
NMSTR	59	0	3
NMSUR	59	0	3	96	48	7
NMTAP	59	96	7
NMSTR	59	144	0
NMSUR	59	144	0	96	48	4
NMTAP	59	240	6
NMHLD	59	288	7	96
NMSTR	60	0	5
NMSI_	60	0	5	96	48	1
NMTAP	60	96	6
NMSTR	60	144	7
NMSI_	60	144	7	96	48	3
NMTAP	60	240	1
NMHLD	60	288	0	96
NMSTR	61	0	2
NMSUR	61	0	2	96	48	7
NMTAP	61	96	7
NMTAP	61	144	0
NMSTR	61	192	0
NMSF_	61	192	0	96	48	4
BXTAP	61	288	0
NMTAP	62	0	6
NMTAP	62	48	6
NMTTP	62	96	4	B	0	M1
NMTTP	62	96	4	E	0	M1
NMTAP	62	96	6
NMTAP	62	144	6
NMTAP	62	192	2
NMTAP	62	240	2
NMTAP	62	288	2
NMTTP	62	288	3	B	0	M1
NMTTP	62	288	4	E	0	M1
NMHLD	62	336	1	96
NMTAP	63	48	0
NMTAP	63	96	1
NMTAP	63	144	2
NMSTR	63	192	3
NMSCL	63	192	3	96	48	0
NMTAP	63	240	4
NMTAP	63	288	5
NMTAP	63	336	6
NMHLD	64	0	6	96
NMHLD	64	0	7	96
NMHLD	64	144	4	96
NMHLD	64	144	5	96
NMTAP	64	288	2
NMTAP	64	288	3
NMTAP	65	0	1
NMTAP	65	24	0
NMTAP	65	48	2
NMTAP	65	72	7
NMSTR	65	96	3
NMSLL	65	96	3	96	96	7
NMTAP	65	120	6
NMTAP	65	144	4
NMTAP	65	168	5
NMTAP	65	192	3
NMSTR	65	288	4
NMSUL	65	288	4	96	576	3
CNSI_	65	288	7	0	48	5
NMTTP	66	0	0	C	1	M1
CNSCL	67	192	3	0	576	5
NMSTR	70	0	6
NMSCL	70	0	6	96	192	3
NMTAP	70	144	2
NMTAP	70	240	0
NMTAP	70	288	0
NMSTR	71	0	1
NMSCR	71	0	1	96	192	4
NMTAP	71	144	5
NMTAP	71	288	7
NMSTR	72	0	7
NMSCL	72	0	7	96	192	4
NMTAP	72	144	3
NMTAP	72	288	1
NMHLD	73	0	0	96
NMSTR	73	96	3
NMSF_	73	96	3	96	96	7
NMTAP	73	144	2
NMTAP	73	144	4
NMHLD	74	0	1	288
NMHLD	74	0	5	288
NMHLD	74	336	2	48
NMHLD	74	336	6	48
NMHLD	75	48	3	48
NMHLD	75	48	5	48
NMHLD	75	144	2	96
NMHLD	75	144	4	96
EXTAP	75	288	3
NMTAP	75	312	2
NMTAP	75	336	1
EXTAP	75	360	4
NMSTR	76	0	5
NMSI_	76	0	5	96	48	0
NMSTR	76	96	2
NMSI_	76	96	2	96	48	7
NMTAP	76	192	6
NMSTR	76	240	6
NMSI_	76	240	6	96	48	3
NMTAP	76	288	0
NMTAP	76	336	0
NMTAP	77	0	1
NMTAP	77	48	1
NMTAP	77	48	3
NMTAP	77	96	6
NMTAP	77	144	6
NMTAP	77	168	4
NMSTR	77	192	5
NMSI_	77	192	5	96	48	2
NMTAP	77	240	6
NMTAP	77	240	7
EXTAP	77	288	5
NMHLD	78	0	1	288
NMTTP	78	192	2	B	0	M1
NMTTP	78	192	3	B	0	M1
NMTTP	78	192	3	E	1	M1
NMSTR	78	288	4
NMSI_	78	288	4	96	48	7
NMSTR	79	0	0
NMSI_	79	0	0	96	48	3
NMTAP	79	0	4
NMTAP	79	96	0
NMHLD	79	192	1	96
NMTAP	79	192	5
EXSTR	79	288	4
NMSI_	79	288	4	96	48	7
NMTAP	80	0	3
NMSTR	80	48	3
NMSI_	80	48	3	96	48	0
NMTAP	80	144	4
NMTAP	80	192	4
NMTTP	80	288	5	E	0	M1
NMTTP	80	312	6	E	0	M1
NMTTP	80	336	7	E	0	M1
NMTTP	80	360	0	E	0	M1
EXTAP	81	0	2
NMHLD	81	48	2	96
NMSTR	81	144	0
NMSCL	81	144	0	96	96	4
NMTAP	81	240	3
NMTAP	81	288	2
NMTAP	81	336	1
NMSTR	82	0	0
NMSI_	82	0	0	96	48	4
NMTAP	82	96	5
NMSTR	82	144	6
NMSI_	82	144	6	96	48	2
NMTAP	82	192	7
NMTAP	82	240	2
NMTAP	82	288	1
NMTAP	82	336	0
NMSTR	83	0	0
NMSI_	83	0	0	96	48	4
NMTAP	83	96	4
NMTAP	83	144	5
NMTAP	83	192	6
NMTAP	83	224	4
NMTAP	83	256	5
NMTAP	83	288	1
NMTAP	83	320	3
NMTAP	83	352	2
NMSTR	84	0	7
NMSI_	84	0	7	96	48	3
NMTAP	84	96	2
NMTAP	84	144	1
NMTTP	84	192	2	E	0	M1
NMTTP	84	216	3	E	0	M1
NMTTP	84	240	4	E	0	M1
NMTAP	84	288	5
NMTAP	84	288	7
NMTAP	84	360	4
NMTAP	84	360	5
NMTAP	85	48	0
NMTAP	85	48	2
NMTAP	85	120	2
NMTAP	85	120	3
NMSTR	85	192	0
BRSI_	85	192	0	96	48	4
NMSTR	85	192	2
BRSXL	85	192	2	96	48	4
BRTAP	85	288	0
BRTAP	85	288	2
NMTAP	86	0	6
NMTAP	86	48	6
NMTAP	86	96	6
NMTAP	86	144	6
NMSTR	86	192	6
NMSI_	86	192	6	96	48	3
NMTAP	86	224	4
NMTAP	86	256	4
NMTAP	86	288	6
NMTAP	87	0	1
NMTAP	87	32	1
NMTAP	87	64	3
NMTAP	87	96	2
NMTAP	87	128	2
NMTAP	87	160	3
NMTAP	87	192	1
NMTAP	87	224	1
NMTAP	87	256	3
BRHLD	87	288	2	96
NMSTR	88	0	7
NMSCL	88	0	7	96	48	4
NMSTR	88	96	3
NMSCL	88	96	3	96	48	0
NMSTR	88	192	7
NMSI_	88	192	7	96	48	3
NMSTR	88	288	3
NMSV_	88	288	3	96	96	0
NMSV_	88	288	3	96	96	6
CNSCR	89	96	0	0	48	1
CNSCL	89	96	6	0	48	5
CNSI_	89	144	1	0	48	4
CNSI_	89	144	5	0	48	2
NMTAP	89	288	3
NMTAP	89	288	4
BRTAP	90	0	2
NMTAP	90	24	4
NMTAP	90	48	3
NMTAP	90	72	4
NMTAP	90	96	3
NMTAP	90	120	4
NMTAP	90	144	3
NMTAP	90	168	4
NMTAP	90	192	3
NMTAP	90	216	4
NMTAP	90	240	3
NMTAP	90	264	4
NMTAP	90	288	3
NMTAP	90	312	4
NMTAP	90	336	3
NMTAP	90	360	4
NMTAP	91	0	2
NMTAP	91	24	4
NMTAP	91	48	3
NMTAP	91	72	4
NMTAP	91	96	3
NMTAP	91	120	4
NMTAP	91	144	3
NMTAP	91	168	4
NMTAP	91	192	2
NMTAP	91	216	4
NMTAP	91	240	2
NMTAP	91	264	4
NMTAP	91	288	1
NMTAP	91	312	3
NMTAP	91	336	1
NMTAP	91	360	3
NMSTR	92	0	0
BRSF_	92	0	0	96	48	4
BRTAP	92	96	0
EXTAP	92	192	2
EXTAP	92	192	6
NMSTR	92	240	2
NMSCL	92	240	2	96	48	7
NMSTR	92	240	6
NMSCL	92	240	6	96	48	3
NMSTR	92	336	6
NMSI_	92	336	6	96	48	2
NMTAP	93	48	1
NMSTR	93	96	0
NMSI_	93	96	0	96	48	3
NMTAP	93	144	3
NMSTR	93	192	4
NMSI_	93	192	4	96	48	0
NMTAP	93	240	5
NMSTR	93	288	2
NMSCL	93	288	2	96	144	4
NMTAP	93	336	3
NMTAP	94	0	4
EXTAP	94	192	0
EXTAP	94	192	1
NMTAP	94	288	2
NMTAP	94	288	7
NMTAP	94	336	2
NMTAP	94	336	7
NMTAP	95	48	4
NMSTR	95	48	6
NMSV_	95	48	6	96	48	3
NMTAP	95	144	1
NMTAP	95	192	1
NMTAP	95	240	4
NMTAP	95	288	4
NMTAP	95	336	3
NMSTR	96	0	5
NMSCR	96	0	5	96	48	7
NMTAP	96	96	4
NMSTR	96	144	2
NMSCL	96	144	2	96	48	0
NMTAP	96	240	3
NMSTR	96	288	5
NMSI_	96	288	5	96	48	0
NMSCR	96	288	5	96	48	7
CNSCR	97	48	0	0	48	2
CNSUR	97	48	7	0	48	3
EXTAP	97	192	2
EXTAP	97	192	4
NMSTR	97	288	0
NMSI_	97	288	0	96	48	3
NMTAP	98	0	0
NMSTR	98	0	7
NMSI_	98	0	7	96	48	4
NMSTR	98	96	6
NMSCR	98	96	6	96	48	1
NMTAP	98	96	7
NMTAP	98	192	3
NMTAP	98	192	6
NMTAP	98	288	2
NMTAP	98	288	3
NMTAP	98	336	2
NMTAP	98	336	3
NMSTR	99	48	3
NMSCL	99	48	3	96	48	0
NMTAP	99	96	4
NMTAP	99	144	5
NMSTR	99	192	6
NMSCL	99	192	6	96	48	3
NMTAP	99	240	7
NMSTR	99	288	0
NMSI_	99	288	0	96	48	4
NMSI_	99	288	0	96	48	5
NMTAP	99	336	1
NMTAP	100	96	6
NMTAP	100	96	7
NMTAP	100	192	1
NMTAP	100	216	0
NMSTR	100	240	2
NMSI_	100	240	2	96	48	6
NMTAP	100	288	3
NMTAP	100	336	2
NMSTR	100	336	4
NMSI_	100	336	4	96	48	7
NMSTR	101	48	0
NMSLL	101	48	0	96	72	4
NMSLR	101	48	0	96	72	4
NMTAP	101	48	4
NMTAP	101	144	0
NMTAP	101	288	3
NMTAP	101	288	5
NMSTR	102	0	4
NMSI_	102	0	4	96	48	0
NMTAP	102	0	6
NMTAP	102	48	6
NMTAP	102	96	4
NMTAP	102	96	6
NMTAP	102	144	6
NMTAP	102	192	1
NMSTR	102	192	3
NMSI_	102	192	3	96	48	7
NMTAP	102	240	1
NMTAP	102	288	1
NMTAP	102	288	3
NMHLD	102	336	0	96
NMSTR	103	48	3
NMSCR	103	48	3	96	96	7
NMSTR	103	144	7
NMSCR	103	144	7	96	96	3
NMTAP	103	240	3
NMTAP	103	336	7
NMSTR	104	0	7
NMSF_	104	0	7	96	48	3
NMTAP	104	192	1
NMTAP	104	240	2
NMTAP	104	240	3
NMTAP	104	336	6
NMTAP	105	0	4
NMTAP	105	0	5
NMTAP	105	48	3
NMTAP	105	96	2
NMTAP	105	120	4
NMTAP	105	144	2
NMTAP	105	168	4
NMTAP	105	192	3
NMTAP	105	216	5
NMTAP	105	240	3
NMTAP	105	264	5
NMSTR	105	288	4
NMSI_	105	288	4	96	192	0
NMTAP	105	312	6
NMTAP	105	336	4
NMTAP	105	360	6
BRTAP	106	0	4
CNSCR	106	192	0	0	192	2
CNSI_	107	0	2	0	192	7
CNSLL	107	192	7	0	96	3
NMTTP	108	0	3	E	0	M1
NMTTP	108	96	2	E	0	M1
NMTTP	108	192	1	E	0	M1
NMTAP	108	288	7
NMSTR	108	336	7
NMSI_	108	336	7	96	48	3
NMTAP	109	48	3
NMTAP	109	96	2
NMTAP	109	144	1
NMSTR	109	192	0
BRSI_	109	192	0	96	48	4
NMSTR	109	192	2
BRSXL	109	192	2	96	48	4
BRTAP	109	288	0
BRTAP	109	288	2
NMTAP	110	0	6
NMTAP	110	48	6
NMTTP	110	96	0	E	1	M1
NMTAP	110	96	6
NMTAP	110	144	6
NMTAP	110	192	2
NMTAP	110	240	2
NMTAP	110	288	2
NMTTP	110	288	4	E	1	M1
NMTAP	110	336	2
NMSTR	111	0	5
NMSI_	111	0	5	96	48	0
NMTAP	111	48	5
NMSTR	111	96	1
NMSI_	111	96	1	96	48	4
NMTAP	111	144	1
NMSTR	111	192	7
NMSI_	111	192	7	96	48	3
NMTAP	111	240	7
NMTAP	111	288	2
NMTAP	111	336	2
NMTAP	112	0	1
NMTAP	112	48	1
NMTAP	112	72	3
NMTAP	112	96	2
NMTAP	112	120	3
NMTAP	112	144	1
NMSTR	112	192	0
NMSI_	112	192	0	96	48	4
NMSTR	112	240	4
NMSI_	112	240	4	96	48	0
NMTAP	112	288	6
NMTAP	112	336	7
EXTAP	113	0	7
NMTAP	113	16	6
NMTAP	113	32	5
NMTAP	113	48	4
EXTAP	113	96	0
NMTAP	113	112	1
NMTAP	113	128	2
NMTAP	113	144	3
EXTAP	113	192	6
NMTAP	113	208	5
NMTAP	113	224	4
NMTAP	113	240	3
NMTAP	113	256	2
NMTAP	113	272	1
NMSTR	113	288	0
BRSF_	113	288	0	96	48	4

T_REC_TAP	447
T_REC_BRK	13
T_REC_XTP	28
T_REC_BXX	3
T_REC_HLD	43
T_REC_XHO	0
T_REC_BHO	2
T_REC_BXH	0
T_REC_STR	127
T_REC_BST	0
T_REC_XST	1
T_REC_XBS	0
T_REC_TTP	76
T_REC_THO	0
T_REC_SLD	125
T_REC_BSL	10
T_REC_ALL	875
T_NUM_TAP	679
T_NUM_BRK	28
T_NUM_HLD	43
T_NUM_SLD	125
T_NUM_ALL	875
T_JUDGE_TAP	695
T_JUDGE_HLD	102
T_JUDGE_SLD	135
T_JUDGE_ALL	932
TTM_EACHPAIRS	108
TTM_SCR_TAP	339500
TTM_SCR_BRK	72800
TTM_SCR_HLD	43000
TTM_SCR_SLD	187500
TTM_SCR_ALL	642800
TTM_SCR_S	620800
TTM_SCR_SS	640000
TTM_RAT_ACV	10043

