VERSION	0.00.00	1.05.00
FES_MODE	0
BPM_DEF	190.000	190.000	190.000	190.000
MET_DEF	4	4
RESOLUTION	384
CLK_DEF	384
COMPATIBLE_CODE	MA2

BPM	0	0	190.000
MET	0	0	4	4

NMSTR	1	0	2
NMSCR	1	0	2	96	480	5
NMSTR	3	0	5
NMSCL	3	0	5	96	480	2
NMTTP	5	0	2	E	0	M1
NMTTP	6	0	0	C	0	M1
NMTTP	7	0	6	E	0	M1
NMTTP	8	0	0	C	0	M1
NMHLD	9	0	6	192
NMTAP	9	192	4
NMTAP	10	0	6
NMTAP	10	96	5
NMTAP	10	192	3
NMTAP	10	288	2
NMHLD	11	0	1	192
NMTAP	11	192	3
NMTAP	12	0	1
NMTAP	12	96	2
EXTAP	12	192	3
EXTAP	12	192	5
EXHLD	13	0	4	96
EXHLD	13	0	6	96
EXHLD	13	144	4	96
EXHLD	13	144	6	96
EXTAP	13	288	4
EXTAP	13	288	6
EXHLD	14	0	1	96
EXHLD	14	0	3	96
EXHLD	14	144	1	96
EXHLD	14	144	3	96
EXTAP	14	288	1
EXTAP	14	288	3
NMTAP	15	0	0
NMTAP	15	48	0
NMTAP	15	96	0
NMTAP	15	192	6
NMTAP	15	240	6
NMTAP	15	288	6
BXHLD	16	0	1	192
BXHLD	16	0	7	192
NMTAP	16	288	2
NMTAP	16	288	6
NMTAP	17	0	4
NMTAP	17	0	5
NMTAP	17	96	6
NMTAP	17	96	7
NMTAP	17	192	0
NMTAP	17	192	1
NMTAP	17	288	2
NMHLD	17	336	2	96
NMTAP	18	48	3
NMTAP	18	144	5
NMTAP	18	192	5
NMTAP	18	288	4
NMTAP	18	288	6
NMTAP	19	0	2
NMTAP	19	96	1
NMTAP	19	96	3
NMTAP	19	192	2
NMHLD	19	240	2	96
NMTAP	19	336	0
NMTAP	20	48	1
NMTAP	20	48	7
NMSTR	20	96	1
NMSUR	20	96	1	96	96	5
NMTAP	20	96	7
BRTAP	21	0	4
BRTAP	21	0	6
NMTAP	21	96	3
NMTAP	21	144	3
NMTAP	21	192	2
NMTAP	21	192	4
EXTAP	21	288	0
NMTAP	22	0	1
NMTAP	22	0	3
NMTAP	22	96	4
NMTAP	22	144	4
NMTAP	22	192	3
NMTAP	22	192	5
EXTAP	22	288	7
NMHLD	23	0	6	96
NMTAP	23	96	4
NMHLD	23	144	4	96
NMTAP	23	240	5
NMTAP	23	288	5
EXTAP	24	0	3
EXTAP	24	0	6
EXTAP	24	48	3
EXTAP	24	48	6
EXTAP	24	144	1
EXTAP	24	144	4
EXTAP	24	192	1
EXTAP	24	192	4
NMTAP	24	288	2
NMTAP	24	288	3
BRTAP	25	0	2
BRTAP	25	0	3
NMTAP	25	96	0
NMTAP	25	96	1
NMTAP	25	192	6
NMTAP	25	192	7
NMTAP	25	288	5
NMHLD	25	336	5	96
NMTAP	26	48	4
NMTAP	26	144	2
NMTAP	26	192	2
NMTAP	26	288	1
NMTAP	26	288	3
NMTAP	27	0	5
NMTAP	27	96	4
NMTAP	27	96	6
NMTAP	27	192	5
NMHLD	27	240	5	96
NMTAP	27	336	7
NMTAP	28	48	0
NMTAP	28	48	4
BRTAP	28	144	0
BRTAP	28	144	4
EXTAP	28	240	2
EXTAP	28	240	3
EXSTR	28	288	2
NMSCL	28	288	2	96	96	7
EXTAP	28	288	3
NMTAP	29	96	5
NMTAP	29	144	5
NMTAP	29	192	4
NMTAP	29	192	6
EXSTR	29	288	5
NMSCR	29	288	5	96	96	0
NMTAP	30	96	2
NMTAP	30	144	2
NMTAP	30	192	1
NMTAP	30	192	3
NMTAP	30	288	2
NMTAP	30	288	4
NMTAP	31	0	3
NMTAP	31	0	5
NMTAP	31	96	6
NMTAP	31	192	0
NMTAP	31	192	7
NMTAP	31	240	0
NMTAP	31	240	7
NMTAP	31	336	1
NMTAP	31	336	6
NMSTR	32	0	1
NMSLL	32	0	1	96	192	4
NMSTR	32	0	6
NMSLR	32	0	6	96	192	3
BXHLD	33	0	2	1296
BXTAP	33	0	5
NMHLD	34	0	4	192
NMHLD	35	0	3	192
NMTHO	36	0	0	192	C	1	M1
NMSTR	37	0	0
NMSCR	37	0	0	96	144	4
EXTAP	37	192	6
NMSTR	37	288	7
NMSI_	37	288	7	96	96	1
CNSI_	38	96	1	0	96	3
CNSI_	38	192	3	0	96	5
EXTAP	38	288	0
NMTAP	39	0	0
NMSTR	39	0	7
NMSCL	39	0	7	96	144	3
EXTAP	39	192	1
NMSTR	39	288	0
NMSI_	39	288	0	96	96	6
CNSI_	40	96	6	0	96	4
CNSI_	40	192	4	0	96	2
EXTAP	40	288	7
NMHLD	41	0	1	192
NMHLD	41	192	3	192
NMHLD	42	0	4	192
NMTAP	42	192	5
NMHLD	43	0	6	192
NMHLD	43	192	4	192
NMHLD	44	0	3	192
NMTAP	44	192	2
EXTAP	45	0	1
EXTAP	45	72	1
EXHLD	45	144	2	48
EXHLD	45	144	3	48
EXTAP	45	288	6
EXTAP	45	360	6
EXTAP	46	48	4
EXTAP	46	48	5
EXTAP	46	120	4
EXTAP	46	120	5
BXSTR	46	192	6
NMSI_	46	192	6	96	48	3
NMHLD	47	0	2	96
NMTAP	47	96	4
NMTAP	47	144	4
NMTAP	47	192	1
NMTAP	47	192	5
EXTAP	47	288	0
EXTAP	47	360	0
EXHLD	48	48	1	96
EXHLD	48	48	7	96
NMHLD	48	192	2	96
NMHLD	48	192	6	96
NMTHO	49	0	0	192	C	0	M1
NMTTP	49	0	4	B	0	M1
NMTTP	49	0	5	B	0	M1
NMTTP	49	0	5	E	1	M1
BXTAP	50	0	1
NMTAP	50	48	1
NMTAP	50	96	0
NMTAP	50	192	2
NMTAP	50	192	7
NMTAP	50	288	4
NMTAP	50	288	5
NMTAP	51	0	6
NMTAP	51	0	7
NMSTR	51	96	2
NMSCL	51	96	2	96	96	7
NMSTR	51	96	3
NMSUL	51	96	3	96	96	6
NMTAP	52	0	6
NMTAP	52	48	6
NMTAP	52	96	7
NMTAP	52	192	0
NMTAP	52	192	5
NMTAP	52	288	2
NMTAP	52	288	3
NMTAP	53	0	0
NMTAP	53	0	1
NMTAP	53	96	4
NMTAP	53	96	5
BXTAP	53	192	4
BXTAP	53	192	5
BXTAP	53	264	3
BXTAP	53	264	6
BXTAP	53	336	2
BXTAP	53	336	7
EXSTR	54	0	2
NMSI_	54	0	2	96	48	7
EXSTR	54	0	7
NMSI_	54	0	7	96	48	4
NMTAP	54	192	0
NMTAP	54	288	2
NMTAP	54	288	3
NMTAP	55	0	1
NMTAP	55	48	1
NMTAP	55	96	3
NMTAP	55	144	3
NMTAP	55	192	2
NMTAP	55	240	2
NMTAP	55	288	5
NMTAP	55	336	5
NMTAP	56	0	4
NMTAP	56	48	4
NMTAP	56	96	6
NMTAP	56	144	6
NMTAP	56	192	0
NMTAP	56	240	0
NMSTR	56	288	7
NMSF_	56	288	7	96	144	3
BRTAP	57	288	1
BRTAP	57	288	5
NMHLD	58	0	2	96
NMTAP	58	0	3
NMHLD	58	96	0	96
NMTAP	58	240	1
NMTAP	58	240	7
NMTAP	58	288	1
NMTAP	58	288	7
NMTAP	59	0	4
NMHLD	59	0	5	96
NMHLD	59	96	7	96
NMTAP	59	240	0
NMTAP	59	240	6
NMTAP	59	288	0
NMTAP	59	288	6
NMHLD	60	0	1	96
NMTAP	60	0	5
NMHLD	60	96	3	96
NMTAP	60	240	2
NMTAP	60	240	4
NMTAP	60	288	2
NMTAP	60	288	4
NMTAP	61	0	2
NMHLD	61	0	6	96
NMHLD	61	96	4	96
NMTAP	61	240	3
NMTAP	61	240	5
NMTAP	61	288	3
NMTAP	61	288	5
NMHLD	62	0	2	96
NMHLD	62	96	0	96
NMHLD	62	192	7	96
NMTAP	62	288	5
BRTAP	62	336	5
NMTAP	63	48	4
NMTAP	63	48	6
NMTAP	63	96	4
NMTAP	63	96	6
NMTAP	63	192	1
NMTAP	63	192	3
NMTAP	63	240	1
NMTAP	63	240	3
NMTAP	63	336	0
NMTAP	63	336	4
EXSTR	64	0	0
NMSI_	64	0	0	96	48	4
EXTAP	64	0	4
EXSTR	64	144	5
NMSI_	64	144	5	96	48	1
EXHLD	64	288	2	96
EXTAP	65	0	0
EXTAP	65	48	0
NMTAP	65	144	1
NMTAP	65	144	7
NMSTR	65	192	1
NMSI_	65	192	1	96	48	4
NMSTR	65	192	7
NMSI_	65	192	7	96	48	4
NMTTP	66	0	0	B	1	M1
NMTTP	66	0	0	C	0	M1
NMTTP	66	0	4	B	0	M1
NMHLD	70	0	2	384
NMHLD	71	0	3	384
NMHLD	72	0	4	480
BXHLD	73	0	5	96
EXTAP	73	144	3
EXTAP	73	144	6
EXSTR	73	192	3
NMSI_	73	192	3	96	96	0
EXTAP	73	192	6
NMTTP	74	0	6	B	0	M1
NMTTP	74	0	7	B	0	M1
NMTTP	74	0	7	E	1	M1
BXTAP	74	336	0
BXTAP	74	336	1
BXTAP	75	48	2
BXTAP	75	48	7
BXTAP	75	144	3
BXHLD	75	144	6	96
NMTAP	75	240	4
NMTAP	75	288	4
NMTAP	76	0	2
NMTAP	76	0	3
NMTAP	76	96	0
NMTAP	76	96	1
NMTAP	76	192	2
NMTAP	76	192	7
NMHLD	76	240	2	96
NMSTR	76	240	7
BRSI_	76	240	7	96	48	3
NMTAP	77	48	1
NMTAP	77	48	4
NMTAP	77	96	1
NMTAP	77	96	4
EXTAP	77	192	3
EXTAP	77	192	6
BRTAP	77	288	2
BRTAP	77	288	5
EXHLD	78	0	6	192
NMTAP	78	96	4
EXHLD	78	192	1	192
NMTAP	78	288	3
EXHLD	79	0	7	192
NMTAP	79	96	6
EXHLD	79	192	0	192
NMTAP	79	288	1
BXSTR	80	0	7
NMSF_	80	0	7	96	192	3
BXTAP	81	0	1
BXTAP	81	0	5
BXTAP	81	48	1
BXTAP	81	48	5
BXTAP	81	144	3
BXTAP	81	144	7
BXTAP	81	240	6
BXTAP	81	288	5
BXTAP	81	336	3
BXSTR	82	0	2
NMSCL	82	0	2	96	144	7
NMSUL	82	0	2	96	144	5
BXSTR	83	0	6
NMSCL	83	0	6	96	144	3
NMSUL	83	0	6	96	144	1
NMHLD	84	0	0	96
NMHLD	84	144	0	96
BXTAP	84	288	1
BXTAP	84	288	7
BXTAP	84	360	1
BXTAP	84	360	7
BXTAP	85	48	2
BXTAP	85	48	6
BXTAP	85	120	3
BXTAP	85	120	5
BXSTR	85	192	3
BRSI_	85	192	3	96	96	0
BXTAP	85	192	5
NMTAP	86	0	7
NMTAP	86	48	7
NMSTR	86	96	7
NMSCR	86	96	7	96	96	1
CNSI_	86	288	1	0	96	6
CNSI_	87	0	6	0	96	2
CNSI_	87	96	2	0	96	5
CNSCL	87	192	5	0	96	3
NMTHO	88	0	0	384	C	1	M1
NMTTP	88	0	1	B	0	M1
NMTTP	88	0	2	B	0	M1
NMTTP	88	0	2	E	0	M1
NMTAP	89	288	0
NMTAP	89	288	7
NMTAP	90	0	1
NMHLD	90	0	6	672
NMSTR	91	288	4
NMSI_	91	288	4	96	48	0
BRTAP	92	96	1
BRTAP	92	96	7
NMTAP	92	192	1
NMTAP	92	240	0
NMTAP	92	288	7
NMSTR	92	336	6
NMSI_	92	336	6	96	48	3
NMSTR	93	48	7
NMSI_	93	48	7	96	48	2
NMTAP	93	144	4
NMTAP	93	192	4
NMTAP	93	288	0
NMTAP	93	288	6
BRTAP	94	0	1
BRTAP	94	0	3
NMTAP	94	96	4
NMTAP	94	96	5
NMTAP	94	192	2
NMTAP	94	192	3
NMTAP	94	288	1
NMSTR	94	336	1
NMSI_	94	336	1	96	48	4
NMSTR	95	48	0
NMSI_	95	48	0	96	48	5
NMTAP	95	144	3
NMTAP	95	192	3
NMTAP	95	288	2
NMTAP	95	288	4
BRTAP	96	0	2
BRTAP	96	0	4
NMTAP	96	96	5
NMTAP	96	144	4
NMTAP	96	144	6
NMTAP	96	240	2
NMTAP	96	288	1
NMTAP	96	288	3
NMTAP	97	0	0
NMTAP	97	0	1
NMSTR	97	48	0
NMSI_	97	48	0	96	48	4
NMSTR	97	48	1
NMSI_	97	48	1	96	48	4
NMTAP	97	288	2
NMTAP	97	288	6
NMTAP	98	0	1
NMTAP	98	0	5
BRTAP	98	96	2
BRTAP	98	96	4
NMTAP	98	192	5
NMTAP	98	240	4
NMTAP	98	288	3
NMSTR	98	336	2
NMSI_	98	336	2	96	48	7
NMSTR	99	48	3
NMSI_	99	48	3	96	48	6
NMTAP	99	144	0
NMTAP	99	192	0
NMTAP	99	288	4
NMTAP	99	288	6
BRTAP	100	0	2
BRTAP	100	0	3
NMTAP	100	96	0
NMTAP	100	96	1
NMTAP	100	192	6
NMTAP	100	192	7
NMTAP	100	288	5
NMSTR	100	336	5
NMSI_	100	336	5	96	48	0
NMSTR	101	48	4
NMSI_	101	48	4	96	48	1
NMTAP	101	144	7
NMTAP	101	192	7
NMTAP	101	288	0
NMTAP	101	288	6
NMTAP	102	0	1
NMTAP	102	48	1
NMTAP	102	96	3
NMTAP	102	144	2
NMTAP	102	192	5
NMTAP	102	240	5
NMTAP	102	288	4
NMHLD	102	336	6	96
NMTAP	103	48	7
NMTAP	103	144	0
NMTAP	103	144	1
NMTAP	103	192	0
NMTAP	103	192	1
NMTAP	103	240	2
NMTAP	103	240	7
NMTAP	103	288	3
NMTAP	103	288	6
BRTAP	104	0	5
BRTAP	104	0	7
BRTAP	104	96	0
BRTAP	104	96	2
NMTAP	104	192	1
BXSTR	104	240	1
NMSI_	104	240	1	96	48	4
NMTAP	104	336	6
BXSTR	105	0	6
NMSI_	105	0	6	96	48	2
NMTAP	105	96	0
BXSTR	105	144	0
NMSI_	105	144	0	96	48	4
NMTAP	105	240	5
BXSTR	105	288	5
BRSCR	105	288	5	96	768	3
NMTHO	108	0	0	336	C	1	M1
BXTAP	109	48	0
BXTAP	109	96	0
BXTAP	109	144	0
NMTAP	109	240	1
NMTAP	109	240	7
BRTAP	109	288	1
BRTAP	109	288	7
NMTAP	110	0	6
NMTAP	110	48	6
NMTAP	110	96	7
NMTAP	110	144	5
NMTAP	110	192	1
NMTAP	110	240	1
NMTAP	110	288	0
NMSTR	110	336	2
NMSI_	110	336	2	96	48	5
NMSTR	111	48	6
NMSI_	111	48	6	96	48	1
NMTAP	111	144	4
NMTAP	111	192	4
BRTAP	111	288	2
BRTAP	111	288	7
NMTAP	112	0	6
NMTAP	112	48	6
NMTAP	112	96	1
NMTAP	112	144	1
NMTAP	112	192	7
NMTAP	112	216	0
NMTAP	112	240	7
NMTAP	112	264	0
BRSTR	112	288	7
NMSCL	112	288	7	96	288	2
NMSTR	113	288	1
NMSI_	113	288	1	96	48	5

T_REC_TAP	267
T_REC_BRK	29
T_REC_XTP	41
T_REC_BXX	34
T_REC_HLD	38
T_REC_XHO	17
T_REC_BHO	0
T_REC_BXH	5
T_REC_STR	30
T_REC_BST	1
T_REC_XST	7
T_REC_XBS	9
T_REC_TTP	16
T_REC_THO	4
T_REC_SLD	46
T_REC_BSL	3
T_REC_ALL	547
T_NUM_TAP	361
T_NUM_BRK	81
T_NUM_HLD	59
T_NUM_SLD	46
T_NUM_ALL	547
T_JUDGE_TAP	434
T_JUDGE_HLD	230
T_JUDGE_SLD	49
T_JUDGE_ALL	713
TTM_EACHPAIRS	135
TTM_SCR_TAP	180500
TTM_SCR_BRK	210600
TTM_SCR_HLD	59000
TTM_SCR_SLD	69000
TTM_SCR_ALL	519100
TTM_SCR_S	495700
TTM_SCR_SS	511000
TTM_RAT_ACV	10158

