VERSION	0.00.00	1.05.00
FES_MODE	0
BPM_DEF	190.000	190.000	190.000	190.000
MET_DEF	4	4
RESOLUTION	384
CLK_DEF	384
COMPATIBLE_CODE	MA2

BPM	0	0	190.000
MET	0	0	4	4

NMHLD	1	0	5	384
NMHLD	2	0	4	384
NMHLD	3	0	3	384
NMTAP	4	0	2
NMHLD	5	0	2	384
NMHLD	6	0	3	384
NMHLD	7	0	4	384
NMTAP	8	0	5
NMTAP	9	0	3
NMTAP	9	96	3
NMTAP	9	192	3
NMTAP	10	0	2
NMTAP	10	96	2
NMTAP	10	192	2
NMTAP	11	0	1
NMTAP	11	96	1
NMTAP	11	192	1
NMTAP	12	0	0
NMTAP	12	0	7
NMTAP	13	0	7
NMTAP	13	96	7
NMTAP	13	192	7
NMTAP	14	0	6
NMTAP	14	96	6
NMTAP	14	192	6
NMTAP	15	0	5
NMTAP	15	96	5
NMTAP	15	192	5
NMTAP	16	0	3
NMTAP	16	0	4
NMTAP	17	0	5
NMTAP	17	96	5
NMTAP	17	192	4
NMTAP	17	192	5
NMTAP	18	0	6
NMTAP	18	96	6
NMTAP	18	192	6
NMTAP	18	192	7
NMTAP	19	0	0
NMTAP	19	96	0
NMTAP	19	192	0
NMTAP	19	192	1
NMTAP	20	0	2
NMTAP	20	0	3
NMTAP	20	96	2
NMTAP	20	96	3
NMTAP	20	192	2
NMTAP	20	192	3
NMTAP	21	0	2
NMTAP	21	96	2
NMTAP	21	192	2
NMTAP	21	192	3
NMTAP	22	0	1
NMTAP	22	96	1
NMTAP	22	192	0
NMTAP	22	192	1
NMTAP	23	0	7
NMTAP	23	96	7
NMTAP	23	192	6
NMTAP	23	192	7
NMTAP	24	0	4
NMTAP	24	0	5
NMTAP	24	96	4
NMTAP	24	96	5
NMTAP	24	192	4
NMTAP	24	192	5
NMTAP	25	0	5
NMTAP	25	96	5
NMTAP	25	192	6
NMTAP	25	288	6
NMTAP	26	0	7
NMTAP	26	96	7
NMTAP	26	192	0
NMTAP	26	192	1
NMTAP	27	0	2
NMTAP	27	96	2
NMTAP	27	192	1
NMTAP	27	288	1
NMTAP	28	0	0
NMTAP	28	96	0
NMTAP	28	192	6
NMTAP	28	192	7
NMTAP	29	0	6
NMTAP	29	96	6
NMTAP	29	192	5
NMTAP	29	288	5
NMTAP	30	0	4
NMTAP	30	96	4
NMTAP	30	192	2
NMTAP	30	192	3
NMTAP	31	0	1
NMTAP	31	96	1
NMTAP	31	192	2
NMTAP	31	288	2
NMTAP	32	0	3
NMTAP	32	96	3
BXTAP	32	192	4
BXTAP	32	192	5
NMSTR	33	0	6
NMSI_	33	0	6	96	288	3
NMTAP	34	192	2
NMSTR	35	0	1
NMSI_	35	0	1	96	288	4
NMTAP	36	192	5
NMSTR	37	0	6
NMSUL	37	0	6	96	288	2
NMTAP	38	192	1
NMSTR	39	0	1
NMSUR	39	0	1	96	288	5
NMHLD	41	0	6	192
NMTAP	41	192	7
NMTAP	42	0	6
NMTAP	42	0	7
NMTAP	42	192	6
NMTAP	42	192	7
NMHLD	43	0	5	192
NMTAP	43	192	4
NMTAP	44	0	4
NMTAP	44	0	5
NMTAP	44	192	4
NMTAP	44	192	5
EXHLD	45	0	2	192
EXTAP	45	192	3
EXTAP	46	0	2
EXTAP	46	0	3
EXTAP	46	192	2
EXTAP	46	192	3
NMHLD	47	0	1	192
NMTAP	47	192	0
NMTAP	48	0	0
NMTAP	48	0	1
NMTAP	48	192	0
NMTAP	48	192	1
NMHLD	49	0	0	192
NMHLD	49	0	7	192
NMTAP	50	0	6
NMTAP	50	96	6
NMTAP	50	192	7
NMTAP	50	288	7
NMTAP	51	0	0
NMTAP	51	96	0
NMTAP	51	192	0
NMTAP	51	192	1
NMTAP	51	288	0
NMTAP	51	288	1
NMTAP	52	0	2
NMTAP	52	96	2
NMTAP	52	192	1
NMTAP	52	288	1
NMTAP	53	0	0
NMTAP	53	96	0
NMTAP	53	192	6
NMTAP	53	192	7
NMTAP	54	0	6
NMTAP	54	96	6
NMTAP	54	192	5
NMTAP	54	288	5
NMTAP	55	0	4
NMTAP	55	96	4
NMTAP	55	192	2
NMTAP	55	192	3
NMTAP	55	288	2
NMTAP	55	288	3
NMTAP	56	0	1
NMTAP	56	96	1
NMTAP	56	192	2
NMTAP	56	288	2
NMTAP	57	0	3
NMTAP	57	96	3
NMTAP	57	192	4
NMTAP	57	192	5
NMTAP	58	0	5
NMTAP	58	96	5
NMTAP	58	192	6
NMTAP	58	192	7
NMTAP	58	288	6
NMTAP	58	288	7
NMTAP	59	0	0
NMTAP	59	96	0
NMTAP	59	192	0
NMTAP	59	192	1
NMTAP	60	0	2
NMTAP	60	96	2
NMTAP	60	192	0
NMTAP	60	192	1
NMTAP	60	288	0
NMTAP	60	288	1
NMTAP	61	0	7
NMTAP	61	96	7
NMTAP	61	192	6
NMTAP	61	192	7
NMTAP	62	0	6
NMTAP	62	96	6
NMTAP	62	192	4
NMTAP	62	192	5
NMTAP	62	288	4
NMTAP	62	288	5
NMTAP	63	0	3
NMTAP	63	96	3
NMTAP	63	192	2
NMTAP	63	192	3
NMTAP	64	0	1
NMTAP	64	96	1
NMTAP	64	192	2
NMTAP	64	192	3
NMTAP	64	288	2
NMTAP	64	288	3
NMTAP	65	0	4
NMTAP	65	96	4
NMTAP	65	192	4
NMTAP	65	192	5
NMTTP	66	0	6	B	0	L1
NMTTP	66	192	5	B	0	L1
NMTTP	67	0	4	B	0	L1
NMTTP	68	0	1	B	0	L1
NMTTP	68	192	2	B	0	L1
NMTTP	69	0	3	B	0	L1
NMTTP	70	0	6	E	0	L1
NMTTP	70	192	5	E	0	L1
NMTTP	71	0	4	E	0	L1
NMTTP	71	192	3	E	0	L1
NMTHO	72	0	0	384	C	1	L1
NMTAP	74	0	0
NMTAP	74	96	0
NMTAP	74	192	1
NMTAP	75	0	2
NMTAP	75	96	2
NMTAP	75	192	3
NMTAP	76	0	4
NMTAP	76	96	4
NMTAP	76	192	5
NMTAP	77	0	6
NMTAP	77	96	6
NMTAP	77	192	6
NMTAP	77	192	7
NMTAP	78	0	7
NMTAP	78	96	7
NMTAP	78	192	6
NMTAP	79	0	5
NMTAP	79	96	5
NMTAP	79	192	4
NMTAP	80	0	3
NMTAP	80	96	3
NMTAP	80	192	2
NMTAP	81	0	1
NMTAP	81	96	1
NMTAP	81	192	0
NMTAP	81	192	1
NMSTR	82	0	0
NMSI_	82	0	0	96	288	5
NMSTR	82	0	1
NMSI_	82	0	1	96	288	4
NMTAP	83	192	6
NMTAP	83	192	7
NMSTR	84	0	6
NMSI_	84	0	6	96	288	3
NMSTR	84	0	7
NMSI_	84	0	7	96	288	2
NMTAP	85	192	0
NMTAP	85	192	1
NMTAP	86	0	0
NMTAP	86	96	0
NMTAP	86	192	1
NMTAP	86	288	1
NMTAP	87	0	2
NMTAP	87	96	2
NMTAP	87	192	3
NMTAP	87	288	3
NMTAP	88	0	4
NMTAP	88	96	4
NMTAP	88	192	5
NMTAP	88	288	5
NMTAP	89	0	6
NMTAP	89	96	6
NMTAP	89	192	0
NMTAP	89	192	7
NMSTR	90	0	0
NMSI_	90	0	0	96	288	3
NMSTR	90	0	7
NMSI_	90	0	7	96	288	4
NMTAP	92	0	5
NMTAP	92	96	5
NMTAP	92	192	6
NMTAP	92	192	7
NMTAP	92	288	6
NMTAP	92	288	7
NMTAP	93	0	0
NMTAP	93	96	0
BRTAP	93	192	0
BRTAP	93	192	1
NMTAP	94	0	1
NMTAP	94	96	1
NMTAP	94	192	2
NMTAP	94	192	3
NMTAP	94	288	2
NMTAP	94	288	3
NMTAP	95	0	4
NMTAP	95	96	4
NMTAP	95	192	4
NMTAP	95	192	5
NMTAP	95	288	4
NMTAP	95	288	5
NMTAP	96	0	6
NMTAP	96	96	6
NMTAP	96	192	4
NMTAP	96	192	5
NMTAP	96	288	4
NMTAP	96	288	5
NMTAP	97	0	3
NMTAP	97	96	3
NMTAP	97	192	2
NMTAP	97	192	3
NMTAP	98	0	1
NMTAP	98	96	1
NMTAP	98	192	1
NMTAP	98	288	0
NMTAP	98	288	1
NMTAP	99	0	2
NMTAP	99	96	2
NMTAP	99	192	2
NMTAP	99	288	2
NMTAP	99	288	3
NMTAP	100	0	4
NMTAP	100	96	4
NMTAP	100	192	4
NMTAP	100	288	4
NMTAP	100	288	5
NMTAP	101	0	6
NMTAP	101	0	7
NMTAP	101	96	6
NMTAP	101	96	7
NMTAP	101	192	6
NMTAP	101	192	7
NMTAP	102	0	6
NMTAP	102	96	6
NMTAP	102	192	6
NMTAP	102	288	6
NMTAP	102	288	7
NMTAP	103	0	5
NMTAP	103	96	5
NMTAP	103	192	5
NMTAP	103	288	4
NMTAP	103	288	5
NMTAP	104	0	3
NMTAP	104	96	3
NMTAP	104	192	3
NMTAP	104	288	2
NMTAP	104	288	3
NMTAP	105	0	0
NMTAP	105	0	1
NMTAP	105	96	0
NMTAP	105	96	1
NMTAP	105	192	0
NMTAP	105	192	1
NMHLD	106	0	1	192
NMTAP	106	192	0
NMTAP	107	0	0
NMTAP	107	0	1
NMTAP	107	96	0
NMTAP	107	96	1
NMTAP	107	192	0
NMTAP	107	192	1
NMHLD	108	0	6	192
NMTAP	108	192	7
NMTAP	109	0	6
NMTAP	109	0	7
NMTAP	109	96	6
NMTAP	109	96	7
NMTAP	109	192	6
NMTAP	109	192	7
NMTAP	110	0	0
NMTAP	110	0	1
NMTAP	110	96	0
NMTAP	110	96	1
NMTAP	110	192	2
NMTAP	110	192	7
NMTAP	110	288	2
NMTAP	110	288	7
NMTAP	111	0	3
NMTAP	111	0	6
NMTAP	111	96	3
NMTAP	111	96	6
NMTAP	111	192	4
NMTAP	111	192	5
NMTAP	112	0	6
NMTAP	112	0	7
NMTAP	112	96	6
NMTAP	112	96	7
NMTAP	112	192	0
NMTAP	112	192	5
NMTAP	112	288	0
NMTAP	112	288	5
NMTAP	113	0	1
NMTAP	113	0	4
NMTAP	113	96	1
NMTAP	113	96	4
NMTAP	113	192	2
NMTAP	113	192	3
NMTAP	113	288	2
NMTAP	113	288	3
NMTAP	114	0	1
NMTAP	114	0	4

T_REC_TAP	348
T_REC_BRK	2
T_REC_XTP	5
T_REC_BXX	2
T_REC_HLD	13
T_REC_XHO	1
T_REC_BHO	0
T_REC_BXH	0
T_REC_STR	10
T_REC_BST	0
T_REC_XST	0
T_REC_XBS	0
T_REC_TTP	10
T_REC_THO	1
T_REC_SLD	10
T_REC_BSL	0
T_REC_ALL	402
T_NUM_TAP	373
T_NUM_BRK	4
T_NUM_HLD	15
T_NUM_SLD	10
T_NUM_ALL	402
T_JUDGE_TAP	377
T_JUDGE_HLD	88
T_JUDGE_SLD	10
T_JUDGE_ALL	475
TTM_EACHPAIRS	97
TTM_SCR_TAP	186500
TTM_SCR_BRK	10400
TTM_SCR_HLD	15000
TTM_SCR_SLD	15000
TTM_SCR_ALL	226900
TTM_SCR_S	219750
TTM_SCR_SS	226500
TTM_RAT_ACV	10017

