VERSION	0.00.00	1.05.00
FES_MODE	0
BPM_DEF	174.000	174.000	174.000	174.000
MET_DEF	4	4
RESOLUTION	384
CLK_DEF	384
COMPATIBLE_CODE	MA2

BPM	0	0	174.000
MET	0	0	4	4

NMSTR	2	0	5
NMSCL	2	0	5	96	240	2
NMTAP	2	288	1
NMHLD	2	336	1	240
NMTTP	3	192	3	E	0	M1
NMSTR	4	0	2
NMSCR	4	0	2	96	240	5
NMTAP	4	288	6
NMHLD	4	336	6	240
NMTAP	5	192	4
EXTAP	5	288	3
EXTAP	5	288	5
NMSTR	6	0	5
NMSI_	6	0	5	96	192	2
NMTAP	6	288	1
NMHLD	6	336	1	288
NMTAP	7	48	3
NMTAP	7	144	2
NMTAP	7	240	0
NMTAP	7	288	0
NMHLD	8	0	1	96
NMHLD	8	0	3	96
NMHLD	8	144	4	96
NMHLD	8	144	6	96
NMTAP	8	288	0
NMTAP	8	288	7
NMTTP	9	96	3	E	0	M1
NMTAP	9	96	6
NMTAP	9	192	1
NMTTP	9	192	5	E	0	M1
NMTTP	9	288	0	C	0	M1
NMTAP	9	288	7
NMSTR	10	0	1
NMSI_	10	0	1	96	48	7
NMSTR	10	0	5
NMSI_	10	0	5	96	48	7
NMTTP	10	96	1	A	1	M1
NMTTP	10	96	5	A	0	M1
BRTAP	10	192	0
BRTAP	10	192	6
NMTAP	10	288	5
NMTAP	10	336	6
NMSTR	11	0	7
NMSI_	11	0	7	96	48	2
NMTAP	11	48	0
NMHLD	11	96	1	288
NMTAP	11	240	3
NMSTR	11	288	3
NMSXR	11	288	3	96	96	3
NMSTR	12	0	3
NMSXL	12	0	3	96	96	3
NMTAP	12	288	2
NMTAP	12	336	2
NMSTR	13	48	0
NMSCL	13	48	0	96	48	5
NMTAP	13	48	1
NMTAP	13	240	2
NMTAP	13	240	4
NMTAP	13	288	2
NMTAP	13	288	4
NMSTR	14	0	1
NMSI_	14	0	1	96	48	4
NMSTR	14	0	3
NMSI_	14	0	3	96	48	6
NMTAP	14	192	3
NMTAP	14	192	7
NMTAP	14	288	6
NMTAP	14	336	5
NMTAP	15	0	4
NMTAP	15	48	3
NMTAP	15	96	2
NMHLD	15	96	6	480
NMTAP	15	240	4
NMTAP	15	288	4
NMSTR	16	0	7
NMSI_	16	0	7	96	48	1
NMHLD	16	192	2	96
NMTAP	16	288	0
NMHLD	16	336	0	96
NMHLD	17	48	7	96
NMHLD	17	144	5	96
NMTAP	17	240	4
BRTAP	17	288	3
BRTAP	17	288	6
NMTAP	18	0	1
NMTAP	18	0	4
NMTAP	18	96	2
NMTAP	18	144	2
NMTAP	18	192	3
NMTAP	18	240	4
NMSTR	18	288	5
NMSI_	18	288	5	96	48	0
NMTAP	19	96	2
NMTAP	19	144	2
NMTAP	19	192	3
NMTAP	19	240	4
NMSTR	19	288	5
NMSI_	19	288	5	96	48	1
NMTAP	20	96	2
NMTAP	20	144	2
NMTAP	20	192	3
NMTAP	20	240	4
NMTAP	20	288	5
NMTAP	20	336	3
NMTAP	21	0	4
NMTAP	21	48	3
NMSTR	21	96	2
NMSCR	21	96	2	96	96	5
NMSTR	21	96	5
NMSI_	21	96	5	96	96	2
NMTAP	22	0	1
NMTAP	22	48	0
NMTAP	22	96	2
NMTAP	22	96	7
NMTAP	22	192	6
NMTAP	22	240	7
NMTAP	22	288	0
NMTAP	22	288	5
NMSTR	23	0	1
NMSI_	23	0	1	96	48	7
NMSTR	23	96	6
NMSI_	23	96	6	96	48	2
NMSTR	23	192	3
NMSI_	23	192	3	96	48	0
NMTAP	23	288	7
NMTAP	24	0	6
NMTAP	24	48	6
NMTAP	24	96	0
NMTAP	24	96	5
NMTAP	24	144	1
NMTAP	24	192	2
NMTAP	24	192	7
NMTAP	24	240	6
NMTAP	24	288	3
NMTAP	24	288	5
NMTAP	25	0	2
NMTAP	25	0	6
NMSTR	25	48	2
NMSI_	25	48	2	96	48	0
NMSTR	25	48	6
NMSI_	25	48	6	96	48	0
NMSTR	25	144	2
NMSI_	25	144	2	96	48	4
NMSTR	25	144	6
NMSI_	25	144	6	96	48	4
NMTAP	25	240	2
NMTAP	25	240	6
BRTAP	25	336	2
BRTAP	25	336	6
EXTAP	26	48	1
EXSTR	26	96	1
BRSLR	26	96	1	96	384	5
NMTTP	26	288	2	B	0	M1
NMTTP	26	288	3	B	0	M1
NMTTP	27	96	0	C	0	M1
NMTTP	27	192	7	E	0	M1
NMTAP	28	0	4
NMSTR	28	0	6
BRSLL	28	0	6	96	480	1
NMTTP	28	192	4	B	0	M1
NMTTP	28	192	5	B	0	M1
NMTTP	28	192	5	E	0	M1
NMTTP	29	96	0	C	0	M1
NMTTP	29	192	0	E	0	M1
NMTAP	30	0	0
NMHLD	30	0	1	96
NMTAP	30	96	3
NMTAP	30	144	3
NMTAP	30	192	2
NMTAP	30	288	5
NMHLD	30	336	5	96
NMTAP	31	48	4
NMTAP	31	96	6
EXHLD	31	144	3	144
EXHLD	31	144	7	144
NMTAP	32	0	6
NMTAP	32	48	6
NMTAP	32	96	4
NMTAP	32	144	5
NMSTR	32	192	3
NMSXL	32	192	3	96	96	3
NMSXR	32	192	3	96	96	3
NMTAP	32	288	3
EXTAP	33	48	1
EXTAP	33	48	5
EXTAP	33	96	1
EXTAP	33	96	5
NMSTR	33	192	0
NMSCL	33	192	0	96	96	2
NMTAP	33	240	6
NMTAP	33	288	0
NMSTR	34	0	1
NMSF_	34	0	1	96	48	5
EXTAP	34	96	1
BRTAP	34	192	3
BRTAP	34	192	7
NMTAP	34	288	4
NMTAP	34	288	6
NMTAP	34	336	7
NMTAP	35	0	0
NMTAP	35	48	1
NMTAP	35	96	2
NMSTR	35	144	3
NMSCL	35	144	3	96	48	0
NMTAP	35	144	5
NMSTR	35	240	6
NMSCL	35	240	6	96	48	3
NMSTR	35	336	1
NMSXL	35	336	1	96	144	6
NMHLD	36	48	5	192
NMTAP	36	240	7
NMTAP	36	288	0
NMSTR	36	336	1
NMSI_	36	336	1	96	48	6
NMSTR	36	336	5
NMSI_	36	336	5	96	48	2
BRTAP	37	48	1
BRTAP	37	48	5
NMTAP	37	144	0
NMTAP	37	144	4
NMTAP	37	192	0
NMTAP	37	192	4
NMTTP	37	288	3	B	0	M1
NMTTP	37	288	3	E	0	M1
NMTTP	37	288	5	B	0	M1
NMTTP	37	288	6	E	0	M1
NMTAP	38	0	1
NMTAP	38	0	7
NMTAP	38	48	0
NMTAP	38	96	7
NMTAP	38	144	6
NMTAP	38	192	4
NMTAP	38	192	5
NMTAP	38	288	6
NMTAP	38	288	7
NMSTR	38	336	6
NMSI_	38	336	6	96	48	3
NMSTR	38	336	7
NMSI_	38	336	7	96	48	3
NMTAP	39	48	6
NMTAP	39	48	7
NMSTR	39	144	0
NMSUR	39	144	0	96	48	4
NMSTR	39	144	1
NMSI_	39	144	1	96	48	4
NMTAP	39	240	0
NMTAP	39	240	1
BRTAP	39	336	2
NMHLD	39	336	6	384
NMTAP	40	48	1
NMTAP	40	96	0
NMTAP	40	144	7
NMTAP	40	192	5
NMSTR	40	240	5
NMSI_	40	240	5	96	48	0
NMTAP	41	48	1
NMTAP	41	48	5
NMTAP	41	144	3
NMTAP	41	144	7
NMSTR	41	192	6
NMSI_	41	192	6	96	48	3
NMTAP	41	240	4
NMTAP	41	288	6
NMSTR	41	336	2
NMSI_	41	336	2	96	48	7
NMTAP	42	0	0
NMTAP	42	48	2
EXSTR	42	96	5
NMSUL	42	96	5	96	48	1
NMSV_	42	96	5	96	48	0
BRTAP	42	192	5
NMTAP	42	288	2
NMTAP	42	288	7
NMTAP	42	336	3
NMTAP	43	0	5
NMTAP	43	48	6
NMTAP	43	96	0
NMTAP	43	144	1
NMSTR	43	144	7
NMSI_	43	144	7	96	48	4
NMSTR	43	240	3
NMSI_	43	240	3	96	48	0
NMSTR	43	336	6
NMSI_	43	336	6	96	48	2
NMHLD	44	48	7	288
EXTAP	44	144	3
NMTAP	44	240	2
NMTAP	44	288	2
NMSTR	44	336	2
NMSCR	44	336	2	96	96	0
NMTAP	45	48	0
NMHLD	45	144	2	96
NMTAP	45	240	0
NMTAP	45	288	3
NMTAP	45	288	7
NMTAP	46	0	4
NMTAP	46	0	5
NMTAP	46	48	6
NMTAP	46	96	7
NMTAP	46	144	0
NMSTR	46	192	1
NMSLL	46	192	1	96	144	5
NMTAP	46	288	5
NMSTR	46	336	5
NMSCL	46	336	5	96	96	2
NMSTR	47	48	2
NMSCL	47	48	2	96	96	7
NMSTR	47	144	7
NMSCL	47	144	7	96	96	4
NMTAP	47	240	3
NMTAP	47	288	3
EXTAP	48	0	1
EXTAP	48	0	7
NMTAP	48	48	0
NMTAP	48	96	0
EXTAP	48	144	5
EXTAP	48	144	7
NMTAP	48	192	6
NMTAP	48	240	6
EXTAP	48	288	1
EXTAP	48	288	3
NMTAP	48	336	2
NMTAP	49	0	2
NMTAP	49	48	4
NMTAP	49	48	5
EXTAP	49	96	3
EXTAP	49	96	7
NMTAP	49	192	6
NMTAP	49	216	5
NMTAP	49	240	4
NMTAP	49	264	3
NMTAP	49	288	0
NMTAP	49	312	1
NMTAP	49	336	2
NMTAP	49	360	3
NMSTR	50	0	0
NMSSL	50	0	0	96	480	4
NMTAP	50	0	4
NMTTP	51	192	0	C	0	M1
NMHLD	52	0	6	192
NMTAP	52	96	5
NMHLD	52	192	4	192
NMSTR	52	288	5
NMSCL	52	288	5	96	192	2
NMTAP	53	288	1
NMTAP	53	352	1
NMTAP	54	0	3
NMTAP	54	64	3
NMSTR	54	96	2
NMSI_	54	96	2	96	48	4
NMTAP	54	288	6
NMTAP	54	352	6
NMTAP	55	0	4
NMTAP	55	64	4
NMSTR	55	96	5
NMSI_	55	96	5	96	48	3
NMHLD	55	288	1	768
NMSTR	56	0	2
NMSCR	56	0	2	96	192	6
NMSTR	57	0	6
NMSSL	57	0	6	96	192	2
NMTAP	58	0	1
NMTAP	58	96	1
NMTAP	58	160	3
NMTAP	58	192	2
NMTAP	58	288	1
NMTAP	58	288	4
NMTAP	59	0	1
NMTAP	59	64	3
NMTAP	59	96	2
NMTAP	59	160	4
NMTAP	59	192	3
NMTAP	59	256	5
NMTAP	59	288	4
NMTAP	59	288	5
NMTAP	60	0	6
NMTAP	60	96	6
NMTAP	60	160	4
NMTAP	60	192	5
NMTAP	60	288	3
NMTAP	60	288	6
NMTAP	61	0	6
NMTAP	61	64	4
NMTAP	61	96	5
NMTAP	61	160	3
NMTAP	61	192	4
NMTAP	61	256	2
NMTAP	61	288	2
NMTAP	61	288	3
NMHLD	62	0	1	96
NMHLD	62	0	3	96
NMTAP	62	144	2
NMTAP	62	144	4
NMTAP	62	240	3
NMTAP	62	240	5
NMHLD	62	336	2	96
NMHLD	62	336	6	96
NMTAP	63	96	2
NMTAP	63	96	6
NMTAP	63	192	5
NMTAP	63	240	4
NMTAP	63	288	3
NMTAP	63	288	7
NMTAP	64	0	4
NMTAP	64	0	6
NMTAP	64	48	6
NMTAP	64	96	3
NMTAP	64	96	5
NMTAP	64	144	3
NMSTR	64	192	2
NMSUL	64	192	2	96	96	5
NMSTR	64	192	6
NMSUL	64	192	6	96	96	1
NMTAP	65	96	2
NMTAP	65	96	6
NMSTR	65	192	0
NMSCL	65	192	0	96	48	6
NMSTR	65	240	6
NMSCL	65	240	6	96	96	2
NMTAP	65	288	4
NMSTR	66	0	1
BRSF_	66	0	1	96	48	5
BRTAP	66	96	1
NMTAP	66	192	3
NMTAP	66	192	7
NMTAP	66	288	4
NMTAP	66	288	5
NMTAP	66	336	6
NMTAP	67	0	7
NMTAP	67	48	0
NMTAP	67	96	1
NMTAP	67	144	2
NMSTR	67	144	6
BRSCR	67	144	6	96	48	1
NMSTR	67	240	4
NMSI_	67	240	4	96	48	0
NMSTR	67	336	7
NMSXR	67	336	7	96	144	2
NMHLD	68	48	1	192
NMTAP	68	240	0
NMTAP	68	288	7
NMSTR	68	336	6
NMSI_	68	336	6	96	48	2
NMSLR	68	336	6	96	48	2
BRTAP	69	48	6
EXTAP	69	144	3
EXTAP	69	192	3
NMTAP	69	288	1
NMTAP	69	288	5
NMTAP	70	0	2
NMTAP	70	0	3
NMTAP	70	48	1
NMTAP	70	96	0
NMTAP	70	96	7
NMTAP	70	144	6
NMTAP	70	192	4
NMTAP	70	192	5
NMTAP	70	288	6
NMTAP	70	288	7
NMSTR	70	336	6
NMSI_	70	336	6	96	48	3
NMSTR	70	336	7
NMSI_	70	336	7	96	48	2
NMTTP	71	48	6	A	0	M1
NMTTP	71	48	7	A	0	M1
NMTTP	71	48	7	D	1	M1
NMSTR	71	144	0
NMSI_	71	144	0	96	48	5
NMSTR	71	144	1
NMSI_	71	144	1	96	48	4
NMTTP	71	240	0	A	0	M1
NMTTP	71	240	1	A	0	M1
NMTTP	71	240	1	D	1	M1
NMHLD	71	336	2	384
BRTAP	71	336	6
NMTAP	72	48	5
NMTAP	72	96	4
NMTAP	72	144	3
NMTAP	72	192	1
NMSTR	72	240	1
NMSI_	72	240	1	96	48	6
NMTAP	73	48	1
NMTAP	73	48	5
NMTAP	73	144	3
NMTAP	73	144	7
NMSTR	73	192	2
NMSCR	73	192	2	96	48	5
NMTAP	73	240	0
NMTAP	73	288	2
NMSTR	73	336	6
NMSCR	73	336	6	96	48	1
NMTAP	74	0	4
NMTAP	74	48	6
NMSTR	74	96	3
NMSI_	74	96	3	96	48	0
NMSI_	74	96	3	96	48	6
BRTAP	74	192	3
NMTAP	74	288	1
NMTAP	74	288	5
NMTAP	74	336	6
NMTAP	75	0	4
NMTAP	75	48	3
NMTAP	75	96	1
NMTAP	75	144	0
NMSTR	75	144	7
NMSI_	75	144	7	96	48	3
NMSTR	75	240	2
NMSI_	75	240	2	96	48	6
NMSTR	75	336	4
NMSUL	75	336	4	96	48	0
NMHLD	76	48	7	288
EXTAP	76	144	1
NMTAP	76	240	2
NMTAP	76	288	2
NMSTR	76	336	2
BRSLL	76	336	2	96	48	6
NMTTP	77	48	0	E	1	M1
CNSI_	77	96	6	0	48	4
NMHLD	77	144	1	96
NMTAP	77	240	3
NMTAP	77	288	0
NMTAP	77	288	4
NMTAP	78	0	5
NMTAP	78	0	7
NMTAP	78	48	6
NMTAP	78	96	0
NMTAP	78	96	7
NMTAP	78	144	1
NMSTR	78	192	2
NMSUL	78	192	2	96	144	7
NMTAP	78	288	7
NMSTR	78	336	7
NMSCL	78	336	7	96	96	4
NMSTR	79	48	4
NMSCL	79	48	4	96	96	1
NMSTR	79	144	1
NMSCL	79	144	1	96	96	6
NMTAP	79	240	4
NMTAP	79	288	4
NMTAP	80	0	5
NMHLD	80	0	7	48
NMTAP	80	48	6
NMTAP	80	96	6
NMHLD	80	144	0	48
NMTAP	80	144	2
NMTAP	80	192	1
NMTAP	80	240	1
NMTAP	80	288	0
NMTAP	80	288	7
NMSTR	80	336	6
NMSI_	80	336	6	96	48	2
NMSTR	81	0	1
NMSI_	81	0	1	96	48	5
NMTAP	81	48	6
BRTAP	81	96	1
NMTAP	81	192	0
NMTAP	81	216	1
NMTAP	81	240	2
NMTAP	81	264	3
NMTAP	81	288	4
NMTAP	81	312	5
NMTAP	81	336	6
NMTAP	81	360	7
NMTAP	82	0	0
NMTTP	82	0	0	C	1	M1
NMTAP	82	288	0
NMTAP	82	288	7
NMTAP	83	0	1
NMTAP	83	48	1
NMTAP	83	96	0
NMSTR	83	96	2
NMSI_	83	96	2	96	48	5
NMTAP	83	192	7
NMTAP	83	240	7
NMTAP	83	288	0
NMTAP	83	288	6
NMSTR	84	0	5
NMSI_	84	0	5	96	48	0
NMTAP	84	96	4
NMSTR	84	192	2
NMSI_	84	192	2	96	48	6
NMTAP	84	240	0
NMTAP	84	288	0
NMSTR	85	0	7
NMSCL	85	0	7	96	96	3
NMSTR	85	96	3
NMSLR	85	96	3	96	96	7
NMSTR	85	192	7
NMSCR	85	192	7	96	96	2
NMSTR	85	288	2
NMSV_	85	288	2	96	48	7
NMHLD	86	0	4	96
NMHLD	86	96	0	96
NMTAP	86	192	3
NMTAP	86	240	3
NMTAP	86	288	1
NMTAP	86	288	5
NMTAP	87	0	5
NMTAP	87	48	6
NMTAP	87	96	1
NMTAP	87	96	7
NMTAP	87	144	2
NMTAP	87	192	3
NMTAP	87	192	5
NMTAP	87	240	6
BXTAP	87	288	0
BXTAP	87	288	7
NMTAP	88	0	6
NMTAP	88	48	6
NMTAP	88	96	4
NMTAP	88	144	3
NMTAP	88	192	3
NMTAP	88	240	1
NMTAP	88	288	0
NMHLD	88	288	4	192
EXTAP	89	0	0
NMTAP	89	24	1
NMTAP	89	48	2
NMTAP	89	72	3
NMTAP	89	120	5
NMTAP	89	144	6
NMTAP	89	168	7
EXTAP	89	192	0
EXTAP	89	192	4
NMTAP	89	216	3
NMTAP	89	240	2
NMTAP	89	264	1
NMTAP	89	288	0
NMTAP	89	312	7
NMTAP	89	336	6
NMTAP	89	360	5
NMTTP	90	0	0	C	1	M1
NMTTP	90	0	1	B	0	M1
NMTTP	90	0	2	B	0	M1
EXTAP	90	0	4

T_REC_TAP	341
T_REC_BRK	17
T_REC_XTP	24
T_REC_BXX	2
T_REC_HLD	35
T_REC_XHO	2
T_REC_BHO	0
T_REC_BXH	0
T_REC_STR	87
T_REC_BST	0
T_REC_XST	2
T_REC_XBS	0
T_REC_TTP	31
T_REC_THO	0
T_REC_SLD	88
T_REC_BSL	5
T_REC_ALL	634
T_NUM_TAP	485
T_NUM_BRK	24
T_NUM_HLD	37
T_NUM_SLD	88
T_NUM_ALL	634
T_JUDGE_TAP	504
T_JUDGE_HLD	140
T_JUDGE_SLD	93
T_JUDGE_ALL	737
TTM_EACHPAIRS	101
TTM_SCR_TAP	242500
TTM_SCR_BRK	62400
TTM_SCR_HLD	37000
TTM_SCR_SLD	132000
TTM_SCR_ALL	473900
TTM_SCR_S	457400
TTM_SCR_SS	471500
TTM_RAT_ACV	10050

