VERSION	0.00.00	1.05.00
FES_MODE	0
BPM_DEF	174.000	174.000	174.000	174.000
MET_DEF	4	4
RESOLUTION	384
CLK_DEF	384
COMPATIBLE_CODE	MA2

BPM	0	0	174.000
MET	0	0	4	4

NMTAP	2	0	2
NMHLD	2	48	2	240
NMTAP	2	288	3
NMHLD	2	336	3	240
NMTTP	3	192	2	B	0	M1
NMTTP	3	192	2	E	0	M1
NMTAP	4	0	5
NMHLD	4	48	5	240
NMTAP	4	288	4
NMHLD	4	336	4	240
NMTTP	5	192	5	B	0	M1
NMTTP	5	192	6	E	0	M1
NMTAP	6	0	2
NMHLD	6	48	2	240
NMTAP	6	288	3
NMHLD	6	336	3	240
NMTAP	7	192	1
NMTAP	7	288	0
NMTAP	7	288	1
EXHLD	8	0	0	96
EXHLD	8	0	1	96
EXHLD	8	144	0	96
EXHLD	8	144	7	96
EXTAP	8	288	6
EXTAP	8	288	7
EXTAP	8	336	6
EXTAP	8	336	7
NMTAP	9	48	5
NMHLD	9	96	5	96
NMTAP	9	192	3
BRTAP	9	288	2
BRTAP	9	288	6
NMTAP	10	0	1
NMTAP	10	0	5
NMTAP	10	96	1
NMTAP	10	96	5
NMTAP	10	192	6
NMTAP	10	240	6
NMTAP	10	288	4
NMTAP	11	0	2
NMTAP	11	48	2
NMSTR	11	96	3
NMSCR	11	96	3	96	96	6
NMTAP	12	0	6
NMTAP	12	96	3
NMTAP	12	96	5
NMTAP	12	192	1
NMTAP	12	240	1
NMTAP	12	288	3
NMTAP	13	0	5
NMTAP	13	48	5
NMSTR	13	96	4
NMSCL	13	96	4	96	96	1
NMTAP	14	0	1
NMTAP	14	0	5
NMTAP	14	96	1
NMTAP	14	96	5
NMTAP	14	192	6
NMTAP	14	240	6
NMTAP	14	288	4
NMTAP	15	0	1
NMTAP	15	48	1
NMTAP	15	96	3
NMTAP	15	192	2
NMTAP	15	192	4
NMSTR	15	288	2
NMSCL	15	288	2	96	96	7
NMHLD	15	288	4	96
NMTAP	16	192	6
NMTAP	16	288	5
NMTAP	16	288	7
NMTAP	16	336	5
NMTAP	16	336	7
NMTAP	17	48	0
NMTAP	17	48	4
NMHLD	17	144	1	96
NMTAP	17	144	3
NMTAP	17	240	0
NMTAP	17	288	0
BRTAP	18	0	2
BRTAP	18	0	7
NMTAP	18	192	6
NMTAP	18	240	6
NMSTR	18	288	7
NMSCR	18	288	7	96	96	2
NMTAP	19	192	1
NMTAP	19	240	1
NMSTR	19	288	0
NMSCL	19	288	0	96	96	5
NMTAP	20	192	2
NMTAP	20	240	2
NMTAP	20	288	0
NMTAP	21	0	5
NMTAP	21	48	5
NMTAP	21	96	7
NMTAP	21	192	0
NMTAP	21	192	6
NMTAP	21	288	1
NMTAP	21	288	7
NMHLD	22	0	2	96
NMHLD	22	96	1	96
NMHLD	22	192	0	96
NMHLD	22	288	7	96
NMHLD	23	0	6	96
NMHLD	23	96	5	96
NMTAP	23	192	4
NMSTR	23	288	4
NMSCL	23	288	4	96	96	1
NMSTR	23	288	5
NMSCR	23	288	5	96	96	0
EXTAP	24	192	0
EXTAP	24	192	1
NMSTR	24	288	2
NMSCL	24	288	2	96	96	7
NMSTR	24	288	3
NMSCR	24	288	3	96	96	6
BXTAP	25	192	0
BXTAP	25	192	5
NMTAP	25	288	1
NMTAP	25	288	4
NMHLD	26	0	2	1344
NMTAP	26	0	3
NMTTP	26	192	3	E	0	M1
NMTTP	27	0	1	E	0	M1
NMTTP	27	192	2	E	0	M1
NMTTP	28	0	0	E	0	M1
NMTTP	28	192	2	B	0	M1
NMTHO	29	0	0	192	C	0	M1
NMHLD	30	0	6	576
NMTTP	30	192	6	E	0	M1
NMTTP	31	0	7	E	0	M1
NMTTP	31	192	0	E	0	M1
NMTAP	32	0	6
NMTAP	32	96	5
NMTAP	32	192	3
NMTAP	32	288	2
NMTAP	33	0	1
NMHLD	33	0	3	192
NMTAP	33	192	2
NMTAP	33	288	0
NMTAP	33	288	1
BRTAP	34	0	6
BRTAP	34	0	7
NMTAP	34	96	4
NMTAP	34	96	5
NMTAP	34	192	2
NMTAP	34	192	3
NMTAP	34	288	1
NMHLD	34	336	1	96
NMTAP	35	48	0
NMTAP	35	96	7
NMHLD	35	144	6	96
NMTAP	35	240	7
NMTAP	35	336	0
NMTAP	35	336	5
NMTAP	36	48	1
NMTAP	36	96	3
NMTAP	36	144	2
NMTAP	36	240	6
NMTAP	36	288	4
NMSTR	36	336	5
NMSCR	36	336	5	96	96	0
NMTAP	37	144	2
NMTAP	37	192	2
BRTAP	37	288	1
BRTAP	37	288	3
NMSTR	38	0	0
NMSI_	38	0	0	96	96	4
NMSTR	38	192	7
NMSI_	38	192	7	96	96	3
NMSTR	39	0	1
NMSI_	39	0	1	96	96	5
NMSTR	39	192	6
NMSI_	39	192	6	96	96	4
CNSI_	40	0	4	0	96	2
CNSI_	40	96	2	0	96	0
NMTAP	40	288	7
NMTAP	41	0	1
NMTAP	41	48	1
NMTAP	41	96	2
NMTAP	41	96	3
NMTAP	41	192	4
NMTAP	41	192	5
NMTAP	41	288	6
NMTAP	41	288	7
BRTAP	42	0	0
BRTAP	42	0	1
NMTAP	42	96	2
NMTAP	42	96	3
NMTAP	42	192	4
NMTAP	42	192	5
NMTAP	42	288	6
NMHLD	42	336	6	96
NMTAP	43	48	7
NMTAP	43	96	0
NMHLD	43	144	1	96
NMTAP	43	240	0
NMTAP	43	336	2
NMTAP	43	336	7
NMTAP	44	48	6
NMTAP	44	96	4
NMTAP	44	144	5
NMTAP	44	240	1
NMTAP	44	288	3
NMSTR	44	336	2
NMSXL	44	336	2	96	240	5
EXTAP	46	0	6
EXTAP	46	0	7
NMTAP	46	96	6
NMTAP	46	96	7
NMTAP	46	192	4
NMTAP	46	192	5
NMTAP	46	288	2
NMTAP	46	288	3
NMTAP	47	0	0
NMTAP	47	0	1
NMTAP	47	96	0
NMTAP	47	96	1
NMTAP	47	192	2
NMTAP	47	192	3
NMTAP	47	288	4
NMTAP	47	288	5
BRTAP	48	0	6
BRTAP	48	0	7
NMTAP	48	96	1
NMTAP	48	144	0
NMTAP	48	144	2
NMTAP	48	240	6
NMSTR	48	288	5
NMSCL	48	288	5	96	96	2
NMTAP	48	288	7
BXTAP	49	96	0
NMTAP	49	192	1
NMTAP	49	192	7
NMTAP	49	240	1
NMTAP	49	240	7
NMSTR	49	288	1
NMSI_	49	288	1	96	192	4
NMTAP	49	288	7
CNSI_	50	192	4	0	192	7
CNSI_	51	0	7	0	192	2
NMHLD	52	0	2	288
NMHLD	52	0	3	288
NMTAP	53	0	3
NMTAP	53	0	4
NMTAP	53	192	4
NMTAP	53	192	5
NMTAP	53	288	4
NMSTR	53	288	5
NMSI_	53	288	5	96	192	2
CNSI_	54	192	2	0	192	7
CNSI_	55	0	7	0	192	4
NMHLD	56	0	4	288
NMHLD	56	0	5	288
NMTAP	57	0	4
NMTAP	57	0	5
NMTAP	57	192	3
NMTAP	57	192	4
NMTAP	58	0	2
NMHLD	58	96	1	192
NMTAP	58	288	3
NMTAP	59	0	5
NMHLD	59	96	6	192
NMTAP	59	288	4
NMTAP	60	0	2
NMHLD	60	96	0	192
NMTAP	60	288	3
NMTAP	61	0	5
NMHLD	61	96	7	192
NMTAP	61	288	4
NMTTP	62	0	6	B	0	M1
NMTTP	62	0	6	E	0	M1
NMTTP	62	0	6	A	0	M1
NMTTP	62	144	3	B	0	M1
NMTTP	62	144	3	A	0	M1
NMTTP	62	144	4	E	0	M1
NMTTP	62	288	1	E	0	M1
NMTHO	63	0	0	192	C	0	M1
NMTAP	64	0	0
NMHLD	64	48	0	96
NMHLD	64	144	1	96
NMHLD	64	240	2	96
NMTAP	64	336	3
NMTAP	65	48	4
NMTAP	65	48	5
NMTAP	65	96	4
NMTAP	65	96	5
NMTAP	65	192	0
NMTAP	65	192	7
NMSTR	65	288	1
NMSI_	65	288	1	96	48	4
NMSTR	66	0	0
NMSI_	66	0	0	96	48	5
NMTAP	66	192	4
NMTAP	66	192	6
NMTAP	66	288	7
NMHLD	66	336	7	96
NMTAP	67	48	4
NMTAP	67	96	3
NMHLD	67	144	2	96
NMHLD	67	240	4	96
NMSTR	67	336	6
NMSCR	67	336	6	96	96	1
NMTAP	68	240	2
NMTAP	68	288	2
NMTAP	68	336	1
NMTAP	68	336	3
NMTAP	69	48	2
NMTAP	69	48	4
NMTAP	69	144	3
NMTAP	69	144	5
NMTAP	69	240	4
NMTAP	69	240	6
NMHLD	69	288	4	96
NMHLD	69	288	6	96
NMTAP	70	48	5
NMTAP	70	96	5
NMTAP	70	144	4
NMHLD	70	192	6	96
BXTAP	70	288	7
BXTAP	70	336	7
BXTAP	71	48	0
BXTAP	71	48	1
BXTAP	71	144	2
BXTAP	71	144	3
BXSTR	71	240	4
BRSCL	71	240	4	96	240	7
BXSTR	71	240	5
BRSUL	71	240	5	96	240	6
NMTAP	72	288	0
NMTAP	72	288	5
NMTAP	72	336	0
NMTAP	72	336	5
NMTAP	73	48	2
NMTAP	73	48	3
NMTAP	73	96	2
NMTAP	73	96	3
NMTAP	73	192	0
NMTAP	73	192	7
NMSTR	73	288	6
NMSI_	73	288	6	96	48	3
NMSTR	74	0	7
NMSI_	74	0	7	96	48	2
NMTAP	74	192	1
NMTAP	74	192	3
NMTAP	74	288	0
NMHLD	74	336	0	96
NMTAP	75	48	3
NMTAP	75	96	4
NMHLD	75	144	5	96
NMHLD	75	240	3	96
NMSTR	75	336	1
NMSI_	75	336	1	96	96	4
NMSI_	75	336	1	96	96	6
NMTAP	76	240	5
NMTAP	76	288	5
NMTAP	76	336	4
NMTAP	76	336	5
NMTAP	77	48	2
NMTAP	77	48	3
NMTAP	77	144	3
NMTAP	77	144	5
NMTAP	77	192	3
NMTAP	77	192	5
BRTAP	77	288	2
BRSTR	77	288	6
NMSI_	77	288	6	96	96	4
CNSI_	78	96	4	0	96	7
CNSI_	78	192	7	0	96	3
NMTAP	78	288	0
NMTAP	78	336	0
NMTAP	79	48	1
NMTAP	79	48	3
NMHLD	79	144	4	96
NMHLD	79	144	6	96
NMTAP	79	288	5
NMTAP	79	336	5
BRTAP	80	0	4
BRTAP	80	0	6
NMTAP	80	96	2
NMTAP	80	144	1
NMTAP	80	144	3
NMTAP	80	240	4
NMTAP	80	288	3
NMTAP	80	288	5
NMSTR	81	0	1
NMSLR	81	0	1	96	192	0
NMSTR	81	0	6
NMSLL	81	0	6	96	192	7
BRTAP	82	0	1
BRTAP	82	0	6
NMHLD	82	96	2	144
NMTAP	82	240	0
NMTAP	82	288	1
NMTAP	82	288	7
NMTAP	83	0	2
NMTAP	83	0	6
NMTAP	83	96	3
NMHLD	83	96	5	144
NMTAP	83	240	4
NMTAP	83	288	3
NMTAP	83	288	6
NMTAP	84	0	5
NMTAP	84	48	4
NMTAP	84	96	3
NMHLD	84	144	2	96
NMHLD	84	240	0	96
NMHLD	84	336	7	96
NMHLD	85	48	5	96
NMTAP	85	144	4
NMTAP	85	192	4
NMTAP	85	288	3
NMTAP	85	288	6
NMSTR	86	0	5
NMSCL	86	0	5	96	96	2
NMHLD	86	192	1	96
NMTAP	86	288	0
NMSTR	87	0	2
NMSCR	87	0	2	96	96	5
NMTAP	87	0	7
NMHLD	87	192	6	96
NMTAP	87	288	7
NMTAP	88	0	0
NMTAP	88	0	5
NMTAP	88	96	2
NMTAP	88	96	3
NMTAP	88	144	2
NMTAP	88	144	3
NMTAP	88	240	2
NMTAP	88	240	3
NMTAP	88	336	0
NMTAP	88	336	1
NMTAP	89	48	6
NMTAP	89	48	7
NMTAP	89	96	6
NMSTR	89	96	7
NMSUR	89	96	7	96	192	1
NMTTP	90	0	3	B	0	M1
NMTTP	90	0	3	E	1	M1
NMTTP	90	0	3	A	0	M1
NMTTP	90	0	3	D	0	M1

T_REC_TAP	253
T_REC_BRK	17
T_REC_XTP	8
T_REC_BXX	9
T_REC_HLD	52
T_REC_XHO	4
T_REC_BHO	0
T_REC_BXH	0
T_REC_STR	29
T_REC_BST	1
T_REC_XST	0
T_REC_XBS	2
T_REC_TTP	23
T_REC_THO	2
T_REC_SLD	31
T_REC_BSL	2
T_REC_ALL	433
T_NUM_TAP	313
T_NUM_BRK	31
T_NUM_HLD	58
T_NUM_SLD	31
T_NUM_ALL	433
T_JUDGE_TAP	342
T_JUDGE_HLD	202
T_JUDGE_SLD	33
T_JUDGE_ALL	577
TTM_EACHPAIRS	104
TTM_SCR_TAP	156500
TTM_SCR_BRK	80600
TTM_SCR_HLD	58000
TTM_SCR_SLD	46500
TTM_SCR_ALL	341600
TTM_SCR_S	328350
TTM_SCR_SS	338500
TTM_RAT_ACV	10091

