VERSION	0.00.00	1.05.00
FES_MODE	0
BPM_DEF	126.000	126.000	126.000	126.000
MET_DEF	4	4
RESOLUTION	384
CLK_DEF	384
COMPATIBLE_CODE	MA2

BPM	0	0	126.000
MET	0	0	4	4

NMTAP	1	0	3
NMTAP	1	0	4
NMTAP	1	72	1
NMTAP	1	72	3
NMTAP	1	144	0
NMTAP	1	144	3
NMHLD	1	192	1	96
NMTAP	1	240	2
NMTAP	1	288	2
NMTAP	2	0	2
NMTAP	2	0	4
NMTAP	2	72	4
NMTAP	2	72	5
NMTAP	2	144	6
NMTAP	2	144	7
NMTAP	2	192	6
NMTAP	2	192	7
NMTTP	2	240	1	E	0	M1
NMTTP	2	240	1	A	0	M1
NMTTP	2	240	1	D	0	M1
NMTTP	2	240	4	A	0	M1
NMTTP	2	240	5	E	0	M1
NMTTP	2	240	5	D	0	M1
NMTTP	2	336	3	E	0	M1
NMTTP	2	336	3	A	0	M1
NMTTP	2	336	3	D	0	M1
NMTTP	2	336	6	A	0	M1
NMTTP	2	336	7	E	0	M1
NMTTP	2	336	7	D	0	M1
NMTAP	3	0	2
NMTAP	3	0	4
NMTAP	3	72	0
NMTAP	3	72	1
NMTAP	3	144	6
NMTAP	3	144	7
NMSTR	3	192	5
NMSI_	3	192	5	96	32	1
EXTAP	3	288	3
EXTAP	3	288	5
NMTAP	4	0	1
NMTAP	4	0	3
NMTAP	4	48	2
NMTAP	4	48	4
NMSTR	4	96	3
NMSI_	4	96	3	96	32	7
NMSTR	4	96	5
NMSI_	4	96	5	96	32	1
NMTAP	4	144	2
NMTAP	4	144	6
NMTTP	4	192	0	C	1	M1
NMTAP	5	0	0
NMTAP	5	0	1
NMTAP	5	48	0
NMTAP	5	48	1
NMTAP	5	96	6
NMTAP	5	96	7
NMTAP	5	144	4
NMTAP	5	144	5
NMTAP	5	192	2
NMTAP	5	192	3
NMSTR	5	240	0
NMSUR	5	240	0	96	32	4
NMTAP	5	240	1
NMTAP	5	288	7
NMHLD	5	336	5	96
NMTAP	6	48	4
NMTAP	6	96	6
NMTAP	6	96	7
NMTAP	6	144	0
NMTAP	6	144	1
NMTAP	6	192	2
NMTAP	6	192	3
NMTAP	6	288	5
NMTAP	6	320	5
NMTAP	6	336	4
NMHLD	7	0	6	48
NMTAP	7	48	7
NMTAP	7	80	7
NMHLD	7	144	1	48
NMTAP	7	192	0
NMTAP	7	224	0
NMTAP	7	288	2
NMTAP	7	288	3
NMTAP	7	336	4
NMHLD	8	0	6	48
NMHLD	8	48	4	48
NMHLD	8	96	3	48
NMHLD	8	144	1	48
NMSTR	8	192	3
NMSF_	8	192	3	96	32	7
EXTAP	8	272	3
NMTAP	9	0	6
NMTAP	9	0	7
NMTAP	9	48	6
NMTAP	9	48	7
NMTAP	9	96	0
NMTAP	9	96	1
NMTAP	9	144	2
NMTAP	9	144	3
NMTAP	9	192	4
NMTAP	9	192	5
NMTAP	9	240	6
NMSTR	9	240	7
NMSUL	9	240	7	96	32	3
NMTAP	9	288	0
NMHLD	9	336	2	96
NMTAP	10	48	3
NMTAP	10	96	0
NMTAP	10	96	1
NMTAP	10	144	6
NMTAP	10	144	7
NMTAP	10	192	4
NMTAP	10	192	5
NMTAP	10	288	1
NMTAP	10	320	1
NMTAP	10	336	0
EXHLD	11	0	2	64
NMTAP	11	32	3
NMTAP	11	64	4
EXHLD	11	96	5	64
NMTAP	11	128	6
NMTAP	11	160	7
EXHLD	11	192	0	64
NMTAP	11	224	7
NMTAP	11	256	6
EXHLD	11	288	5	64
NMTAP	11	320	4
NMTAP	11	352	3
BXHLD	12	0	2	192
NMSTR	12	96	0
NMSI_	12	96	0	96	32	4
NMTAP	12	144	0
BXTAP	12	192	0
BRTAP	12	288	1
BRTAP	12	288	5
EXTAP	13	0	2
EXTAP	13	0	6
NMHLD	13	48	6	288
NMTAP	13	144	4
NMTAP	13	240	3
NMTAP	13	336	4
NMTAP	14	48	4
NMHLD	14	48	5	192
NMTAP	14	144	6
NMTAP	14	240	4
NMTAP	14	336	4
NMTAP	14	336	6
NMSTR	15	0	7
NMSXR	15	0	7	96	96	7
NMTAP	15	96	0
NMSTR	15	192	0
NMSI_	15	192	0	96	32	3
NMTAP	15	288	3
NMHLD	16	0	1	48
NMHLD	16	0	3	48
NMSTR	16	96	4
NMSI_	16	96	4	96	32	7
NMTAP	16	96	6
NMTAP	16	192	7
BRTAP	16	288	0
BRTAP	16	288	6
NMTAP	17	0	4
NMSTR	17	0	5
NMSI_	17	0	5	96	32	1
NMTAP	17	48	4
NMTAP	17	48	5
NMSTR	17	96	2
NMSI_	17	96	2	96	32	4
NMTAP	17	144	2
NMSTR	17	192	6
NMSI_	17	192	6	96	32	0
NMTAP	17	240	6
NMTAP	17	288	3
NMSTR	18	0	2
NMSCR	18	0	2	96	32	5
NMTAP	18	48	3
NMSTR	18	96	6
NMSCR	18	96	6	96	32	1
NMTAP	18	144	7
NMTAP	18	192	4
NMTAP	18	240	3
NMTAP	18	288	0
NMTAP	18	288	2
NMSTR	19	0	3
NMSCL	19	0	3	96	32	0
NMTAP	19	48	3
NMSTR	19	96	7
NMSV_	19	96	7	96	32	4
NMTAP	19	144	7
NMTAP	19	192	1
NMTAP	19	240	2
EXSTR	19	288	3
NMSLL	19	288	3	96	96	7
NMTAP	19	336	3
EXSTR	20	0	7
NMSLL	20	0	7	96	96	3
NMTAP	20	48	7
EXSTR	20	96	3
NMSI_	20	96	3	96	48	7
NMTAP	20	144	3
NMTAP	20	288	0
NMTAP	20	288	6
NMHLD	21	0	6	48
NMHLD	21	48	5	48
NMHLD	21	96	4	48
NMHLD	21	144	2	48
NMHLD	21	192	5	48
NMHLD	21	240	4	48
NMHLD	21	288	3	48
NMTAP	21	336	1
NMHLD	22	0	1	48
NMHLD	22	48	3	48
NMHLD	22	96	5	48
NMHLD	22	144	7	48
NMHLD	22	192	2	48
NMHLD	22	240	4	48
NMHLD	22	288	6	48
NMTAP	22	336	0
NMSTR	23	0	1
NMSCR	23	0	1	96	16	2
NMSTR	23	0	7
NMSV_	23	0	7	96	32	4
NMTAP	23	48	0
NMTAP	23	48	6
CNSI_	23	112	2	0	16	4
NMSTR	23	192	2
NMSCL	23	192	2	96	16	1
NMSTR	23	192	4
NMSV_	23	192	4	96	32	7
NMTAP	23	240	3
NMTAP	23	240	5
CNSI_	23	304	1	0	16	7
NMTTP	24	0	2	B	0	M1
NMTTP	24	0	2	A	0	M1
NMTTP	24	0	3	E	1	M1
EXTAP	24	0	6
EXTAP	24	96	1
NMTTP	24	96	3	B	0	M1
NMTTP	24	96	4	B	0	M1
NMTTP	24	96	4	E	1	M1
NMTTP	24	192	0	B	0	M1
NMTTP	24	192	0	E	1	M1
EXTAP	24	192	5
NMTTP	24	192	7	B	0	M1
NMTAP	25	0	2
NMTAP	25	32	2
NMTAP	25	48	3
NMSTR	25	96	1
NMSI_	25	96	1	96	48	3
NMTAP	25	128	1
NMTAP	25	144	3
CNSUL	25	240	3	0	48	5
NMTAP	25	288	4
NMTAP	26	0	5
NMTAP	26	32	5
NMTAP	26	48	4
NMSTR	26	96	6
NMSLL	26	96	6	96	64	0
NMTAP	26	128	6
NMTAP	26	144	4
NMTAP	26	288	1
NMTAP	26	288	7
NMTAP	27	0	2
NMSTR	27	0	4
NMSI_	27	0	4	96	32	0
NMTAP	27	48	5
NMSTR	27	96	3
NMSI_	27	96	3	96	32	7
NMTAP	27	96	4
NMTAP	27	144	2
NMTAP	27	192	3
NMSTR	27	192	4
NMSI_	27	192	4	96	32	0
NMTAP	27	240	6
NMSTR	27	288	3
NMSI_	27	288	3	96	32	7
NMTAP	27	288	4
NMTAP	27	336	1
EXTAP	28	0	3
NMTAP	28	0	5
NMTAP	28	48	6
NMTAP	28	96	0
NMTAP	28	96	7
NMTAP	28	144	1
NMTAP	28	144	3
NMTAP	28	192	5
NMTAP	28	208	4
NMTAP	28	224	5
NMTAP	28	240	4
NMTAP	28	256	5
EXHLD	28	272	3	112
NMTAP	28	336	7
BRTAP	29	0	0
NMTTP	29	192	2	B	0	M1
NMTTP	29	192	2	E	0	M1
NMTTP	29	192	2	A	0	M1
NMTTP	29	192	3	E	0	M1
NMTTP	29	192	3	A	0	M1
NMTTP	29	240	4	A	0	M1
NMTTP	29	240	5	B	0	M1
NMTTP	29	240	5	E	0	M1
NMTTP	29	240	5	A	0	M1
NMTTP	29	240	6	E	0	M1
NMTTP	29	288	0	E	0	M1
NMTTP	29	288	0	A	0	M1
NMTTP	29	288	0	D	0	M1
NMTTP	29	288	1	D	0	M1
NMTTP	29	288	7	A	0	M1
NMTTP	29	288	7	D	0	M1
NMSTR	30	0	1
NMSUR	30	0	1	96	32	6
NMSTR	30	0	5
NMSCL	30	0	5	96	32	2
NMTAP	30	48	0
NMTAP	30	48	4
BRTAP	30	96	1
BRTAP	30	96	5
EXHLD	30	176	7	64
NMTAP	30	240	5
NMTAP	30	288	0
NMTAP	30	288	4
NMTAP	30	336	1
NMTAP	30	336	3
NMHLD	31	0	1	80
NMTAP	31	0	3
NMTTP	31	80	3	D	0	M1
NMTTP	31	88	2	A	0	M1
NMTTP	31	96	2	D	0	M1
NMTTP	31	104	1	A	0	M1
NMTTP	31	112	1	D	0	M1
NMTTP	31	120	0	A	0	M1
NMTTP	31	128	0	D	0	M1
NMTTP	31	136	7	A	0	M1
NMTTP	31	144	7	D	0	M1
NMTTP	31	152	6	A	0	M1
NMTTP	31	160	6	D	0	M1
NMTTP	31	168	5	A	0	M1
NMTTP	31	176	5	D	0	M1
NMTTP	31	184	4	A	0	M1
NMTTP	31	192	0	C	1	M1
NMTTP	31	192	4	D	0	M1
NMHLD	31	288	1	48
NMTAP	31	336	3
NMHLD	32	0	5	48
NMTAP	32	48	4
NMTAP	32	96	4
NMTAP	32	96	5
EXTAP	32	144	2
EXTAP	32	144	3
EXSTR	32	176	2
NMSLL	32	176	2	96	48	6
EXTAP	32	176	3
NMTAP	32	240	4
NMTAP	32	288	4
NMSTR	32	336	3
NMSCL	32	336	3	96	48	0
NMSCR	32	336	3	96	48	6
EXTAP	32	368	3
EXTAP	33	192	1
EXHLD	33	192	7	48
EXTAP	33	208	2
EXTAP	33	224	3
EXTAP	33	240	4
EXHLD	33	288	0	48
EXTAP	33	288	6
EXTAP	33	304	5
EXTAP	33	320	4
EXTAP	33	336	3
NMSTR	34	0	1
NMSCR	34	0	1	96	32	4
NMSTR	34	0	5
NMSCR	34	0	5	96	32	0
NMTAP	34	48	0
NMTAP	34	48	4
NMTAP	34	96	1
NMTAP	34	96	5
EXHLD	34	176	2	64
NMTAP	34	240	0
NMTAP	34	288	0
NMTAP	34	288	1
NMTAP	34	336	2
NMTAP	34	336	3
NMSTR	35	0	4
NMSCL	35	0	4	96	48	1
NMSTR	35	48	1
NMSCL	35	48	1	96	48	6
NMSTR	35	96	6
NMSCL	35	96	6	96	48	3
NMTAP	35	144	3
EXTAP	35	192	0
NMTAP	35	288	2
NMTAP	35	288	3
NMTAP	35	336	1
NMSTR	36	0	0
NMSUR	36	0	0	96	32	4
NMSTR	36	0	1
NMSCR	36	0	1	96	32	4
EXTAP	36	80	0
EXTAP	36	80	1
NMTAP	36	176	5
NMTAP	36	192	4
NMSTR	36	240	6
BRSXR	36	240	6	96	144	3
NMSTR	36	240	7
BRSXL	36	240	7	96	144	2
NMTAP	36	288	0
NMTAP	37	192	1
NMTAP	37	208	0
NMTAP	37	224	1
NMTAP	37	240	0
NMTAP	37	288	6
NMTAP	37	304	7
NMTAP	37	320	6
NMTAP	37	336	7
NMHLD	38	0	4	288
NMHLD	38	0	5	288
BRTAP	39	0	4
BRTAP	39	0	6
NMTAP	39	32	7
NMTAP	39	64	7
BRTAP	39	96	1
BRTAP	39	96	3
NMTAP	39	128	0
NMTAP	39	160	0
NMTTP	39	192	0	B	0	M1
BRTAP	39	192	5
NMTTP	39	200	0	C	0	M1
NMTTP	39	208	4	B	0	M1
NMTTP	39	216	4	A	0	M1
EXTAP	39	288	2
EXTAP	39	288	6
NMTAP	40	0	0
NMTAP	40	0	7
NMTAP	40	48	0
NMTAP	40	48	7
NMTAP	40	96	6
NMTAP	40	128	6
NMTAP	40	144	4
NMHLD	40	192	1	48
NMTAP	40	240	3
NMTAP	40	288	6
NMTAP	40	320	6
NMTAP	40	336	7
NMHLD	41	0	1	32
NMTAP	41	48	2
NMHLD	41	96	5	32
NMTAP	41	144	6
NMTAP	41	192	2
NMTAP	41	224	2
NMTAP	41	240	4
NMTAP	41	272	4
NMTAP	41	288	3
NMTAP	41	320	3
NMTAP	41	336	5
NMTAP	41	368	5
NMSTR	42	0	4
NMSXR	42	0	4	96	192	1
EXTAP	42	96	5
EXTAP	42	144	6
EXTAP	42	192	7
EXTAP	42	240	0
EXTAP	42	288	0
BRTAP	43	0	2
NMTAP	43	32	1
NMTAP	43	32	3
BRTAP	43	96	6
NMTAP	43	128	5
NMTAP	43	128	7
BRTAP	43	192	0
BRTAP	43	192	1
NMTAP	43	224	0
NMTAP	43	224	1
BRTAP	43	272	3
BRTAP	43	272	6
NMSTR	43	336	1
NMSCR	43	336	1	96	32	4
NMTAP	44	0	0
NMTAP	44	48	1
NMTAP	44	96	7
NMTAP	44	144	6
NMSTR	44	192	5
NMSI_	44	192	5	96	32	3
NMTAP	44	240	5
NMSTR	44	288	7
NMSUL	44	288	7	96	96	0
NMTAP	44	336	7
NMHLD	45	0	4	96
EXTAP	45	144	0
EXTAP	45	192	1
EXTAP	45	192	3
EXTAP	45	224	1
EXTAP	45	224	3
EXTAP	45	272	4
EXTAP	45	272	5
NMSTR	45	336	6
NMSCL	45	336	6	96	32	3
NMTAP	46	0	7
NMTAP	46	48	6
NMTAP	46	96	0
NMSTR	46	144	1
NMSCR	46	144	1	96	32	4
NMTAP	46	192	0
NMTAP	46	240	1
NMTAP	46	288	7
NMTAP	46	336	7
EXSTR	47	0	5
NMSI_	47	0	5	96	32	0
NMSI_	47	0	5	96	32	1
EXTAP	47	32	5
EXTAP	47	192	0
EXTAP	47	192	1
EXTAP	47	224	0
EXTAP	47	224	1
EXTAP	47	272	2
EXTAP	47	272	7
NMSTR	47	336	5
NMSCR	47	336	5	96	32	0
NMTAP	48	0	4
NMTAP	48	48	5
NMTAP	48	96	3
NMSTR	48	144	2
NMSCL	48	144	2	96	32	7
NMTAP	48	192	3
NMTAP	48	240	2
NMSTR	48	288	4
NMSXL	48	288	4	96	48	6
NMSXR	48	288	4	96	48	2
NMTAP	48	336	4
NMSTR	49	0	4
NMSI_	49	0	4	96	48	0
NMTAP	49	192	1
NMTAP	49	240	2
NMTAP	49	240	3
NMTAP	49	288	5
BRSTR	49	336	4
NMSI_	49	336	4	96	32	0
BRSTR	49	336	6
NMSI_	49	336	6	96	32	4
BRTAP	50	0	4
BRTAP	50	0	6
NMTTP	50	48	6	E	1	M1
BRSTR	50	144	1
NMSI_	50	144	1	96	32	3
BRSTR	50	144	3
NMSI_	50	144	3	96	32	7
BRTAP	50	192	1
BRTAP	50	192	3
NMTTP	50	240	2	E	1	M1
BRSTR	50	336	4
BRSF_	50	336	4	96	48	0
BRTAP	51	0	3
BRTAP	51	0	5
NMTTP	51	48	4	B	1	M1
NMHLD	51	192	0	48
NMHLD	51	192	6	48
NMSTR	51	288	1
NMSXR	51	288	1	96	128	2
NMSTR	51	288	5
NMSXR	51	288	5	96	128	6
NMHLD	52	192	1	96
NMHLD	52	192	5	96
BRSTR	53	0	0
BRSSL	53	0	0	96	144	4
BRSTR	53	0	7
BRSSR	53	0	7	96	144	3
NMSTR	54	0	3
BRSI_	54	0	3	96	48	0
NMSTR	54	0	4
BRSI_	54	0	4	96	48	7
BRTAP	54	96	3
BRTAP	54	96	4
NMTTP	54	96	4	E	1	M1
NMTAP	54	288	0
NMTAP	54	304	7
NMTAP	54	320	0
NMTAP	54	336	7
NMHLD	55	0	4	48
NMHLD	55	0	6	48
NMTTP	55	80	3	A	0	M1
BRTAP	55	80	4
NMTTP	55	88	3	D	0	M1
NMTTP	55	96	2	A	0	M1
NMTTP	55	104	2	D	0	M1
NMTTP	55	112	1	A	0	M1
NMTTP	55	120	1	D	0	M1
NMTTP	55	128	0	A	0	M1
NMTTP	55	136	0	D	0	M1
NMTTP	55	144	7	A	0	M1
NMTTP	55	152	7	D	0	M1
NMTTP	55	160	6	A	0	M1
NMTTP	55	168	6	D	0	M1
NMTTP	55	176	5	A	0	M1
NMTTP	55	184	5	D	0	M1
NMTTP	55	192	0	C	0	M1
NMTTP	55	192	4	A	1	M1
NMHLD	55	288	2	48
NMTAP	55	336	0
NMHLD	56	0	6	48
NMTAP	56	48	7
NMTAP	56	96	6
NMTAP	56	96	7
EXTAP	56	144	0
EXTAP	56	144	1
EXTAP	56	176	0
EXSTR	56	176	1
NMSLR	56	176	1	96	48	5
NMTAP	56	240	6
NMTAP	56	288	6
NMSTR	56	336	7
NMSCL	56	336	7	96	48	4
NMSCR	56	336	7	96	48	2
EXTAP	56	368	7
EXTAP	57	192	1
EXHLD	57	192	7	48
EXTAP	57	208	2
EXTAP	57	224	3
EXTAP	57	240	4
EXHLD	57	288	0	48
EXTAP	57	288	6
EXTAP	57	304	5
EXTAP	57	320	4
EXTAP	57	336	3
NMSTR	58	0	1
NMSI_	58	0	1	96	32	4
NMSTR	58	0	5
NMSI_	58	0	5	96	32	0
NMTAP	58	48	0
NMTAP	58	48	4
NMTAP	58	96	1
NMTAP	58	96	5
EXHLD	58	176	2	64
NMTAP	58	240	0
NMTAP	58	288	1
NMTAP	58	288	7
NMTAP	58	336	0
NMTAP	58	336	6
NMSTR	59	0	4
NMSI_	59	0	4	96	48	1
NMSTR	59	48	1
NMSI_	59	48	1	96	48	6
NMSTR	59	96	6
NMSI_	59	96	6	96	48	3
EXTAP	59	144	3
EXTAP	59	192	1
NMTAP	59	288	2
NMTAP	59	288	3
NMTAP	59	336	1
NMSTR	60	0	0
NMSCR	60	0	0	96	32	4
NMSTR	60	0	7
NMSUR	60	0	7	96	32	4
EXTAP	60	80	0
EXTAP	60	80	7
NMTAP	60	176	5
NMTAP	60	192	4
NMSTR	60	240	6
BRSUL	60	240	6	96	144	3
NMSTR	60	240	7
NMSXL	60	240	7	96	144	2
NMTAP	60	288	0
NMTAP	61	192	1
NMTAP	61	208	0
NMTAP	61	224	2
NMTAP	61	240	0
NMTAP	61	288	6
NMTAP	61	304	7
NMTAP	61	320	5
NMTAP	61	336	7
NMTHO	62	0	0	288	C	0	M1
NMTTP	62	0	2	B	0	M1
NMTTP	62	0	3	B	0	M1
BRTAP	63	0	4
BRTAP	63	0	6
NMTAP	63	32	7
NMTAP	63	64	7
BRTAP	63	96	1
BRTAP	63	96	3
NMTAP	63	128	0
NMTAP	63	160	0
NMTTP	63	192	1	D	1	M1
BRHLD	63	192	6	96
NMTTP	63	200	1	A	0	M1
NMTTP	63	208	2	D	0	M1
NMTTP	63	216	2	A	0	M1
NMTTP	63	224	3	D	0	M1
NMTTP	63	232	3	A	0	M1
NMTTP	63	288	0	C	0	M1
BRTAP	64	0	0
NMTAP	64	48	1
NMHLD	64	96	2	48
NMTAP	64	96	3
NMTAP	64	144	6
NMHLD	64	192	1	48
NMTAP	64	192	3
NMTAP	64	240	5
NMHLD	64	288	2	48
NMTAP	64	288	3
NMTAP	64	336	0
NMTAP	65	0	7
NMTAP	65	48	6
NMSTR	65	96	5
NMSI_	65	96	5	96	48	2
NMTAP	65	144	4
NMTAP	65	144	6
NMSTR	65	192	1
NMSI_	65	192	1	96	32	4
NMTAP	65	240	0
NMSTR	65	288	7
NMSI_	65	288	7	96	32	3
NMTAP	65	336	0
NMTAP	66	0	2
NMTAP	66	48	1
NMHLD	66	96	6	96
NMTAP	66	96	7
NMTAP	66	144	5
NMTAP	66	192	4
NMTAP	66	240	3
NMSTR	66	288	4
NMSCL	66	288	4	96	32	1
NMTAP	66	288	5
NMTAP	66	336	7
NMSTR	67	0	4
NMSCR	67	0	4	96	32	7
NMSTR	67	96	4
NMSI_	67	96	4	96	32	0
EXSTR	67	192	4
NMSI_	67	192	4	96	32	1
NMSI_	67	192	4	96	32	6
NMTAP	68	0	7
NMTAP	68	48	6
NMTAP	68	96	4
NMHLD	68	96	5	48
NMTAP	68	144	1
NMTAP	68	192	4
NMHLD	68	192	6	48
NMTAP	68	240	2
NMTAP	68	288	4
NMHLD	68	288	5	48
NMTAP	68	336	7
NMTAP	69	0	3
NMTAP	69	48	2
NMSTR	69	96	1
NMSI_	69	96	1	96	32	6
NMTAP	69	144	0
NMTAP	69	144	2
NMSTR	69	192	5
NMSI_	69	192	5	96	32	0
NMTAP	69	240	4
NMSTR	69	288	3
NMSCL	69	288	3	96	32	0
NMTAP	69	336	4
NMTAP	70	0	7
NMTAP	70	48	6
NMTAP	70	96	0
NMTAP	70	96	5
NMTAP	70	144	1
NMTAP	70	192	2
BRSTR	70	192	4
NMSLR	70	192	4	96	48	0
NMTAP	70	240	1
NMTAP	70	288	2
NMTAP	70	336	3
BRSTR	71	0	4
NMSLL	71	0	4	96	48	0
NMTAP	71	48	7
NMTAP	71	96	6
NMTAP	71	144	5
NMTAP	71	192	4
NMTAP	71	208	1
NMTAP	71	224	4
NMTAP	71	240	1
BRSTR	71	288	2
NMSI_	71	288	2	96	48	4
BRSTR	71	288	3
NMSI_	71	288	3	96	48	1
CNSCL	72	48	1	0	240	4
CNSCR	72	48	4	0	240	1
BRTAP	73	0	1
BRTAP	73	0	3
NMTAP	73	32	0
NMTAP	73	64	0
BRTAP	73	96	4
BRTAP	73	96	6
NMTAP	73	128	7
NMTAP	73	160	7
BXTAP	73	192	3
BXTAP	73	192	7
EXTAP	73	200	2
EXTAP	73	200	6
EXTAP	73	208	1
EXTAP	73	208	5
EXTAP	73	216	0
EXTAP	73	216	4
NMHLD	74	0	0	48
NMTAP	74	0	1
NMTAP	74	48	3
NMTAP	74	96	6
NMHLD	74	96	7	48
NMTAP	74	144	4
NMTAP	74	192	1
NMTAP	74	192	3
NMSTR	74	240	0
NMSUL	74	240	0	96	32	4
NMTAP	74	288	4
NMHLD	74	336	5	96
NMTAP	75	48	4
NMTAP	75	96	6
NMTAP	75	96	7
NMTAP	75	144	0
NMTAP	75	144	1
NMTAP	75	192	2
NMTAP	75	192	3
NMSTR	75	288	2
NMSCL	75	288	2	96	96	5
NMSTR	76	0	5
NMSCR	76	0	5	96	96	2
NMSTR	76	96	2
NMSUL	76	96	2	96	96	5
NMTAP	76	192	5
EXSTR	76	288	6
NMSCL	76	288	6	96	96	1
NMSTR	77	0	1
NMSCR	77	0	1	96	96	6
NMSTR	77	96	6
NMSUL	77	96	6	96	96	1
NMTAP	77	192	1
NMTAP	77	288	0
NMTAP	77	336	0
NMHLD	78	0	1	192
NMTAP	78	48	5
NMTAP	78	96	3
NMTAP	78	144	2
NMTAP	78	192	0
NMSTR	78	240	7
NMSUR	78	240	7	96	48	4
NMTAP	78	288	6
NMHLD	78	336	5	96
NMTAP	79	48	4
NMTAP	79	96	6
NMTAP	79	96	7
NMTAP	79	144	0
NMTAP	79	144	1
NMTAP	79	192	2
NMTAP	79	192	3
NMTAP	79	288	2
NMTAP	79	320	2
NMTAP	79	336	3
EXTAP	80	0	0
EXHLD	80	0	1	64
NMTAP	80	32	7
NMTAP	80	64	6
EXTAP	80	96	4
EXHLD	80	96	5	64
NMTAP	80	128	3
NMTAP	80	160	2
EXHLD	80	192	0	64
EXTAP	80	192	1
NMTAP	80	224	2
NMTAP	80	256	3
EXHLD	80	288	4	64
EXTAP	80	288	5
NMTAP	80	320	6
NMTAP	80	352	7
BXHLD	81	0	0	192
BXTAP	81	0	1
NMSTR	81	96	4
NMSI_	81	96	4	96	32	0
NMTAP	81	144	4
BXTAP	81	192	4
BRTAP	81	288	2
BRTAP	81	288	6
NMTTP	82	0	1	E	0	M1
NMTTP	82	80	2	B	0	M1
NMTTP	82	128	3	B	0	M1
NMTTP	82	176	4	B	0	M1
NMTTP	82	224	5	B	0	M1
NMTTP	82	280	5	D	0	M1
NMTTP	82	288	4	A	0	M1
NMTTP	82	296	3	A	0	M1
NMTTP	82	304	3	D	0	M1
EXTAP	83	96	2
EXTAP	83	112	3
EXTAP	83	128	4
EXTAP	83	144	5
BRTAP	83	240	4
BRTAP	83	240	6
BRTAP	83	320	1
BRTAP	83	320	3
BRSTR	84	0	0
BRSI_	84	0	0	96	32	4
BRSTR	84	0	7
BRSI_	84	0	7	96	32	3

T_REC_TAP	386
T_REC_BRK	42
T_REC_XTP	75
T_REC_BXX	5
T_REC_HLD	56
T_REC_XHO	16
T_REC_BHO	1
T_REC_BXH	2
T_REC_STR	80
T_REC_BST	13
T_REC_XST	8
T_REC_XBS	0
T_REC_TTP	96
T_REC_THO	1
T_REC_SLD	96
T_REC_BSL	10
T_REC_ALL	887
T_NUM_TAP	645
T_NUM_BRK	73
T_NUM_HLD	73
T_NUM_SLD	96
T_NUM_ALL	887
T_JUDGE_TAP	705
T_JUDGE_HLD	132
T_JUDGE_SLD	106
T_JUDGE_ALL	943
TTM_EACHPAIRS	160
TTM_SCR_TAP	322500
TTM_SCR_BRK	189800
TTM_SCR_HLD	73000
TTM_SCR_SLD	144000
TTM_SCR_ALL	729300
TTM_SCR_S	700350
TTM_SCR_SS	722000
TTM_RAT_ACV	10101

